#TITLE:PIERROT KNIfE;
#SUBTITLE:;
#ARTIST:まろん;
#TITLETRANSLIT:;
#SUBTITLETRANSLIT:;
#ARTISTTRANSLIT:Maron;
#GENRE:;
#CREDIT:;
#BANNER:PIERROT KNIfE.png;
#BACKGROUND:PIERROT KNIfE-bg.png;
#LYRICSPATH:;
#CDTITLE:;
#MUSIC:PIERROT KNIfE.ogg;
#OFFSET:-0.621000;
#SAMPLESTART:18.351002;
#SAMPLELENGTH:15.000000;
#SELECTABLE:YES;
#DISPLAYBPM:190.000000;
#BPMS:0.000000=380.000000
,24.000000=190.000000
,176.000000=47.500000
,178.000000=190.000000
,206.000000=380.000000
,210.000000=190.000000
;
#STOPS:16.000000=0.160000,
17.000000=0.160000,
18.000000=0.160000,
19.000000=0.160000,
20.000000=0.160000,
21.000000=0.160000,
22.000000=0.160000,
23.000000=0.160000,
206.000000=0.160000,
207.000000=0.160000,
208.000000=0.160000,
209.000000=0.160000
;
#BGCHANGES:;
#KEYSOUNDS:;
#ATTACKS:;

//---------------dance-single - ----------------
#NOTES:
     dance-single:
     :
     Hard:
     9:
     0.685186,0.617263,0.383704,0.617263,0.045878,455.000000,46.000000,74.000000,0.000000,0.000000,0.000000,0.685186,0.617263,0.383704,0.617263,0.045878,455.000000,46.000000,74.000000,0.000000,0.000000,0.000000:
0000
0000
0000
0000
,
0000
0000
0000
0000
,
0000
0000
0000
0000
,
0000
0000
0000
0000
,
0000
0000
0000
0000
,
0000
0000
0000
0000
,
1000
0100
0010
0000
0100
0010
0001
0000
,
0010
0001
0100
0000
0001
0100
1000
0000
,
0100
0001
0100
0001
1000
0001
1000
0001
,
1000
0100
1000
0100
1000
0001
0200
0000
,
0301
0010
0001
0010
0100
0010
0100
0010
,
0001
1000
0001
1000
0001
0010
0200
0000
,
1300
0000
1000
0010
0000
0010
0100
0000
0100
0001
0000
0001
,
0010
0000
0010
0100
0000
0100
1000
0000
1000
0020
0000
0000
,
1030
0001
0010
0100
1000
0001
0100
0010
,
0200
0001
1000
0310
,
0001
0000
1000
0100
0000
0100
0010
0000
,
0100
1000
0001
0000
0100
0001
1000
0000
,
1000
0001
0010
0100
0000
0100
0010
0000
,
0002
0000
1003
0020
0000
0130
0002
0000
,
1003
0000
0001
0100
0000
0100
0010
0000
,
0100
0001
0010
0000
0100
1000
0010
0000
,
0100
1001
0010
1001
,
0001
0000
0100
0000
1000
0000
0001
0000
0010
0000
1000
0000
,
0001
0000
1000
0100
0000
1000
0010
0000
,
0100
0001
1000
0010
0100
0001
1000
0001
,
0010
0100
0010
0001
0100
0001
1000
0020
,
0000
0000
0100
0000
0000
1000
1030
0000
,
0001
0000
0011
0000
0010
0100
1000
0020
,
0000
1030
0001
0020
0000
0031
0100
0000
,
0010
0000
1000
0001
0000
0101
0000
2020
,
0000
3030
2000
3200
,
0302
0000
0000
0000
0203
0000
0000
0320
,
0000
0032
0203
0320
,
2030
0000
0000
0001
0000
0001
0000
0001
,
0000
3200
0000
0300
,
0010
0011
0101
0011
,
0010
0001
0100
0010
1000
0100
0010
0001
,
0100
0101
1100
0101
,
0100
0001
0010
0100
1000
0010
0100
0001
,
0010
0110
1100
0011
,
0010
0002
0000
0000
1003
1000
1000
0000
,
1000
1010
1001
0101
,
0001
1000
0010
1000
0001
0010
0001
0100
,
0020
0000
0000
0000
0000
0000
0000
0030
1000
0000
0001
0000
0010
0000
0100
0000
,
1000
0010
0100
0001
0010
1000
0010
0001
,
0100
1000
0100
0001
0010
0001
0100
0010
,
1000
0100
1000
0001
0100
0010
1000
0001
,
0010
0100
1000
1000
0001
0100
0010
0100
,
0001
1000
0100
0010
0001
0100
1000
0100
,
0001
0010
1000
0010
0001
1000
0010
1000
,
0001
0100
0001
0010
0100
0000
1001
0000
,
0010
0000
1001
0000
0001
1000
0100
1000
,
0001
0100
0001
1000
0010
0100
0010
0100
,
0000
0001
0010
0100
0010
0001
1000
1000
,
0100
0100
0010
0100
1000
0001
0100
0010
,
0100
0100
0002
0000
1003
0010
1000
0100
,
0010
0100
1000
0001
0100
0010
0100
0010
,
0000
1000
0100
0010
0100
1000
0001
0001
,
0010
0010
0001
1000
0001
1000
0100
0010
,
0002
2003
3200
0000
,
2300
0000
0000
3020
0000
0000
0230
0000
,
0302
0000
2003
0000
3002
0000
0000
1000
,
0000
1000
0000
1000
0000
0000
0103
0000
,
0110
0010
2002
3003
,
0001
0000
1000
2020
3030
0000
0002
0000
,
0023
0032
0203
0000
,
1000
0000
0000
0000
,
0320
0030
0210
0000
,
0301
0000
0000
0101
0000
1000
0100
0000
,
0200
0000
1300
0000
,
0001
0000
1000
0001
,
1100
0011
2000
3100
,
1000
0001
0100
0020
0000
0000
0230
0000
,
0302
0000
2003
0000
3100
0000
1000
0100
,
0000
0110
0000
0022
0000
0030
0003
0000
,
1002
0103
1010
0101
,
0100
0010
1000
0200
0000
0000
2300
0000
,
3020
0032
0013
0110
,
0100
0110
0002
0100
,
1000
0013
2000
3001
,
1000
0100
0010
0100
0000
0100
1000
0000
,
1100
0101
0010
0001
,
0100
0010
1000
0001
0000
0001
0010
0100
,
2000
3002
0103
0010
,
0100
0001
1000
0010
0000
1000
0001
0010
,
0100
0110
0002
0203
,
0320
0000
2030
0000
3010
0100
0001
0100
,
0010
1000
0100
0010
0200
0300
0000
1100
,
0000
1001
0000
0101
0000
0100
0010
0000
,
1010
0011
2002
3003
,
0220
0330
2002
3003
,
0220
0330
1001
0000
;

//---------------dance-single - ----------------
#NOTES:
     dance-single:
     :
     Beginner:
     2:
     0.152528,0.192895,0.041707,0.000000,0.000000,123.000000,5.000000,0.000000,0.000000,0.000000,0.000000,0.152528,0.192895,0.041707,0.000000,0.000000,123.000000,5.000000,0.000000,0.000000,0.000000,0.000000:
0000
0000
0000
0000
,
0000
0000
0000
0000
,
0000
0000
0000
0000
,
0000
0000
0000
0000
,
0000
0000
0000
0000
,
0000
0000
0000
0000
,
1001
0000
0000
0000
,
0000
0000
0000
0000
,
1000
0000
0000
0000
,
1000
0000
0000
0000
,
0001
0000
0000
0000
,
0001
0000
0000
0000
,
0100
0000
0000
0000
,
0100
0000
0000
0000
,
0010
0000
0000
0000
,
0010
0000
0000
0000
,
1000
1000
0000
0000
,
0000
0100
0000
0100
,
0000
0010
0000
0010
,
0001
0000
0001
0000
,
0001
0000
0000
0000
,
0000
0100
0000
0100
,
0000
0010
0000
0010
,
0010
0000
0000
0000
,
0000
0001
0000
0001
,
0000
1000
0000
1000
,
0000
0001
0000
0001
,
0000
1000
0000
1000
,
0000
0001
0000
0100
,
0000
1000
0000
0100
,
0100
0000
0100
0000
,
0010
0000
0000
0000
,
1001
0000
0000
0000
,
0000
0000
0000
0000
,
0000
0000
0000
0000
,
0000
0100
0000
0000
,
1000
0000
0000
0000
,
1000
0000
0000
0000
,
0010
0000
0000
0000
,
0010
0000
0000
0000
,
0100
0000
0000
0000
,
0100
0000
0000
0000
,
0001
0000
0000
0000
,
0001
0000
0000
0000
,
0010
0000
0001
0000
,
0000
0001
0001
0000
,
1000
0000
0000
0100
,
0000
0100
0100
0000
,
0010
0000
1000
0000
,
0000
1000
1000
0000
,
0001
0000
0000
0010
,
0000
0010
0010
0000
,
0000
0000
0000
0001
,
0000
0001
1000
0000
,
0000
0000
0100
0000
,
0100
0000
0100
0000
,
0010
0000
0000
1000
,
0000
1000
0001
0000
,
0000
0000
0100
0000
,
0100
0000
0010
0000
,
0000
0000
1001
0000
,
0000
0000
0000
0000
,
0000
0000
0000
0000
,
0000
0000
0000
0100
,
0000
0000
0001
0000
,
0000
0000
0000
1000
0000
0000
0000
0000
,
0000
0000
0000
0000
,
1000
0000
0000
0000
,
0010
0000
0000
0000
,
0001
0000
0000
0000
,
0000
0000
0000
0000
,
0000
0000
0010
0010
,
0010
0010
0000
0001
,
0000
0001
0000
1000
,
0000
1000
0000
0001
,
0000
0001
0000
1000
,
0000
1000
0000
0010
,
0000
0010
0000
0100
,
0000
0100
0000
0010
,
0000
0010
0000
0100
,
0000
0100
0000
0001
,
0000
0001
0000
0010
,
0000
0010
0000
0100
,
0000
0100
0000
1000
,
0000
1000
0000
0010
,
0000
0010
0000
0100
,
0000
0100
0001
0000
,
0000
0000
0000
0000
,
0000
0000
1001
0000
,
0000
0000
0000
0000
,
0000
0000
0010
0000
,
0010
0000
0010
0000
,
0010
0000
0110
0000
;

//---------------dance-single - ----------------
#NOTES:
     dance-single:
     :
     Easy:
     4:
     0.247859,0.308632,0.041707,0.191852,0.000000,180.000000,5.000000,23.000000,0.000000,0.000000,0.000000,0.247859,0.308632,0.041707,0.191852,0.000000,180.000000,5.000000,23.000000,0.000000,0.000000,0.000000:
0000
0000
0000
0000
,
0000
0000
0000
0000
,
0000
0000
0000
0000
,
0000
0000
0000
0000
,
0000
0000
0000
0000
,
0000
0000
0000
0000
,
1000
0000
0100
0000
,
0010
0000
0001
0000
,
1000
0000
1000
0000
,
0001
0000
0001
0000
,
0100
0000
0100
0000
,
0010
0000
0020
0030
,
1000
1000
0001
0000
,
0100
0100
0010
0000
,
1000
0001
0100
0010
,
1000
1000
1000
0001
,
0020
0000
0000
0030
,
0000
0001
0000
1000
,
0000
0100
0000
1000
,
0020
0000
0000
0030
0000
0000
0010
0000
,
0000
1000
0000
0001
,
0000
0100
0000
0001
,
0000
1000
0000
1000
,
0002
0000
0000
0013
,
0010
0001
0000
1000
,
0000
0010
0000
1000
,
0200
0300
0200
0300
,
0200
0000
0000
0300
,
0000
1000
0000
0001
,
0000
0010
0000
0100
,
0010
0000
0000
0001
0000
0000
0000
2000
,
0000
0000
3100
0010
,
0200
0000
0000
0300
,
0000
0000
0000
0000
,
0000
0000
0000
0000
,
0000
1001
0000
0000
,
0001
0000
1000
0000
,
0100
0000
0100
0000
,
1000
0000
0001
0000
,
0100
0000
0100
0000
,
0010
0000
1000
0000
,
0001
0000
0001
0000
,
0010
0000
0001
0000
,
1000
0000
1000
0000
,
0100
0000
1000
0000
,
0001
0000
0001
0000
0020
0000
0000
0030
,
0000
0100
1000
0000
,
0001
0001
0200
0300
,
0010
0010
0100
0001
,
0001
0000
1000
0010
,
0010
0000
1000
0001
,
1000
0001
0010
0000
,
0000
0000
0000
0001
,
0000
0001
2000
0000
,
3000
0001
0020
0030
,
0200
0300
1000
0100
,
1000
0100
0010
0000
,
0010
0000
0002
0000
,
0003
1000
0020
0030
,
0200
0300
0001
0100
,
0001
0010
0200
0000
,
0000
0300
0000
0000
,
0000
0000
0000
0000
,
0000
0000
0000
0110
,
0000
0000
2002
3003
,
0000
0000
0000
0002
0000
0000
0103
0000
,
0010
1000
0100
0000
,
1000
0000
0000
0000
,
0010
0000
0000
0000
,
0001
0000
0000
0100
,
0100
0000
0000
0000
,
0000
0000
1000
0001
,
1000
1001
0000
0001
,
0000
0100
0000
0010
,
0000
0100
0000
0001
,
0000
0010
0000
0100
,
0010
0010
0000
0001
,
0000
1000
0000
0010
,
0000
1000
0000
0100
,
0000
0010
0000
0100
,
2000
3000
0001
0001
,
0000
0001
0000
1000
,
0010
1000
0000
0100
,
0000
0100
0000
0010
,
0001
0010
0000
0001
,
0000
1000
0000
0100
,
0000
0100
0020
0000
,
0000
0000
0000
0000
,
0000
0000
0030
0000
0100
0000
0000
1000
,
0000
0001
0000
1000
0000
0000
0000
0000
,
0001
0100
0010
0000
,
0100
0000
0010
0000
,
0100
0000
1001
0000
;

//---------------dance-single - ----------------
#NOTES:
     dance-single:
     :
     Challenge:
     10:
     0.740001,0.895310,0.350339,0.517167,0.183511,517.000000,42.000000,62.000000,184.000000,0.000000,0.000000,0.740001,0.895310,0.350339,0.517167,0.183511,517.000000,42.000000,62.000000,184.000000,0.000000,0.000000:
0000
0000
0000
0000
,
0000
0000
0000
0000
,
0000
00M0
0000
0000
,
0000
0000
0000
0000
,
0000
0000
0000
0000
,
0000
0000
0000
0000
,
1000
0001
0010
0001
1000
0010
1000
0001
,
0100
0001
1000
0100
1000
0010
0100
0001
,
1000
0100
1000
0100
0010
0100
0010
0100
,
0010
0001
0010
0001
0100
0001
0200
0000
,
0301
0100
0010
0100
0001
1000
0100
1000
,
0010
0100
0001
0100
0001
0010
0200
0000
,
1300
0001
1000
0010
0100
0010
1000
0001
1000
0100
0010
0100
,
1000
0100
0010
0001
0010
0100
1000
0001
0100
0020
0000
0000
,
1030
1000
0010
0010
0100
0100
0001
0001
,
0020
0001
1000
0130
,
0001
0000
0100
0101
0000
0001
1000
2000
,
3010
0100
0001
0010
0100
0010
0001
0100
,
0010
0010
1000
0200
0000
1300
0001
0100
,
0020
0000
0000
0000
0000
0000
1030
0000
0000
0002
0000
0000
M000
0000
M000
0103
M000
0000
M010
0000
M000
0000
M000
0000
,
0100
0000
0000
0000
0010
0000
1010
0000
0000
0000
1000
0000
0001
0000
0010
0100
,
0010
0001
1000
0100
1000
0010
0100
0001
,
1000
0011
0100
1010
,
0MM1
0000
0010
MM00
0001
0000
10MM
0000
0100
M00M
0110
0000
,
0010
0000
0100
1100
0000
0100
0010
0002
,
1003
0010
1000
0100
0010
0100
1000
0010
,
0100
0001
1000
0001
0010
0001
2000
0001
,
0001
0000
0100
0000
3001
0001
0101
0000
,
0100
0000
0010
0100
0010
0000
1000
0000
0010
0000
0100
0000
0001
0000
0020
0000
,
0000
0130
1000
0020
0000
0130
0002
0000
,
1003
0000
1000
0100
0000
0110
0000
2002
,
0000
3003
0001
1000
,
0200
0000
0000
0000
2300
0000
0000
3020
,
0000
2030
3002
0203
,
0301
0000
1000
0001
0000
0001
0000
0220
,
0000
0000
0330
0000
0MM0
0000
0000
0000
0000
M00M
M00M
M00M
0MM0
0000
0000
0000
,
1000
0100
0010
0100
1000
0010
0001
0010
,
1000
0001
0100
0010
1000
0100
0010
0001
,
0010
0000
0000
0100
0000
0000
10M0
0000
000M
0100
00M0
0000
010M
0000
00M0
1000
000M
0000
10M0
0000
000M
0100
00M0
0000
,
100M
0010
1000
0001
0100
0010
1000
0100
,
0010
0001
0100
0010
1000
0001
0010
0100
,
1000
0000
0010
0000
0020
0000
0030
0000
0100
0001
0100
0001
0200
0000
0300
0000
,
0001
1000
0010
1000
0100
0010
0100
1000
,
0001
0100
0010
0100
0001
0010
1000
0010
,
0200
0000
0000
0000
0000
0000
0000
0300
1MMM
0000
01MM
0000
M01M
0000
MM01
0000
,
M1M0
M01M
M10M
M0M1
1MM0
0M1M
M10M
M0M1
,
MM10
M10M
10MM
0MM1
1MM0
0M1M
M10M
M0M1
,
M1M0
M01M
1M0M
0M1M
1M0M
0MM1
MM10
1M0M
,
0MM1
M1M0
10MM
0MM1
M1M0
M01M
1M0M
0M1M
,
M10M
M0M1
M1M0
M01M
1M0M
0MM1
MM10
M10M
,
10MM
01MM
M01M
MM01
1MM0
0M1M
M10M
M01M
,
1M0M
0MM1
MM10
M10M
1000
0000
1100
0000
,
1001
0000
0101
0000
0001
0100
0010
1000
,
0100
0000
0010
0000
0001
0000
0100
0000
0010
0000
1000
0000
0010
1000
0010
1000
,
0000
0001
0100
1000
0100
0100
0010
0010
,
1000
1000
0100
0100
0010
0001
0010
0100
,
1000
0100
0020
0000
0031
1000
0100
1000
,
0001
0000
0100
0000
0001
0000
1000
0000
0001
0000
0010
0000
0001
0010
0001
0010
,
0000
0000
0100
0010
0100
0000
1000
0000
0010
0000
1000
0000
0100
0000
1000
0000
,
0001
0010
0100
0010
0001
0100
0010
1000
,
0020
0230
0302
0000
,
2003
0000
0000
3020
0000
0000
2030
0000
,
3200
0000
0320
0000
0031
0000
0001
1000
,
0000
1000
0000
1002
0000
0000
M1M3
0000
,
0001
0010
0220
0330
,
1000
0000
0001
0021
0000
0000
0230
0000
,
2300
3002
0203
0000
,
100M
000M
000M
0000
0000
0000
0000
0000
,
M010
M000
0000
0000
0000
0000
0000
0000
,
00M1
0000
0300
0001
0000
1000
0100
0000
,
0220
0330
2000
3000
,
0002
0003
M1M1
1M1M
,
M11M
0000
1MM1
0000
1000
0100
1100
0000
,
1000
0001
0100
0010
0000
0010
0100
0000
,
0102
0000
0023
0000
0130
0000
2000
0010
,
0000
0100
0000
0010
3000
0001
0100
0000
,
1010
0011
0002
1003
,
1000
0100
0010
0012
0000
0000
1003
0000
,
1010
0000
0110
0000
0101
0100
0010
0000
,
0101
0001
0010
0000
0010
0100
1000
0010
,
0200
0320
2030
3001
,
1000
0001
0000
0100
0000
0001
0010
0000
,
0120
0000
0031
0000
0100
0000
1000
0001
,
0100
0010
0100
0001
0000
1000
0001
0010
,
0002
2003
3010
1001
,
0001
0101
0000
2200
0000
0300
0100
0000
,
0001
0000
0010
0000
3001
0100
0010
0100
,
0001
0010
0100
0010
0100
1000
0001
0100
,
0010
1000
0001
0010
0220
0330
0000
0001
,
0000
1000
0000
1001
0000
0001
1001
0000
,
1000
0100
0110
MM1M
,
0011
MMM1
0101
1MMM
,
1100
0000
0000
M1MM
0000
0000
1001
0000
0000
0M00
0M00
0M00
,
0M00
0M00
0M00
0M00
0M00
0000
0000
0000
0000
0000
0000
0000
;

//---------------dance-single - ----------------
#NOTES:
     dance-single:
     :
     Medium:
     6:
     0.428986,0.578684,0.141804,0.408728,0.000000,294.000000,17.000000,49.000000,0.000000,0.000000,0.000000,0.428986,0.578684,0.141804,0.408728,0.000000,294.000000,17.000000,49.000000,0.000000,0.000000,0.000000:
// measure 0
0000
0000
0000
0000
,  // measure 1
0000
0000
0000
0000
,  // measure 2
0000
0000
0000
0000
,  // measure 3
0000
0000
0000
0000
,  // measure 4
0000
0000
0000
0000
,  // measure 5
0000
0000
0000
0000
,  // measure 6
1000
0001
0100
0001
,  // measure 7
1000
0100
0010
0100
,  // measure 8
1000
1000
0001
0001
,  // measure 9
0010
0010
0002
0003
,  // measure 10
0100
0100
0010
0010
,  // measure 11
1000
1000
0020
0030
,  // measure 12
2000
3002
0203
0320
,  // measure 13
2030
3002
0023
0130
,  // measure 14
0010
0001
0100
0010
,  // measure 15
1000
1000
1000
2000
,  // measure 16
3002
0000
0000
0003
,  // measure 17
1000
1000
0001
0001
,  // measure 18
2000
0000
0000
3100
0000
0000
0100
0000
,  // measure 19
0020
0000
0000
0130
0000
0000
0100
0000
,  // measure 20
1000
0010
0000
0010
,  // measure 21
1000
1000
0001
0001
,  // measure 22
0000
1001
0000
0110
,  // measure 23
0002
0000
2003
0000
,  // measure 24
3001
0000
0100
0010
0000
0100
0010
0000
,  // measure 25
1000
0100
0001
0100
,  // measure 26
2000
3010
0020
0130
,  // measure 27
0200
0000
0301
0000
0001
0010
0100
0000
,  // measure 28
0100
0000
0010
0000
0001
1000
0000
2000
,  // measure 29
0000
3001
0000
0002
0000
0000
0003
0000
,  // measure 30
1000
0000
0100
0010
0000
0010
0000
0020
,  // measure 31
0000
0030
0002
2003
,  // measure 32
3020
0000
0000
0030
,  // measure 33
0000
0000
0000
0000
,  // measure 34
0000
0000
0000
0000
,  // measure 35
0000
1001
0000
0000
,  // measure 36
0001
1000
0010
0100
,  // measure 37
0001
1000
0010
0000
1000
0010
0100
0000
,  // measure 38
0001
0010
0100
1000
,  // measure 39
0001
0010
0100
0000
0010
0100
1000
0000
,  // measure 40
0001
0100
0010
1000
,  // measure 41
1000
0010
0100
0000
0010
0100
0001
0000
,  // measure 42
1000
0001
0010
0100
,  // measure 43
0100
0010
0001
0000
0001
0000
1000
0000
,  // measure 44
0001
0000
0002
0100
,  // measure 45
1000
0000
0100
0000
1003
0100
1000
0000
,  // measure 46
0001
0010
0001
0000
2000
0000
0100
0000
,  // measure 47
0001
0000
0100
0000
3001
0100
0001
0000
,  // measure 48
1000
0010
1000
0000
0001
0000
1000
0000
,  // measure 49
0100
0100
0010
0001
,  // measure 50
0100
0100
0001
0101
,  // measure 51
1000
1010
1001
0000
,  // measure 52
0000
0000
0000
0000
2000
0000
0000
3200
,  // measure 53
0000
1300
0010
0020
,  // measure 54
0030
0000
0100
0000
0001
0100
0010
0000
,  // measure 55
1000
0001
0100
0000
0001
1000
0100
0000
,  // measure 56
0010
0001
1000
0000
0002
0000
0000
0203
,  // measure 57
0000
0301
1000
2000
,  // measure 58
3000
0001
0010
0010
,  // measure 59
0100
0100
0020
0032
,  // measure 60
2003
3020
0230
0000
,  // measure 61
0000
0300
0000
0000
,  // measure 62
0000
0000
0000
0000
,  // measure 63
0000
0000
0000
1010
,  // measure 64
0100
0001
0020
0030
,  // measure 65
0100
0000
1000
0002
0000
0000
1003
0000
,  // measure 66
0010
0100
0001
0000
,  // measure 67
0101
0000
0000
0000
,  // measure 68
1001
0000
0000
0000
,  // measure 69
0011
0000
0000
0010
0000
0100
1000
0000
,  // measure 70
2000
0000
3000
0000
,  // measure 71
0000
0000
1000
0001
,  // measure 72
2000
3002
0103
0001
,  // measure 73
0010
0001
1000
0100
,  // measure 74
0010
0000
0100
0000
1000
0000
1000
0010
,  // measure 75
0000
0100
0000
0020
0000
0000
0030
0000
,  // measure 76
0100
0100
0010
1000
,  // measure 77
0001
1000
0100
0010
,  // measure 78
0001
0010
0200
0000
,  // measure 79
0000
0000
0300
1200
,  // measure 80
0010
1300
0001
1000
,  // measure 81
0010
0000
0100
0010
0000
0010
0100
0000
,  // measure 82
0001
1000
0100
0010
,  // measure 83
0100
0000
1000
0001
0000
0001
1000
0000
,  // measure 84
0001
0100
0020
0130
,  // measure 85
0001
1000
0000
2002
0000
0000
0000
0000
,  // measure 86
0003
3000
0100
1000
,  // measure 87
0001
0000
0010
0000
0001
1000
0010
0000
,  // measure 88
1000
0001
0100
0000
0001
0000
1000
0010
,  // measure 89
0000
0010
0000
0200
0000
0000
0300
0000
,  // measure 90
0001
1000
1001
0000
,  // measure 91
0110
0000
1001
0000
,  // measure 92
0110
0000
1001
0000
;
