#TITLE:Moskau;
#SUBTITLE:NIVIRO Hardstyle Remix;
#ARTIST:Dschinghis Khan;
#TITLETRANSLIT:;
#SUBTITLETRANSLIT:;
#ARTISTTRANSLIT:;
#CREDIT:;
#BANNER:Moskau (NIVIRO Hardstyle Remix).png;
#BACKGROUND:Moskau (NIVIRO Hardstyle Remix) - bg.png;
#LYRICSPATH:;
#CDTITLE:cdtitle.png;
#MUSIC:Moskau (NIVIRO Hardstyle Remix).mp3;
#OFFSET:-0.150;
#SAMPLESTART:56.480;
#SAMPLELENGTH:14.920;
#SELECTABLE:YES;
#DISPLAYBPM:130.000:150.000;
#BPMS:0.000=132.000,154.000=66.000,157.000=132.000,159.000=134.987,160.000=134.989,161.000=134.850,162.000=134.844,163.000=136.486,164.000=136.480,165.000=136.538,166.000=136.532,167.000=137.720,168.000=137.713,169.000=139.677,171.000=140.811,173.000=139.935,174.000=139.928,175.000=143.827,176.000=143.820,177.000=143.555,179.000=144.753,180.000=144.745,181.000=145.565,182.000=145.557,183.000=147.601,184.000=147.594,185.000=148.576,186.000=148.568,187.000=147.943,189.000=150.003,272.000=225.005,272.375=112.502,272.750=225.004,273.125=112.504,273.500=150.004,280.000=225.004,280.375=112.504,280.750=225.004,281.125=112.504,281.500=150.004,284.000=225.006,290.000=150.004,303.000=225.004,303.375=112.504,303.750=225.004,304.125=112.504,304.500=150.004,311.000=225.004,311.375=112.504,311.750=225.004,312.125=112.004,312.500=150.004,315.000=130.004;
#STOPS:251.750=0.400
,285.000=0.200
,285.500=0.060
,287.000=0.200
,287.500=0.060
,288.000=0.100
,288.750=0.100
,289.500=0.060
,290.750=0.400
;
#BGCHANGES:;

//---------------dance-single - Pigrimsito----------------
#NOTES:
     dance-single:
     Pigrimsito:
     Challenge:
     9:
     0.644,0.688,0.678,0.454,0.321: // measure 1
0000
0000
0000
0000
,  // measure 2
0000
0000
0000
0000
,  // measure 3
0000
0000
0000
0000
,  // measure 4
0000
0000
0000
0000
,  // measure 5
0001
0010
0100
1000
0001
0100
0001
0100
,  // measure 6
0001
0010
0100
1000
0001
0100
0001
0100
,  // measure 7
0001
0010
0100
1000
0001
0100
0001
0100
,  // measure 8
0001
0010
0100
1000
0001
0100
0010
0100
,  // measure 9
0001
0000
1000
0100
1000
0000
0100
0000
0010
0000
0001
0100
0001
0000
0100
0000
,  // measure 10
0001
0000
0010
0100
0010
0000
0100
0000
1000
0000
0010
0100
0010
0000
0100
0000
,  // measure 11
0001
0000
0010
0001
1000
0000
0001
0000
0100
0000
0010
1000
0001
0000
1000
0000
,  // measure 12
0100
0000
0001
0100
1000
0000
0010
0000
0100
0000
0001
0010
1000
0000
0010
0000
,  // measure 13
1001
0000
1000
0010
1000
0000
0010
0000
0100
0000
0001
0010
0001
0000
0010
0000
,  // measure 14
0001
0000
0100
0010
0100
0000
0010
0000
1000
0000
0100
0010
0100
0000
0010
0000
,  // measure 15
0001
0000
0100
0001
1000
0000
0001
0000
0010
0000
0100
1000
0001
0000
1000
0000
,  // measure 16
0010
0000
0001
0010
1000
0000
0100
0000
0010
0000
0001
0100
1000
0000
0100
0000
,  // measure 17
0201
0000
0000
0020
0000
0000
0000
0330
,  // measure 18
1020
0000
0000
0000
0000
0000
0000
0000
0001
0000
0000
0001
0000
0000
1030
0000
,  // measure 19
2000
0000
0100
3200
0000
0000
0000
0000
,  // measure 20
2300
0000
0000
0000
0000
0000
0000
0000
0010
0000
0000
0010
0000
0000
3001
0000
,  // measure 21
0002
0000
0103
0001
0020
0000
2030
0000
,  // measure 22
3020
0000
0000
0000
0000
0000
0000
0000
0100
0000
0000
0100
0000
0000
0031
0000
,  // measure 23
0001
0010
0100
0010
0001
0100
1000
0100
,  // measure 24
0001
0010
0100
1000
0010
0100
0010
1000
,  // measure 25
1100
0000
0101
0000
0010
1000
0001
0010
,  // measure 26
0110
0000
0000
0000
1001
0000
0000
0001
0100
0000
1000
0000
0100
0000
0001
0000
,  // measure 27
0011
0000
1010
0000
0001
1000
0010
0100
,  // measure 28
0101
0000
0000
0000
0110
0000
0000
0010
1000
0000
0001
0000
0010
0000
0001
0000
,  // measure 29
0200
0000
0301
0010
0200
0000
0310
0001
,  // measure 30
0200
0000
1000
0000
0010
0000
1000
0300
,  // measure 31
0220
0330
2002
3003
0220
0330
2002
3003
,  // measure 32
2000
0000
0000
3000
1010
0000
0000
0000
0002
0000
0000
0003
0011
0000
0000
0000
,  // measure 33
1000
0000
0000
0010
0100
0000
0010
0000
1000
0000
0100
0000
0010
0000
0000
0000
,  // measure 34
0001
0000
0000
0010
0100
0000
0010
0000
0001
0000
0100
0000
0010
0000
0000
0000
,  // measure 35
1010
1010
0101
0101
1001
0000
0110
0000
,  // measure 36
0002
0000
0000
0003
0011
0000
0000
0000
2000
0000
0000
3000
1010
0000
0000
0000
,  // measure 37
0001
0000
0000
1000
0100
0000
1000
0000
0010
0000
0100
0000
0001
0000
0000
0000
,  // measure 38
1000
0000
0000
0001
0100
0000
0001
0000
0010
0000
0100
0000
1000
0000
0000
0000
,  // measure 39
0110
1001
1100
1001
0202
0000
0000
0000
,  // measure 40
0303
0000
1000
0000
1000
0001
0010
0000
,  // measure 41
0010
0000
0001
0000
1000
0000
0000
0100
0000
0000
1000
0000
0001
0000
0000
0000
,  // measure 42
0001
0000
1000
0100
1000
0000
0000
0010
0000
0000
0100
0000
0001
0000
0000
0000
,  // measure 43
0010
0000
0001
0000
0100
0000
0000
0001
0000
0000
1000
0000
0100
0000
0000
0000
,  // measure 44
0010
0000
0100
0000
0100
1000
0010
0000
,  // measure 45
0010
0000
1000
0000
0001
0000
0000
0010
0000
0000
0001
0000
0100
0000
0000
0000
,  // measure 46
0100
0000
0001
1000
0001
0000
0000
0010
0000
0000
1000
0000
0010
0000
0000
0001
,  // measure 47
0000
0000
0100
0000
1000
0000
0000
0100
0000
0000
0001
0000
1000
0000
0000
0000
,  // measure 48
0010
0100
0201
0000
0000
0301
0020
0000
,  // measure 49
0000
0000
1030
0000
0020
0000
0030
0020
0000
0030
0100
0000
2000
0000
0000
0000
,  // measure 50
3000
0000
0010
1000
0020
0000
0030
0200
0000
0300
0002
0000
0023
0000
0030
0200
,  // measure 51
0000
0300
2000
0000
3002
0000
0003
0200
0000
0300
0020
0000
2030
0000
0000
0000
,  // measure 52
3002
0000
0203
0000
0000
1300
0200
0000
,  // measure 53
0000
0000
0310
0100
0020
0000
0030
0020
0000
0030
1000
0000
0002
0000
0000
0000
,  // measure 54
0003
0000
1000
0010
2000
0000
3000
0200
0000
0300
0002
0000
2003
0000
3000
0020
,  // measure 55
0000
0030
0200
0000
2300
0000
3000
0002
0000
0003
0020
0000
2030
0000
0000
0000
,  // measure 56
3000
0010
0011
0001
0100
0001
1000
0001
,  // measure 57
0010
0001
0100
0001
1000
0001
0010
0100
,  // measure 58
1000
0100
0001
0100
0010
0100
1000
0100
,  // measure 59
0001
0100
0010
0001
0100
0001
0010
0100
,  // measure 60
1000
0000
0010
0000
0100
0001
0100
0001
0100
0001
0100
0010
1000
0001
1000
0001
,  // measure 61
1000
0001
1000
0100
0010
0001
0010
0001
0010
0001
0010
0100
1000
0001
1000
0001
,  // measure 62
1000
0001
1000
0010
0200
0000
0000
0000
0000
0000
0000
0000
0000
0000
0000
0000
,  // measure 63
0000
0000
0000
0000
0000
0000
0000
0000
030M
000M
000M
000M
000M
0000
M000
M000
M000
M000
M000
0000
00M0
00M0
00M0
00M0
0MM0
0M00
0M00
0000
0000
0000
00MM
0000
,  // measure 64
1100
0000
1100
1000
1010
0000
1010
0010
,  // measure 65
0110
0000
0110
0010
1010
0000
1010
1000
,  // measure 66
1001
0000
1001
1000
1010
0000
0011
0001
,  // measure 67
0101
0000
0110
0010
1010
0000
1001
0110
,  // measure 68
1001
0000
1001
1000
1100
0000
1100
1000
,  // measure 69
1010
0000
0000
0101
0000
0000
1010
0000
1001
0000
0000
0000
1100
0000
1000
0000
,  // measure 70
1001
0000
1001
0001
0101
0000
0101
0100
,  // measure 71
0110
0000
0000
1001
0000
0000
1010
0000
0202
0000
0000
0000
0000
0000
0303
0000
,  // measure 72
02M0
00M0
00M0
00M0
00M0
00M0
00M0
00M0
03M0
0000
0000
0000
1000
0000
0000
0000
M200
M000
M000
M000
M000
M000
M000
M000
M300
0000
0000
0000
0010
0000
0000
0000
,  // measure 73
101M
0000
0000
11M0
0000
0000
0M11
0000
M110
0000
0000
0MM0
1001
0000
0000
0000
,  // measure 74
1001
1000
1100
0000
0101
0001
0011
0000
,  // measure 75
0110
0100
1100
0000
1001
0110
1001
0000
,  // measure 76
1001
0000
1000
0000
1010
0000
0000
0000
1010
0000
1000
0000
1100
0000
0000
0011
,  // measure 77
0000
1100
1001
0000
1010
1000
1001
0000
,  // measure 78
1001
0000
0001
0000
0011
0000
0000
0000
0011
0000
0010
0000
0110
0000
0000
1001
,  // measure 79
0000
1100
0022
0000
0000
0033
1001
0000
;
