#VERSION:0.83;
#TITLE:Khalid;
#SUBTITLE:;
#ARTIST:Dolphin;
#TITLETRANSLIT:;
#SUBTITLETRANSLIT:;
#ARTISTTRANSLIT:;
#GENRE:;
#ORIGIN:;
#CREDIT:;
#BANNER:Khalid.png;
#BACKGROUND:Khalid-bg.png;
#PREVIEWVID:;
#JACKET:Khalid-jacket.png;
#CDIMAGE:;
#DISCIMAGE:;
#LYRICSPATH:;
#CDTITLE:;
#MUSIC:Khalid.mp3;
#OFFSET:-0.179000;
#SAMPLESTART:52.670998;
#SAMPLELENGTH:14.999996;
#SELECTABLE:YES;
#BPMS:0.000=128.000;
#STOPS:;
#DELAYS:;
#WARPS:;
#TIMESIGNATURES:0.000=4=4;
#TICKCOUNTS:0.000=4;
#COMBOS:0.000=1;
#SPEEDS:0.000=1.000=0.000=0;
#SCROLLS:0.000=1.000;
#FAKES:;
#LABELS:0.000=Song Start;
#BGCHANGES:0.000=BGAtest1.mp4=1.000=0=0=1=====,
99999=-nosongbg-=1.000=0=0=0 // don't automatically add -songbackground-
;
#KEYSOUNDS:;
#ATTACKS:
;

//---------------dance-single - ----------------
#NOTEDATA:;
#CHARTNAME:;
#STEPSTYPE:dance-single;
#DESCRIPTION:;
#CHARTSTYLE:;
#DIFFICULTY:Hard;
#METER:7;
#RADARVALUES:0.410436,0.419373,0.131295,0.285761,0.355270,372.000000,355.000000,17.000000,37.000000,0.000000,0.000000,0.000000,0.000000,0.000000,0.410436,0.419373,0.131295,0.285761,0.355270,372.000000,355.000000,17.000000,37.000000,0.000000,0.000000,0.000000,0.000000,0.000000;
#CREDIT:;
#NOTES:
// measure 0
0000
0000
0000
0000
,  // measure 1
0000
0000
0000
0000
,  // measure 2
0000
0000
0000
0000
,  // measure 3
0000
0000
0000
0000
,  // measure 4
1000
0000
0010
0000
1000
0001
1000
0000
,  // measure 5
0001
0000
0010
0000
0001
0000
0100
0010
,  // measure 6
1000
0000
0001
0000
0010
0001
0010
0000
,  // measure 7
0001
0000
1000
0000
0100
0000
0010
0001
,  // measure 8
1000
0010
1000
0000
0001
0100
0001
0000
,  // measure 9
1000
0001
1000
0000
0010
0100
0010
1000
,  // measure 10
0001
0010
0001
0000
1000
0100
1000
0000
,  // measure 11
0010
1000
0010
0000
0100
0001
0100
0010
,  // measure 12
1000
0000
0000
0000
0001
0000
0000
0010
0000
0001
0000
0001
0000
0000
1000
0000
,  // measure 13
0000
0000
0000
0000
0010
0000
0000
0100
0000
0010
0000
1000
0000
0000
0100
0000
,  // measure 14
0000
0000
0000
0000
0010
0000
0000
0100
0000
0100
0000
1000
0000
0000
0001
0000
,  // measure 15
0000
0000
0000
0000
0100
0000
0000
0010
0000
1000
0000
0010
0000
0000
0100
0000
,  // measure 16
0000
0000
0000
0000
0010
0000
0000
1000
0000
1000
0000
0001
0000
0000
0010
0000
,  // measure 17
0000
0000
0000
0000
0100
0000
0000
0010
0000
0001
0000
1000
0000
0000
0010
0000
,  // measure 18
0000
0000
0000
0000
0100
0000
0000
0010
0000
0010
0000
1000
0000
0000
0001
0000
,  // measure 19
0000
0000
1000
0000
0001
0100
1000
0000
,  // measure 20
0120
0000
0000
1030
0000
0000
0001
0000
0020
0000
0000
0031
0000
0000
1000
0000
,  // measure 21
0020
0000
0000
1030
0000
0000
0001
0000
0020
0000
0000
0031
0000
0000
0010
0000
,  // measure 22
0200
0000
0000
1300
0000
0000
0001
0000
0200
0000
0000
1300
0000
0000
0001
0000
,  // measure 23
0200
0000
0000
0301
0000
0000
1000
0000
0200
0000
0000
1300
0000
0000
0010
0000
,  // measure 24
1000
0000
0000
0001
0000
0000
0010
0000
0002
0000
0000
0103
0000
0000
0010
0000
,  // measure 25
2000
0000
0000
3100
0000
0000
0010
0000
0002
0000
0000
0103
0000
0000
0010
0000
,  // measure 26
2000
0000
0000
3001
0000
0000
0010
0000
0200
0000
0000
1300
0000
0000
0010
0000
,  // measure 27
0200
0000
0000
0301
0000
0000
0100
0000
0020
0000
0000
1030
0000
0000
0001
0000
,  // measure 28
1000
0000
0000
0001
0000
0010
0001
0000
0200
0000
0000
0310
0000
0000
1000
0000
,  // measure 29
0002
0000
0000
1003
0000
0000
0100
0000
0020
0000
0000
0031
0000
0010
0100
0000
,  // measure 30
0020
0000
0000
0031
0000
1000
0001
0000
0200
0000
0000
0301
0000
0000
0100
0000
,  // measure 31
0020
0000
0000
1030
0000
0000
0100
0000
2000
0000
0000
3001
0000
1000
0010
0000
,  // measure 32
2000
0000
0000
3100
0000
0010
0001
0000
0200
0000
0000
0301
0000
0000
0100
0000
,  // measure 33
0020
0000
0000
1030
0000
0000
0010
0000
0200
0000
0000
0301
0000
1000
0001
0000
,  // measure 34
0020
0000
0000
0130
0000
0010
0001
0000
2000
0000
0000
3010
0000
0000
0100
0000
,  // measure 35
0002
0000
0000
0013
0000
0000
0100
0000
2000
0000
0000
3100
0000
0010
0001
0000
,  // measure 36
1001
0000
0000
0000
,  // measure 37
1010
0000
0000
0000
,  // measure 38
0011
0000
0000
0000
,  // measure 39
0011
0000
0000
0000
,  // measure 40
1001
0000
0000
0000
,  // measure 41
0101
0000
0000
0000
,  // measure 42
1100
0000
0000
0000
,  // measure 43
1100
0000
0000
0000
,  // measure 44
1001
0010
1001
0010
,  // measure 45
0100
0010
0100
0010
0100
0010
0100
0010
,  // measure 46
1001
0100
1001
0100
,  // measure 47
0010
0100
0010
0100
0010
0100
0010
0100
,  // measure 48
1002
0103
2001
3100
,  // measure 49
0001
0100
1000
0100
0001
0100
1000
0100
,  // measure 50
1002
0013
2001
3010
,  // measure 51
1000
0010
0001
0010
1000
0010
0001
0010
,  // measure 52
0100
0000
0001
0000
0010
0000
0000
0100
0000
1000
0100
0000
1000
0000
0000
0000
,  // measure 53
0100
0000
1000
0000
0010
0000
0000
0100
0000
0001
0100
0000
0010
0000
1000
0000
,  // measure 54
0001
0000
0100
0000
0010
0000
0000
1000
0000
0010
0100
0000
0001
0000
0000
0000
,  // measure 55
1000
0000
0001
0000
0010
0000
0000
0100
0000
0010
0001
0000
1000
0000
0010
0000
,  // measure 56
0100
0000
0001
0000
0010
0000
0000
0100
0000
0010
0001
0000
0010
0000
0000
0000
,  // measure 57
0001
0000
1000
0000
0010
0000
0000
0100
0000
0010
1000
0000
0100
0000
1000
0000
,  // measure 58
0001
0000
1000
0000
0100
0000
0000
1000
0000
0100
1000
0000
0001
0000
0000
0000
,  // measure 59
1000
0000
0001
0000
0010
0000
0000
0001
0000
0010
0001
0000
1000
0000
0010
0000
,  // measure 60
0100
0000
0000
0000
0001
0000
1000
0020
0000
0000
0000
0000
0030
0000
0100
0000
,  // measure 61
0001
0000
0000
0000
1000
0000
0000
0100
0000
0100
0000
0000
1000
0000
0001
0000
,  // measure 62
1000
0000
0000
0000
0001
0000
0100
0001
0000
0010
0000
0000
0000
0000
0010
0000
,  // measure 63
0001
0000
0000
0000
1000
0000
0000
0100
0000
0000
1000
0000
0020
0000
0000
0000
,  // measure 64
0130
0000
0001
0000
0100
0000
0010
2000
0000
0000
0000
0000
3000
0000
0001
0000
,  // measure 65
1000
0000
0000
0000
0100
0000
0000
0010
0000
0100
0000
0000
0010
0000
0001
0000
,  // measure 66
1000
0000
0001
0000
1000
0000
0000
0010
0000
0010
0000
0100
0010
0000
0100
0000
,  // measure 67
0001
0000
0000
1000
0100
0000
0000
1000
0000
0001
0000
0000
0100
0000
0001
0000
;

//---------------dance-single - ----------------
#NOTEDATA:;
#CHARTNAME:;
#STEPSTYPE:dance-single;
#DESCRIPTION:;
#CHARTSTYLE:;
#DIFFICULTY:Medium;
#METER:5;
#RADARVALUES:0.313344,0.419373,0.262591,0.332100,0.000000,284.000000,250.000000,34.000000,43.000000,0.000000,0.000000,0.000000,0.000000,0.000000,0.313344,0.419373,0.262591,0.332100,0.000000,284.000000,250.000000,34.000000,43.000000,0.000000,0.000000,0.000000,0.000000,0.000000;
#CREDIT:;
#NOTES:
0000
0000
0000
0000
,
0000
0000
0000
0000
,
0000
0000
0000
0000
,
0000
0000
0000
0000
,
1000
0001
0010
0010
,
0001
1000
0010
0010
,
1000
0001
0100
0100
,
0001
1000
0100
0100
,
1000
0000
0010
0000
0100
0001
0100
0000
,
0001
0000
0010
0000
0100
1000
0100
0000
,
1000
0000
0001
0000
0010
0100
0010
0000
,
0001
0000
0100
0000
0010
1000
0010
0000
,
1000
0001
0200
0301
,
0010
0100
2000
3010
,
0100
0001
2000
3100
,
1000
0010
0200
0301
,
0010
0001
2000
3100
,
1000
0010
0200
0301
,
0010
0001
0200
0310
,
1000
0000
0001
0000
1000
0001
0100
0000
,
0010
1000
0200
1300
,
0200
0310
0200
1300
,
0100
1000
0002
0103
,
0002
1003
0002
0103
,
0001
0010
0200
0310
,
0200
1300
0200
0310
,
0100
1000
0020
1030
,
0020
0130
0020
1030
,
0001
0000
1000
0100
0020
0000
0031
0000
,
0020
0130
0020
0031
,
0010
0000
0100
1000
0020
0000
1030
0000
,
0020
0130
0020
1030
,
0010
0000
0100
0001
2000
0000
3001
0000
,
2000
3010
2000
3001
,
1000
0000
0010
1000
0200
0000
1300
0000
,
0200
0310
0200
1300
,
1001
0000
0000
0000
,
1010
0000
0000
0000
,
1100
0000
0000
0000
,
1100
0000
0000
0000
,
1001
0000
0000
0000
,
0101
0000
0000
0000
,
0011
0000
0000
0000
,
0011
0000
0000
0000
,
2001
3000
1002
0003
,
0110
1001
0110
1001
,
0210
0300
0120
0030
,
1001
0110
1001
0110
,
2010
3010
0102
0103
,
2001
0001
0001
3001
,
0201
0301
1020
1030
,
1002
1000
1000
1003
,
0001
0010
0001
0000
0100
0000
0110
0000
,
0010
1000
0010
0000
1000
0000
1100
0000
,
0100
0010
0100
0000
0010
0000
0011
0000
,
0001
1000
0001
0000
1000
0000
1010
0000
,
1000
0001
0100
0000
0001
0000
0011
0000
,
0010
0100
1000
0000
0100
0000
0011
0000
,
0010
0001
0100
0000
0010
0000
1010
0000
,
1000
0001
0100
0000
0010
0000
1001
0000
,
1000
0000
0010
0000
0200
0000
0000
0300
,
0010
0000
1000
0000
0001
0010
0001
0000
,
0010
0000
0001
0000
0100
0000
0010
1000
,
1000
0000
0001
0000
1000
0010
1000
0000
,
0010
0000
1000
0100
0020
0000
0000
0030
,
0100
0000
1000
0000
0001
0010
0001
0000
,
0010
0000
0001
0000
0100
0000
0010
0100
,
0001
0000
1000
0000
0001
0000
0100
0010
;

//---------------dance-single - ----------------
#NOTEDATA:;
#CHARTNAME:;
#STEPSTYPE:dance-single;
#DESCRIPTION:;
#CHARTSTYLE:;
#DIFFICULTY:Easy;
#METER:3;
#RADARVALUES:0.193081,0.313951,0.061786,0.123572,0.000000,175.000000,167.000000,8.000000,16.000000,0.000000,0.000000,0.000000,0.000000,0.000000,0.193081,0.313951,0.061786,0.123572,0.000000,175.000000,167.000000,8.000000,16.000000,0.000000,0.000000,0.000000,0.000000,0.000000;
#CREDIT:;
#NOTES:
0000
0000
0000
0000
,
0000
0000
0000
0000
,
0000
0000
0000
0000
,
0000
0000
0000
0000
,
1000
0000
0000
0000
,
0001
0000
0000
0000
,
1000
0000
0000
0000
,
0001
0000
0000
0000
,
0100
0000
0010
0000
,
0100
0000
0010
1000
,
0010
0000
0100
0000
,
0010
0000
0100
0000
,
0001
0000
2000
0000
0000
0000
0000
3000
,
0000
0000
0002
0000
0000
0000
0000
0003
,
0000
0000
0200
0000
0000
0000
0000
0300
,
0000
0000
0020
0000
0000
0000
0000
0030
,
0000
0000
2000
0000
0000
0000
0000
3000
,
0000
0000
0020
0000
0000
0000
0000
0030
,
0000
0000
0200
0000
0000
0000
0000
0300
,
0000
0002
0103
0001
,
0010
0001
1000
0000
,
1000
0000
1000
0001
,
0100
0010
0100
0000
,
0100
0000
0100
0000
,
0010
1000
0001
0000
,
0001
0000
0001
0000
,
0010
0001
0100
0000
,
0100
0000
0100
0000
,
0010
1000
0001
1000
,
0001
1000
0001
0100
,
0001
0010
0100
1000
,
0100
1000
0100
1000
,
0100
1000
0010
0100
,
0010
0100
0010
0100
,
0001
0010
0100
0010
,
0100
0010
0100
0010
,
0001
0000
0000
0000
,
0100
0000
0000
0000
,
1000
0000
0000
0000
,
1000
0000
0000
0000
,
0100
0000
0000
0000
,
0010
0000
0000
0000
,
1000
0000
0000
0000
,
1000
0000
0000
0000
,
0020
0030
0020
0030
,
0100
0100
0100
0100
,
0002
0003
0002
0003
,
1000
1000
1000
1000
,
0002
0003
2000
3000
,
0010
0100
0001
1000
,
0200
0300
0020
0030
,
0001
0010
0100
1000
,
0001
1000
0010
1010
,
1000
0001
0100
0101
,
0001
1000
0100
1100
,
1000
0001
0100
0101
,
0001
1000
0010
1010
,
1000
0001
0010
0011
,
0001
1000
0100
1100
,
1000
0010
0100
0101
,
0001
1000
0100
0000
,
0000
0100
1000
0000
,
0001
1000
0010
1000
,
0001
0100
0001
0001
,
0000
1000
0010
0000
,
0100
0010
1000
0000
,
0001
1000
0100
0100
,
1000
0010
0100
0001
;

//---------------dance-single - ----------------
#NOTEDATA:;
#CHARTNAME:;
#STEPSTYPE:dance-single;
#DESCRIPTION:;
#CHARTSTYLE:;
#DIFFICULTY:Beginner;
#METER:1;
#RADARVALUES:0.097092,0.156975,0.046340,0.000000,0.000000,88.000000,82.000000,6.000000,0.000000,0.000000,0.000000,0.000000,0.000000,0.000000,0.097092,0.156975,0.046340,0.000000,0.000000,88.000000,82.000000,6.000000,0.000000,0.000000,0.000000,0.000000,0.000000,0.000000;
#CREDIT:;
#NOTES:
0000
0000
0000
0000
,
0000
0000
0000
0000
,
0000
0000
0000
0000
,
0000
0000
0000
0000
,
0010
0000
0000
0000
,
0010
0000
0000
0000
,
0010
0000
0000
0000
,
0010
0000
0000
0000
,
1000
0000
0000
0000
,
1000
0000
0000
0000
,
0001
0000
0000
0000
,
0001
0000
0000
0000
,
0000
0100
0000
0000
,
0000
0010
0000
0000
,
0000
1000
0000
0000
,
0000
0001
0000
0000
,
0000
0010
0000
0000
,
0000
0001
0000
0000
,
0000
1000
0000
0000
,
0000
0100
0000
0000
,
1000
0000
0001
0000
,
0001
0000
0001
0000
,
0000
0000
1000
0000
,
1000
0000
1000
0000
,
0000
0000
0010
0000
,
0010
0000
0010
0000
,
0000
0000
0100
0000
,
0100
0000
0100
0000
,
0010
0000
1000
0000
,
1000
0000
1000
0000
,
0010
0000
0100
0000
,
0100
0000
0100
0000
,
0010
0000
1000
0000
,
1000
0000
1000
0000
,
0010
0000
0100
0000
,
0100
0000
0100
0000
,
1001
0000
0000
0000
,
0001
0000
0000
0000
,
0001
0000
0000
0000
,
0001
0000
0000
0000
,
0110
0000
0000
0000
,
0010
0000
0000
0000
,
0100
0000
0000
0000
,
0100
0000
0000
0000
,
0010
0000
0000
0000
,
1000
0000
0000
0000
,
0001
0000
0000
0000
,
0100
0000
0000
0000
,
0001
0000
0000
0000
,
1000
0000
0000
0000
,
0010
0000
0000
0000
,
0100
0000
0000
0000
,
1001
0000
0000
0000
,
1000
0000
1000
0000
,
1001
0000
0000
0000
,
0001
0000
0001
0000
,
0110
0000
0000
0000
,
0010
0000
0010
0000
,
0110
0000
0000
0000
,
0100
0000
0100
0000
,
0010
0000
0000
0000
,
1000
0000
0000
0000
,
0001
0000
0000
0000
,
0001
0000
0000
0000
,
1000
0000
0000
0000
,
0010
0000
0000
0000
,
1000
0000
0000
0000
,
0001
0000
0000
0100
;
