#TITLE:HAPPY ALL THE TIME;
#SUBTITLE:;
#ARTIST:DANNY L HARLE;
#TITLETRANSLIT:;
#SUBTITLETRANSLIT:;
#ARTISTTRANSLIT:;
#GENRE:;
#CREDIT:;
#BANNER:[Round 2] - HAPPY ALL THE TIME.png;
#BACKGROUND:[Round 2] - HAPPY ALL THE TIME-bg.png;
#LYRICSPATH:;
#CDTITLE:cdtitle.png;
#MUSIC:[Round 2] - HAPPY ALL THE TIME.ogg;
#OFFSET:-0.045000;
#SAMPLESTART:64.640190;
#SAMPLELENGTH:13.000000;
#SELECTABLE:YES;
#DISPLAYBPM:130.000000;
#BPMS:0.000000=130.000000
;
#STOPS:
;
#BGCHANGES:;
#KEYSOUNDS:;
#ATTACKS:;

//---------------dance-single - ----------------
#NOTES:
     dance-single:
     :
     Beginner:
     1:
     0.132081,0.281594,0.228656,0.000000,0.000000,93.000000,70.000000,23.000000,0.000000,0.000000,0.000000,0.132081,0.281594,0.228656,0.000000,0.000000,93.000000,70.000000,23.000000,0.000000,0.000000,0.000000:
0000
0000
0000
0000
,
0000
0000
0000
0000
,
0000
0000
0000
0000
,
0000
0000
0000
0000
,
0001
0000
0000
0000
,
0000
0000
0000
0000
,
1000
0000
0000
0000
,
0010
0010
0010
0010
,
0010
0000
0000
0000
,
0000
0000
0000
0010
,
0010
0000
0000
0000
,
0100
0100
0100
0100
,
0100
0000
0000
0000
,
0000
0000
0000
0100
,
0100
0000
0000
0000
,
0001
0001
0001
0001
,
0001
0000
0000
0000
,
0000
0000
0000
0000
,
1000
0000
0000
0000
,
0000
0000
0000
0000
,
0010
0000
0000
0000
,
0100
0000
0000
0000
,
0100
0000
0000
0000
,
0010
0000
0000
0000
,
1000
0000
0000
0000
,
0001
0000
0000
0000
,
0001
0000
0000
0000
,
1000
0000
0000
0000
,
0001
0000
0000
0001
,
0001
0000
0000
0000
,
1000
0000
0000
1000
,
1000
0000
0000
0000
,
0010
0000
0000
0000
,
0010
0000
0000
0000
,
0010
0000
0000
0000
,
1001
1001
1001
1001
,
1001
0000
0000
0000
,
0010
0000
0000
0000
,
0100
0000
0000
0000
,
0110
0110
0110
0110
,
0110
0000
0000
0000
,
0001
0000
0000
0000
,
1000
0000
0000
0000
,
1001
1001
1001
1001
,
1001
0000
0000
0000
,
0010
0000
0000
0000
,
0100
0000
0000
0000
,
0110
0110
0110
0110
,
0110
0000
0000
0000
,
0001
0000
0000
0000
,
1000
0000
0000
0000
,
0110
0110
0110
0000
;

//---------------dance-single - ----------------
#NOTES:
     dance-single:
     :
     Hard:
     8:
     0.489976,0.593075,0.248539,0.000000,0.497077,345.000000,320.000000,25.000000,0.000000,0.000000,0.000000,0.489976,0.593075,0.248539,0.000000,0.497077,345.000000,320.000000,25.000000,0.000000,0.000000,0.000000:
// measure 0
0000
0000
0000
0000
,  // measure 1
0000
0000
0000
0000
,  // measure 2
0000
0000
0000
0000
,  // measure 3
0000
0000
0000
0000
,  // measure 4
0100
0000
0000
0100
0000
0000
0100
0000
,  // measure 5
0000
0010
0000
0000
0010
0000
0000
0010
,  // measure 6
1000
0000
0000
1000
0000
0000
1000
0000
,  // measure 7
0001
0000
0000
0001
0010
0000
0000
0010
0100
0000
0000
0100
1000
0000
0000
0000
,  // measure 8
1000
0100
1000
0100
1000
0000
0001
0100
0001
0100
0001
0000
1000
0010
1000
0010
,  // measure 9
1000
0000
0000
1000
0000
0000
0001
0000
0000
1000
0000
0000
0001
0010
0001
0010
,  // measure 10
0001
0000
0000
0001
0000
0000
0001
0000
0000
0001
0000
0000
0001
0000
0000
0000
,  // measure 11
1000
0000
0000
1000
0010
0000
0000
0010
0100
0000
0000
0100
0001
0000
0000
0000
,  // measure 12
0001
0010
0001
0010
0001
0000
1000
0010
1000
0010
1000
0000
0001
0100
0001
0100
,  // measure 13
0001
0000
0000
0001
0000
0000
1000
0000
0000
0001
0000
0000
1000
0100
1000
0100
,  // measure 14
1000
0000
0000
1000
0000
0000
1000
0000
0000
1000
0000
0000
1000
0000
0000
0000
,  // measure 15
0010
0010
0010
0000
0010
0000
0010
0100
,  // measure 16
0001
0000
1000
0001
0000
1000
0001
0000
,  // measure 17
1000
0010
0000
1000
0010
0000
1000
0010
,  // measure 18
0100
0000
0001
0100
0000
0001
0100
0000
,  // measure 19
0010
1000
0000
0010
1000
0000
0010
1000
,  // measure 20
0001
0000
0001
1000
0000
1000
0001
0000
,  // measure 21
0010
0000
0010
0100
0000
0100
0010
0000
,  // measure 22
0010
0011
0000
1010
0000
0001
0000
0100
,  // measure 23
0000
0101
0000
1010
0000
0001
0001
0001
,  // measure 24
0010
0000
0010
0001
0000
0001
1000
0000
,  // measure 25
0010
0000
0010
0100
0000
0100
0010
0000
,  // measure 26
0100
0101
0000
1100
0000
0001
0000
0010
,  // measure 27
0000
0011
0000
1100
0000
1000
0001
0000
,  // measure 28
0101
0000
0000
1000
0000
0000
0100
0000
0000
1000
0000
0000
0001
0000
0000
0000
,  // measure 29
0101
0000
0000
0001
0000
0000
1000
0000
0000
0010
0000
0000
1000
0000
0000
0000
,  // measure 30
1001
0011
0000
1010
0000
0000
0100
0000
,  // measure 31
0011
1001
0000
1100
0000
0000
0001
0000
,  // measure 32
1100
0000
0000
1000
0000
0000
1100
0000
0000
0001
0000
0000
0101
0000
0000
0000
,  // measure 33
0011
0000
0000
0001
0000
0000
0011
0000
0000
1000
0000
0000
1010
0000
0000
0000
,  // measure 34
1001
0000
0000
0010
0000
0000
1001
0000
0000
0100
0000
0000
1001
0000
0000
0000
,  // measure 35
1000
0000
0000
1000
0010
0000
0000
0010
0100
0000
0000
0100
0001
0000
0000
0000
,  // measure 36
0001
0010
0100
0010
0001
0000
1000
0010
0100
0010
1000
0000
0001
0100
0010
0100
,  // measure 37
0001
0000
0000
0001
0000
0000
0010
0000
0000
0100
0000
0000
1000
0100
0010
0100
,  // measure 38
1000
0000
0000
1000
0000
0000
0010
0000
0000
0100
0000
0000
0001
0000
0000
0000
,  // measure 39
1000
0000
0000
1000
0010
0000
0000
0010
0100
0000
0000
0100
0001
0000
0000
0000
,  // measure 40
0001
1000
0010
1000
0100
0000
1000
0001
0010
0001
0100
0000
0001
1000
0100
1000
,  // measure 41
0010
0000
0000
0010
0000
0000
0100
0000
0000
0010
0000
0000
1000
0001
0100
0001
,  // measure 42
0010
0000
0000
0001
0000
0000
0100
0000
0000
0010
0000
0000
1000
0000
0000
0000
,  // measure 43
0001
0000
0000
0001
0010
0000
0000
0010
0100
0000
0000
0100
1000
0000
0000
0000
,  // measure 44
1000
0010
0100
0001
1000
0000
1000
0010
0100
0001
1000
0000
1000
0010
0100
0001
,  // measure 45
1000
0000
0000
0100
0000
0000
0010
0000
0000
0001
0000
0000
1000
0010
0100
0001
,  // measure 46
1000
0000
0000
1000
0000
0000
0100
0000
0000
0010
0000
0000
0001
0000
0000
0000
,  // measure 47
1000
0000
0000
1000
0100
0000
0000
0100
0010
0000
0000
0010
0001
0000
0000
0000
,  // measure 48
0001
0010
0100
1000
0001
0000
0001
0010
0100
1000
0001
0000
0001
0010
0100
1000
,  // measure 49
0001
0000
0000
0100
0000
0000
0010
0000
0000
1000
0000
0000
0001
0010
0100
1000
,  // measure 50
0001
0000
0000
0100
0000
0000
0010
0000
0000
1000
0000
0000
0001
0000
0000
0000
,  // measure 51
1000
0010
0100
0001
1000
0000
0001
0010
;

//---------------dance-single - ----------------
#NOTES:
     dance-single:
     :
     Medium:
     6:
     0.315289,0.361872,0.119299,0.318129,0.029825,222.000000,210.000000,12.000000,32.000000,0.000000,0.000000,0.315289,0.361872,0.119299,0.318129,0.029825,222.000000,210.000000,12.000000,32.000000,0.000000,0.000000:
0000
0000
0000
0000
,
0000
0000
0000
0000
,
0000
0000
0000
0000
,
0000
0000
0000
0000
,
0001
0000
0000
0010
0000
0000
0001
0000
,
0000
0100
0000
0000
0100
0000
0000
0100
,
0010
0000
0000
1000
0000
0000
0100
0000
,
2000
3020
0230
0302
,
1003
0100
1000
0001
0010
0001
1000
0010
,
1000
0000
0010
0000
0100
0000
0001
0100
,
0001
0010
0100
1000
,
0002
0023
0230
2300
,
3010
0100
0010
1000
0001
1000
0100
0010
,
0100
0000
0010
0000
0001
0000
1000
0001
,
1000
0010
0100
0001
,
0002
0023
0230
2300
,
3001
0000
0000
0100
0000
0000
0001
0000
,
0000
1000
0000
0000
1000
0000
0000
1000
,
0100
0000
0000
0010
0000
0000
0100
0000
,
0000
0010
0000
0000
0010
0000
0000
0010
,
0001
0000
0000
0001
0000
0000
0001
0000
,
1000
0000
0000
1000
0000
0000
1000
0000
,
0100
0010
0001
0010
0100
0000
1000
0000
,
0001
0100
0010
0100
0001
0000
1000
0000
,
0100
0000
0000
0100
0000
0000
0100
0000
,
0010
0000
0000
0010
0000
0000
0010
0000
,
0001
0100
0010
1000
0001
0000
1000
0000
,
0001
0010
0100
1000
0001
0000
1000
0000
,
0110
0000
0000
0110
0000
0000
0110
0000
,
0101
0000
0000
0101
0000
0000
0101
0000
,
1001
0000
0000
1001
0000
0000
1001
0000
,
1100
0000
0000
1100
0000
0000
1100
0000
,
0010
0000
0000
0010
0000
0000
0010
0000
0000
0010
0000
0000
0010
0000
0000
0000
,
0001
0000
0000
0001
0000
0000
0001
0000
0000
0001
0000
0000
0001
0000
0000
0000
,
1000
0000
0000
1000
0000
0000
1000
0000
0000
1000
0000
0000
1000
0000
0000
0000
,
0020
2030
3002
0203
,
0310
1000
0100
0010
0001
0100
0010
1000
,
0100
0000
0000
0100
0000
0000
0010
0001
,
0100
0000
0000
0100
0000
0000
0100
0000
,
0020
2030
3200
0302
,
0103
1000
0010
0100
0001
0010
0100
1000
,
0010
0000
0000
0010
0000
0000
0100
0001
,
0010
0000
0000
0010
0000
0000
0010
0000
,
0200
2300
3020
0032
,
0013
1000
0100
0010
1000
0100
0010
1000
,
0100
0000
0000
0100
0000
0000
0010
1000
,
0100
0000
0000
0100
0000
0000
0100
0000
,
0002
0023
2030
3200
,
0301
0010
1000
0001
0010
1000
0001
0010
,
1000
0000
0000
1000
0000
0000
0001
0010
,
1000
0000
0000
1000
0000
0000
1000
0000
,
0020
2030
3002
0203
,
0300
0000
0000
0000
;

//---------------dance-single - ----------------
#NOTES:
     dance-single:
     :
     Easy:
     3:
     0.211613,0.206784,0.000000,0.318129,0.000000,149.000000,149.000000,0.000000,32.000000,0.000000,0.000000,0.211613,0.206784,0.000000,0.318129,0.000000,149.000000,149.000000,0.000000,32.000000,0.000000,0.000000:
0000
0000
0000
0000
,
0000
0000
0000
0000
,
0000
0000
0000
0000
,
0000
0000
0000
0000
,
0001
0000
0000
0001
0000
0000
0001
0000
,
0000
0001
0000
0000
0001
0000
0000
0000
,
1000
0000
0000
1000
0000
0000
1000
0000
,
0002
0023
0230
2300
,
3001
0000
0000
1000
0000
0000
0001
0000
,
0100
0000
0000
0100
0000
0000
0100
0000
,
0010
0000
0000
0100
0000
0000
0010
0000
,
2000
3200
0320
0032
,
1003
0000
0000
0001
0000
0000
1000
0000
,
0010
0000
0000
0010
0000
0000
0010
0000
,
0100
0000
0000
0001
0000
0000
0100
0000
,
0020
2030
3002
0203
,
0310
0000
0000
0010
0000
0000
0010
0000
,
0000
0100
0000
0000
0100
0000
0000
0000
,
0001
0000
0000
0001
0000
0000
0001
0000
,
0000
1000
0000
0000
1000
0000
0000
0000
,
0100
0000
0000
0100
0000
0000
0100
0000
,
0010
0000
0000
0010
0000
0000
0010
0000
,
0001
0000
0000
0001
0000
0000
0001
0000
,
1000
0000
0000
1000
0000
0000
1000
0000
,
0010
0000
0000
0010
0000
0000
0010
0000
,
1000
0000
0000
1000
0000
0000
1000
0000
,
0001
0000
0000
0001
0000
0000
0001
0000
,
0010
0000
0000
0010
0000
0000
0010
0000
,
0100
0000
0000
0100
0000
0000
0100
0000
,
1000
0000
0000
1000
0000
0000
1000
0000
,
0001
0000
0000
0001
0000
0000
0001
0000
,
0100
0000
0000
0100
0000
0000
0100
0000
,
0010
0000
0000
1000
0000
0000
0010
0000
,
0100
0000
0000
0001
0000
0000
0100
0000
,
0010
0000
0000
0100
0000
0000
0010
0000
,
2000
3200
0320
0032
,
1003
0000
0000
0100
0000
0000
1000
0000
,
0001
0000
0000
0010
0000
0000
0001
0000
,
0100
0000
0000
0010
0000
0000
0100
0000
,
0002
0023
0230
2300
,
3010
0000
0000
1000
0000
0000
0001
0000
,
0010
0000
0000
0001
0000
0000
1000
0000
,
0100
0000
0000
0100
0000
0000
0100
0000
,
0020
0032
2003
3200
,
0310
0000
0000
0001
0000
0000
0100
0000
,
0010
0000
0000
0001
0000
0000
0100
0000
,
0010
0000
0000
0001
0000
0000
0100
0000
,
0020
2030
3200
0320
,
0031
0000
0000
1000
0000
0000
0010
0000
,
0001
0000
0000
1000
0000
0000
0010
0000
,
0001
0000
0000
1000
0000
0000
0010
0000
,
2000
3200
0320
0032
,
0003
0000
0000
0000
;
