#VERSION:0.83;
#TITLE:あいしてるよね;
#SUBTITLE:;
#ARTIST:Virtual Riot feat. Miss Neko;
#TITLETRANSLIT:Aishiteru Yo Ne;
#SUBTITLETRANSLIT:;
#ARTISTTRANSLIT:;
#GENRE:J-Dance;
#ORIGIN:;
#CREDIT:CuzcoBlocko (steps), Gameoson (song cut);
#BANNER:;
#BACKGROUND:;
#PREVIEWVID:;
#JACKET:;
#CDIMAGE:;
#DISCIMAGE:;
#LYRICSPATH:;
#CDTITLE:cdtitle.png;
#MUSIC:[Round 2] - Aishiteru Yo Ne.ogg;
#OFFSET:-0.279000;
#SAMPLESTART:96.278000;
#SAMPLELENGTH:14.000000;
#SELECTABLE:YES;
#DISPLAYBPM:65.000000:130.000000;
#BPMS:0.000=65.000,
7.500=130.000,
23.500=65.000,
23.667=260.000,
24.000=130.000,
40.000=65.000,
56.000=97.500,
58.250=173.333,
59.000=97.500,
64.250=173.333,
65.000=97.500,
70.625=195.000,
71.000=97.500,
73.625=195.000,
74.000=130.000,
81.000=65.000,
81.333=260.000,
82.000=130.000,
115.500=260.000,
116.000=130.000,
142.000=195.000,
146.000=65.000,
146.250=130.000,
146.500=260.000,
147.000=130.000,
197.500=260.000,
198.000=130.000,
210.000=97.500,
228.000=43.333;
#STOPS:7.500=0.058,
7.625=0.057,
7.750=0.058,
7.875=0.058,
58.250=0.051,
58.438=0.050,
58.625=0.051,
58.813=0.050,
64.250=0.051,
64.438=0.050,
64.625=0.051,
64.813=0.050,
70.625=0.032,
70.729=0.026,
70.813=0.032,
70.917=0.026,
73.625=0.032,
73.729=0.026,
73.813=0.032,
73.917=0.026,
115.500=0.029,
115.625=0.029,
115.750=0.029,
115.875=0.029,
142.000=0.052,
142.333=0.051,
142.667=0.051,
143.000=0.052,
143.333=0.051,
143.667=0.051,
144.000=0.052,
144.333=0.051,
144.667=0.051,
145.000=0.052,
145.333=0.051,
145.667=0.051,
197.500=0.029,
197.625=0.029,
197.750=0.029,
197.875=0.029;
#DELAYS:;
#WARPS:;
#TIMESIGNATURES:0.000=4=4;
#TICKCOUNTS:0.000=4;
#COMBOS:0.000=1;
#SPEEDS:0.000=0.500=0.000=0,
4.000=1.000=3.500=0,
40.000=0.500=8.000=0,
56.000=1.000=26.875=0,
162.000=1.150=16.000=0,
210.000=0.500=20.667=0;
#SCROLLS:0.000=1.000,
24.000=1.150,
40.000=1.500,
59.000=1.420,
62.000=1.360,
65.000=1.280,
68.000=1.200,
71.000=1.120,
74.000=1.060,
78.000=1.000,
82.000=0.900,
116.000=1.000,
210.000=1.250,
228.000=1.500;
#FAKES:;
#LABELS:0.000=Song Start,
85.000=;
#BGCHANGES:;
#KEYSOUNDS:;
#ATTACKS:
;

//---------------dance-single - Many interesting patterns to be had here.----------------
#NOTEDATA:;
#CHARTNAME:ITG 10 X 15;
#STEPSTYPE:dance-single;
#DESCRIPTION:Many interesting patterns to be had here.;
#CHARTSTYLE:Pad;
#DIFFICULTY:Challenge;
#METER:10;
#RADARVALUES:0.621988,0.681038,0.299184,1.251850,0.948729,553.000000,515.000000,38.000000,159.000000,90.000000,0.000000,3.000000,0.000000,0.000000,0.621988,0.681038,0.299184,1.251850,0.948729,553.000000,515.000000,38.000000,159.000000,90.000000,0.000000,3.000000,0.000000,0.000000;
#CREDIT:CuzcoBlocko;
#DISPLAYBPM:65.000000:130.000000;
#NOTES:
// measure 0
0000
0000
0000
0000
,  // measure 1
0000
0000
0000
0000
,  // measure 2
1100
0000
0000
0000
0101
0000
0000
0000
1100
0000
0000
0000
0101
0000
0001
1000
,  // measure 3
0100
0010
0010
0001
0001
0100
0100
0010
,  // measure 4
1010
0000
0000
0000
0011
0000
0000
0000
1010
0000
0000
0000
0101
0000
0100
0001
,  // measure 5
0100
0010
0010
1000
1000
0100
0100
0010
,  // measure 6
0022
0000
0033
0000
2020
0000
303M
0M00
0022
0000
0M33
0000
1002
0000
0013
0100
,  // measure 7
2000
0000
0010
0000
3020
0000
0M01
M000
0032
0000
M010
0000
0023
0000
1030
0000
,  // measure 8
2020
0000
3030
0000
0022
0000
M033
0M00
2020
0000
3M30
0000
1002
0000
0103
0020
,  // measure 9
1000
0000
0000
0000
2030
0000
0000
0000
0100
0000
0000
0000
310M
0000
00M0
0000
0002
0003
0100
0000
M020
0030
0100
0000
2000
3000
0001
0000
0200
0300
0020
0000
,  // measure 10
020M
0000
M000
0000
000M
0000
M000
000M
0000
M000
000M
000M
0000
000M
0000
000M
M330
0000
000M
0000
00M0
0000
0M00
M000
0000
0M00
00M0
000M
0000
M000
0000
M000
,  // measure 11
000M
0000
0M00
0000
00M0
0000
0M00
000M
0000
0M00
00M0
M000
0000
00M0
0M00
0000
000M
0000
0M00
0000
00M0
0000
0M00
000M
0000
0M00
00M0
M000
0000
000M
0000
M000
,  // measure 12
0002
0000
0000
0000
2003
0000
0000
0000
3002
0000
0000
0103
0000
0000
0010
0000
2000
0000
0000
0000
3002
0000
0000
0000
2003
0000
0000
3100
0000
0000
0001
0000
,  // measure 13
0200
0000
0000
0000
0320
0000
0000
0000
0230
0000
0000
1300
0000
0000
0001
0000
0200
0000
0000
0000
0320
0000
0000
0000
0230
0000
0000
0301
0000
0000
1000
0000
,  // measure 14
1100
0000
0000
0000
0000
0000
0000
0000
0000
0000
0000
0000
1000
0000
0000
0000
0000
0000
0100
0000
0000
0000
0000
0000
0110
0000
0000
0000
0000
0000
0000
0000
0000
0010
0000
0000
0001
0000
0000
1000
0000
0000
0010
0000
0000
1000
0000
0000
1001
0000
0000
0000
0000
0000
0000
0000
0000
1000
0000
0000
0001
0000
0000
0000
,  // measure 15
0000
0000
1000
0000
0000
0000
0000
0000
1100
0000
0000
0000
0000
0000
0000
0000
0000
0010
0000
0000
0000
0000
0000
0000
0000
0000
0001
0000
0000
0000
0000
0000
0101
0000
0000
0000
0000
0000
0000
0000
0000
0000
0000
0000
0100
0000
0000
0000
0000
0000
0001
0000
0000
0000
0000
0000
0011
0000
0000
0000
0000
0000
0000
0000
,  // measure 16
0000
0100
0000
0000
0010
0000
0000
0001
0000
0000
1000
0000
0000
0001
0000
0000
0101
0000
0000
0000
0000
0000
0000
0000
0000
0100
0000
0000
0010
0000
0000
0000
0000
0000
0100
0000
0000
0000
0000
0000
1100
0000
0000
0000
0000
0000
0000
0000
0000
1000
0000
0000
0100
0000
0000
0000
0000
0000
0001
0000
0000
0000
0000
0000
,  // measure 17
1001
0000
0000
0000
0000
0000
0000
0000
0000
0000
0000
0000
0000
0000
0000
0000
0000
0000
0000
0000
0000
0000
0000
0000
0000
0000
0000
0000
0000
0000
0000
0000
0000
0000
0000
0000
1000
0000
0000
0000
0000
0000
0000
0000
0000
0000
0000
0000
0000
0000
0000
0000
0000
0000
0001
0000
0000
0000
0000
0000
0000
0000
0000
0000
0000
0000
0000
0000
0000
0000
0000
0000
0011
0000
0000
0000
0000
0000
0000
0000
0000
0000
0000
0000
0000
0000
0000
0000
0000
0000
0000
0000
0000
0000
0000
0000
0000
0000
0000
1000
0000
0000
0000
0000
0000
0000
0000
0000
0100
0000
0000
0000
0000
0000
0000
0000
0000
0010
0000
0000
0000
0000
0000
0000
0000
0000
0004
0000
0000
0000
0000
0000
0000
0000
0000
0000
0003
0000
0000
0000
0000
0000
0000
0000
0101
0000
0000
0000
0000
0000
0000
0000
0000
0000
0000
0000
0000
0000
0000
0000
0000
0000
0000
0000
0000
0000
0000
0000
0000
0000
0000
0001
0000
0000
0000
0000
0000
0000
0000
0000
1000
0000
0000
0000
0000
0000
0000
0000
0000
0000
0000
0000
,  // measure 18
0000
0000
0001
0000
0000
0000
0000
0000
0011
0000
0000
0000
0000
0000
0000
0000
0000
0100
0000
0000
0000
0000
0000
0000
0000
0000
4000
0000
0000
0000
0000
0000
3010
0000
0000
0000
0000
0000
0000
0000
0M0M
0000
0000
0000
0010
0000
0000
0000
0001
0000
0000
0000
0000
0000
0000
0000
1000
0000
0000
0000
0000
0000
0000
0000
,  // measure 19
0010
0000
0M0M
0010
0001
0000
1000
0000
0020
0000
0100
0000
0230
0000
0001
0000
,  // measure 20
0301
0010
0001
1000
0001
0000
0000
0000
2010
0000
3010
0000
0020
0000
0130
0000
,  // measure 21
0200
0000
0301
0000
0002
0013
0100
1000
0002
0000
0013
0000
0020
0000
0130
0000
,  // measure 22
0200
0000
1300
0000
2000
3001
0100
0010
2000
0000
3100
0000
0200
0000
0310
0000
,  // measure 23
0020
0000
0031
0000
0002
0103
0010
1000
0002
0000
0013
0000
0020
0000
0130
0000
,  // measure 24
0200
1300
0100
0000
2000
3001
0010
0100
2000
0000
3010
00M0
0002
0000
0013
00M0
,  // measure 25
2000
0000
3010
00M0
0002
0013
0100
10M0
0002
0000
0103
0M00
2000
0000
3100
0M00
,  // measure 26
0002
0000
0103
0M00
2000
3100
0010
0M01
2000
0000
3100
0M00
0002
0000
0103
0M00
,  // measure 27
2000
0000
3100
0M00
0002
0103
0010
1M00
0002
0000
0013
00M0
2000
0000
3010
00M0
,  // measure 28
0002
0000
0013
0000
0001
0000
00M0
0000
2000
0000
3010
0000
0100
0000
0010
0000
0001
0000
0000
0000
0010
0000
0000
0000
2000
0000
0000
0000
30M0
00M0
00M0
00M0
,  // measure 29
2100
0000
0001
0000
3200
1300
0001
0100
0020
0000
1000
0000
0230
0000
0001
0000
,  // measure 30
0320
0000
0001
0000
0230
0301
1000
0100
0020
0000
0001
0000
0230
0000
1000
0000
,  // measure 31
0320
0000
0001
0000
0230
1300
0001
0100
0020
0000
1000
0000
0230
0000
0001
0000
,  // measure 32
0320
0031
0010
0000
2000
3001
0100
0010
0120
0000
1000
0000
0230
0000
0001
0000
,  // measure 33
0320
0000
1000
0000
0230
0301
1000
0100
0020
0000
0001
0000
0230
0000
1000
0000
,  // measure 34
0320
0000
1000
0000
0230
1300
0001
0100
0102
0000
1000
0000
0203
0000
0001
0000
,  // measure 35
0320
0000
0000
0000
0000
0000
1000
0000
0000
0000
0000
0000
0230
0000
0000
0301
0000
0000
1000
0000
0000
0100
0000
0000
0010
0000
0000
0000
0001
0000
0000
0000
2000
0000
0000
0000
3001
0000
0000
0000
0100
0000
0000
0000
0002
0000
0000
0000
,  // measure 36
1003
0000
0000
0000
0100
0000
0000
0000
0020
0000
0000
0000
0031
0000
0000
0000
0100
0000
0000
0000
0020
0000
0000
0000
M030
0000
0000
0M00
0000
0000
00M0
0000
0000
0000
0000
0000
101M
0000
0000
0000
0000
0000
0000
0000
0000
1000
0000
0000
,  // measure 37
0100
0000
0001
0100
0000
1000
0000
0001
0100
0000
0000
0000
1010
0000
0000
0001
,  // measure 38
0100
0000
1000
0100
0000
0001
0000
1000
0100
0000
0000
0000
0011
0000
0000
1000
,  // measure 39
0100
0000
0001
0100
0000
0010
0000
0100
1000
0000
0000
0000
1010
0000
0000
0001
,  // measure 40
1000
0100
0010
0001
0000
0100
0000
0001
1000
0000
0010
0000
0010
0000
0100
0001
,  // measure 41
0100
0000
1000
0100
0000
0001
0000
1000
0100
0000
0010
0000
0010
0000
0100
1000
,  // measure 42
0100
0000
0001
0100
0000
1000
0000
0001
0100
0000
0010
0000
0010
0000
0100
0001
,  // measure 43
0100
0000
1000
0100
0010
1000
0000
0001
0010
0000
0010
0000
0010
0000
0010
0000
,  // measure 44
0100
0010
0100
0010
0001
1000
0001
1000
1002
0000
0100
0000
2003
0000
0010
0000
,  // measure 45
3002
0000
0013
0100
1000
0000
0010
0000
0200
0000
0001
0000
0320
0000
1000
0000
,  // measure 46
0230
0000
0301
1000
0100
0000
0001
0000
0200
0000
1000
0000
0320
0000
0001
0000
,  // measure 47
0230
0000
1300
0001
0100
0000
0010
0000
2000
0000
0100
0000
3002
0000
0010
0000
,  // measure 48
1003
0100
0000
0010
0001
0000
0100
0001
2000
0000
0100
0000
3002
0000
0010
0000
,  // measure 49
2003
0000
3010
0100
0001
0000
0040
0000
0230
0000
1000
0000
0320
0000
0001
0000
,  // measure 50
0230
0000
1300
0001
0200
0000
1000
0000
0310
0000
0M0M
0010
0001
0000
1000
0000
,  // measure 51
0010
0000
0M0M
0010
0001
0000
1000
0000
0020
0000
0100
0000
0230
0000
0001
0000
,  // measure 52
0301
0000
0010
0000
0001
0000
1000
0000
0010
0000
1000
0000
0001
0000
0010
0000
0012
0000
0000
0023
0000
0000
0230
0000
0000
2300
0000
0000
0001
0000
0000
0000
,  // measure 53
0000
0000
0000
0000
3010
0000
0000
0100
0000
0000
0001
0000
0000
1000
0000
0000
0020
0000
0000
0000
0000
0000
0230
0000
0000
0000
0000
0000
0302
0000
0000
0000
0000
0000
2003
0000
0000
0000
0000
0000
0100
0000
0000
0000
0000
0000
3002
0000
0000
0000
0000
0000
0203
0000
0000
0000
0000
0000
0320
0000
0000
000M
0000
0000
,  // measure 54
2030
0000
0000
0000
0000
0000
3200
0000
0000
0000
0000
0000
0320
0000
0000
0000
0000
0000
0032
0000
0000
0000
0000
0000
1000
0000
0000
0000
0000
0000
0000
0000
0000
0000
0000
0000
0013
0000
0000
0100
0000
0000
1000
0000
0000
0001
0000
0000
0200
0000
0000
0000
0000
0000
2300
0000
0000
0000
0000
0000
3200
0000
0000
0000
,  // measure 55
0000
0000
0320
0000
0000
0000
0000
0000
0230
0000
0000
M000
0000
0000
0302
0000
0000
0000
0000
0000
20M3
0000
0000
0000
0000
0000
3200
0000
0000
000M
0000
0000
0320
0000
0000
0000
0000
0000
0032
0000
0000
0000
0000
0000
2003
0000
0000
0000
0000
0000
0000
0000
0000
0000
0000
0000
0010
0000
0000
0000
0000
0000
0000
0000
,  // measure 56
0000
0000
0000
0000
3001
0000
0000
0000
0000
0000
0100
0000
0000
0000
0000
0000
0020
0000
0000
0000
0000
0000
2030
0000
0000
0000
0000
0000
3002
0000
0000
0000
0000
0000
0013
0000
0000
0000
0000
0000
0200
0000
0000
0000
0000
0000
2300
0000
0000
0000
0000
0000
3002
0000
0000
0000
0000
0000
0203
0000
0000
00M0
0000
0000
,  // measure 57
2300
3200
0302
1003
0100
0001
1000
0000
0000
0000
0000
0000
0000
0000
0000
0000
0MM0
0000
0000
0000
0000
0000
0000
0000
;

//---------------dance-single - Removed rolls and tell-jumps.----------------
#NOTEDATA:;
#CHARTNAME:ITG 10 X 14 (edit);
#STEPSTYPE:dance-single;
#DESCRIPTION:Removed rolls and tell-jumps.;
#CHARTSTYLE:Pad;
#DIFFICULTY:Edit;
#METER:10;
#RADARVALUES:0.615240,0.658337,0.251945,1.275470,0.948729,547.000000,515.000000,32.000000,162.000000,90.000000,0.000000,0.000000,0.000000,0.000000,0.615240,0.658337,0.251945,1.275470,0.948729,547.000000,515.000000,32.000000,162.000000,90.000000,0.000000,0.000000,0.000000,0.000000;
#CREDIT:CuzcoBlocko;
#DISPLAYBPM:65.000000:130.000000;
#NOTES:
// measure 0
0000
0000
0000
0000
,  // measure 1
0000
0000
0000
0000
,  // measure 2
1100
0000
0000
0000
0101
0000
0000
0000
1100
0000
0000
0000
0101
0000
0001
1000
,  // measure 3
0100
0010
0010
0001
0001
0100
0100
0010
,  // measure 4
1010
0000
0000
0000
0011
0000
0000
0000
1010
0000
0000
0000
0101
0000
0100
0001
,  // measure 5
0100
0010
0010
1000
1000
0100
0100
0010
,  // measure 6
0022
0000
0033
0000
2020
0000
303M
0M00
0022
0000
0M33
0000
1002
0000
0013
0100
,  // measure 7
2000
0000
0010
0000
3020
0000
0M01
M000
0032
0000
M010
0000
0023
0000
1030
0000
,  // measure 8
2020
0000
3030
0000
0022
0000
M033
0M00
2020
0000
3M30
0000
1002
0000
0103
0020
,  // measure 9
1000
0000
0000
0000
2030
0000
0000
0000
0100
0000
0000
0000
310M
0000
00M0
0000
0002
0003
0100
0000
M020
0030
0100
0000
2000
3000
0001
0000
0200
0300
0020
0000
,  // measure 10
020M
0000
M000
0000
000M
0000
M000
000M
0000
M000
000M
000M
0000
000M
0000
000M
M330
0000
000M
0000
00M0
0000
0M00
M000
0000
0M00
00M0
000M
0000
M000
0000
M000
,  // measure 11
000M
0000
0M00
0000
00M0
0000
0M00
000M
0000
0M00
00M0
M000
0000
00M0
0M00
0000
000M
0000
0M00
0000
00M0
0000
0M00
000M
0000
0M00
00M0
M000
0000
000M
0000
M000
,  // measure 12
0002
0000
0000
0000
2003
0000
0000
0000
3002
0000
0000
0103
0000
0000
0010
0000
2000
0000
0000
0000
3002
0000
0000
0000
2003
0000
0000
3100
0000
0000
0001
0000
,  // measure 13
0200
0000
0000
0000
0320
0000
0000
0000
0230
0000
0000
1300
0000
0000
0001
0000
0200
0000
0000
0000
0320
0000
0000
0000
0230
0000
0000
0301
0000
0000
1000
0000
,  // measure 14
1100
0000
0000
0000
0000
0000
0000
0000
0000
0000
0000
0000
1000
0000
0000
0000
0000
0000
0100
0000
0000
0000
0000
0000
0110
0000
0000
0000
0000
0000
0000
0000
0000
0010
0000
0000
0001
0000
0000
1000
0000
0000
0010
0000
0000
1000
0000
0000
0001
0000
0000
0000
0000
0000
0000
0000
0000
1000
0000
0000
0001
0000
0000
0000
,  // measure 15
0000
0000
1000
0000
0000
0000
0000
0000
1100
0000
0000
0000
0000
0000
0000
0000
0000
0010
0000
0000
0000
0000
0000
0000
0000
0000
0001
0000
0000
0000
0000
0000
0101
0000
0000
0000
0000
0000
0000
0000
0000
0000
0000
0000
0100
0000
0000
0000
0000
0000
0001
0000
0000
0000
0000
0000
0011
0000
0000
0000
0000
0000
0000
0000
,  // measure 16
0000
0100
0000
0000
0010
0000
0000
0001
0000
0000
1000
0000
0000
0001
0000
0000
0100
0000
0000
0000
0000
0000
0000
0000
0000
0100
0000
0000
0010
0000
0000
0000
0000
0000
0100
0000
0000
0000
0000
0000
1100
0000
0000
0000
0000
0000
0000
0000
0000
1000
0000
0000
0100
0000
0000
0000
0000
0000
0001
0000
0000
0000
0000
0000
,  // measure 17
1001
0000
0000
0000
0000
0000
0000
0000
0000
0000
0000
0000
0000
0000
0000
0000
0000
0000
0000
0000
0000
0000
0000
0000
0000
0000
0000
0000
0000
0000
0000
0000
0000
0000
0000
0000
1000
0000
0000
0000
0000
0000
0000
0000
0000
0000
0000
0000
0000
0000
0000
0000
0000
0000
0001
0000
0000
0000
0000
0000
0000
0000
0000
0000
0000
0000
0000
0000
0000
0000
0000
0000
0011
0000
0000
0000
0000
0000
0000
0000
0000
0000
0000
0000
0000
0000
0000
0000
0000
0000
0000
0000
0000
0000
0000
0000
0000
0000
0000
1000
0000
0000
0000
0000
0000
0000
0000
0000
0100
0000
0000
0000
0000
0000
0000
0000
0000
0010
0000
0000
0000
0000
0000
0000
0000
0000
0002
0000
0000
0000
0000
0000
0000
0000
0000
0000
0003
0000
0000
0000
0000
0000
0000
0000
0101
0000
0000
0000
0000
0000
0000
0000
0000
0000
0000
0000
0000
0000
0000
0000
0000
0000
0000
0000
0000
0000
0000
0000
0000
0000
0000
0001
0000
0000
0000
0000
0000
0000
0000
0000
1000
0000
0000
0000
0000
0000
0000
0000
0000
0000
0000
0000
,  // measure 18
0000
0000
0001
0000
0000
0000
0000
0000
0011
0000
0000
0000
0000
0000
0000
0000
0000
0100
0000
0000
0000
0000
0000
0000
0000
0000
2000
0000
0000
0000
0000
0000
3010
0000
0000
0000
0000
0000
0000
0000
0M0M
0000
0000
0000
0010
0000
0000
0000
0001
0000
0000
0000
0000
0000
0000
0000
1000
0000
0000
0000
0000
0000
0000
0000
,  // measure 19
0010
0000
0M0M
0010
0001
0000
1000
0000
0020
0000
0100
0000
0230
0000
0001
0000
,  // measure 20
0301
0010
0001
1000
0001
0000
0000
0000
2010
0000
3010
0000
0020
0000
0130
0000
,  // measure 21
0200
0000
0301
0000
0002
0013
0100
1000
0002
0000
0013
0000
0020
0000
0130
0000
,  // measure 22
0200
0000
1300
0000
2000
3001
0100
0010
2000
0000
3100
0000
0200
0000
0310
0000
,  // measure 23
0020
0000
0031
0000
0002
0103
0010
1000
0002
0000
0013
0000
0020
0000
0130
0000
,  // measure 24
0200
1300
0100
0000
2000
3001
0010
0100
2000
0000
3010
00M0
0002
0000
0013
00M0
,  // measure 25
2000
0000
3010
00M0
0002
0013
0100
10M0
0002
0000
0103
0M00
2000
0000
3100
0M00
,  // measure 26
0002
0000
0103
0M00
2000
3100
0010
0M01
2000
0000
3100
0M00
0002
0000
0103
0M00
,  // measure 27
2000
0000
3100
0M00
0002
0103
0010
1M00
0002
0000
0013
00M0
2000
0000
3010
00M0
,  // measure 28
0002
0000
0013
0000
0001
0000
00M0
0000
2000
0000
3010
0000
0100
0000
0010
0000
0001
0000
0000
0000
0010
0000
0000
0000
2000
0000
0000
0000
30M0
00M0
00M0
00M0
,  // measure 29
2100
0000
0001
0000
3200
1300
0001
0100
0020
0000
1000
0000
0230
0000
0001
0000
,  // measure 30
0320
0000
0001
0000
0230
0301
1000
0100
0020
0000
0001
0000
0230
0000
1000
0000
,  // measure 31
0320
0000
0001
0000
0230
1300
0001
0100
0020
0000
1000
0000
0230
0000
0001
0000
,  // measure 32
0320
0031
0010
0000
2000
3001
0100
0010
0200
0000
1300
0000
0200
0000
0001
0000
,  // measure 33
0320
0000
1000
0000
0230
0301
1000
0100
0020
0000
0001
0000
0230
0000
1000
0000
,  // measure 34
0320
0000
1000
0000
0230
1300
0001
0100
0020
0000
1000
0000
0230
0000
0001
0000
,  // measure 35
0320
0000
0000
0000
0000
0000
1000
0000
0000
0000
0000
0000
0230
0000
0000
0301
0000
0000
1000
0000
0000
0100
0000
0000
0010
0000
0000
0000
0001
0000
0000
0000
2000
0000
0000
0000
3001
0000
0000
0000
0100
0000
0000
0000
0002
0000
0000
0000
,  // measure 36
1003
0000
0000
0000
0100
0000
0000
0000
0020
0000
0000
0000
0031
0000
0000
0000
0100
0000
0000
0000
0020
0000
0000
0000
M030
0000
0000
0M00
0000
0000
00M0
0000
0000
0000
0000
0000
101M
0000
0000
0000
0000
0000
0000
0000
0000
1000
0000
0000
,  // measure 37
0100
0000
0001
0100
0000
1000
0000
0001
0100
0000
0000
0000
1010
0000
0000
0001
,  // measure 38
0100
0000
1000
0100
0000
0001
0000
1000
0100
0000
0000
0000
0011
0000
0000
1000
,  // measure 39
0100
0000
0001
0100
0000
0010
0000
0100
1000
0000
0000
0000
1010
0000
0000
0001
,  // measure 40
1000
0100
0010
0001
0000
0100
0000
0001
1000
0000
0010
0000
0010
0000
0100
0001
,  // measure 41
0100
0000
1000
0100
0000
0001
0000
1000
0100
0000
0010
0000
0010
0000
0100
1000
,  // measure 42
0100
0000
0001
0100
0000
1000
0000
0001
0100
0000
0010
0000
0010
0000
0100
0001
,  // measure 43
0100
0000
1000
0100
0010
1000
0000
0001
0010
0000
0010
0000
0010
0000
0010
0000
,  // measure 44
0100
0010
0100
0010
0001
1000
0001
1000
0002
0000
0100
0000
2003
0000
0010
0000
,  // measure 45
3002
0000
0013
0100
1000
0000
0010
0000
0200
0000
0001
0000
0320
0000
1000
0000
,  // measure 46
0230
0000
0301
1000
0100
0000
0001
0000
0200
0000
1000
0000
0320
0000
0001
0000
,  // measure 47
0230
0000
1300
0001
0100
0000
0010
0000
2000
0000
0100
0000
3002
0000
0010
0000
,  // measure 48
1003
0100
0000
0010
0001
0000
0100
0001
2000
0000
0100
0000
3002
0000
0010
0000
,  // measure 49
2003
0000
3010
0100
0001
0000
0020
0000
0230
0000
1000
0000
0320
0000
0001
0000
,  // measure 50
0230
0000
1300
0001
0200
0000
1000
0000
0310
0000
0M0M
0010
0001
0000
1000
0000
,  // measure 51
0010
0000
0M0M
0010
0001
0000
1000
0000
0020
0000
0100
0000
0230
0000
0001
0000
,  // measure 52
0301
0000
0010
0000
0001
0000
1000
0000
0010
0000
1000
0000
0001
0000
0010
0000
0002
0000
0000
0023
0000
0000
0230
0000
0000
2300
0000
0000
0001
0000
0000
0000
,  // measure 53
0000
0000
0000
0000
3010
0000
0000
0100
0000
0000
0001
0000
0000
1000
0000
0000
0020
0000
0000
0000
0000
0000
0230
0000
0000
0000
0000
0000
0302
0000
0000
0000
0000
0000
2003
0000
0000
0000
0000
0000
0100
0000
0000
0000
0000
0000
3002
0000
0000
0000
0000
0000
0203
0000
0000
0000
0000
0000
0320
0000
0000
000M
0000
0000
,  // measure 54
2030
0000
0000
0000
0000
0000
3200
0000
0000
0000
0000
0000
0320
0000
0000
0000
0000
0000
0032
0000
0000
0000
0000
0000
1000
0000
0000
0000
0000
0000
0000
0000
0000
0000
0000
0000
0013
0000
0000
0100
0000
0000
1000
0000
0000
0001
0000
0000
0200
0000
0000
0000
0000
0000
2300
0000
0000
0000
0000
0000
3200
0000
0000
0000
,  // measure 55
0000
0000
0320
0000
0000
0000
0000
0000
0230
0000
0000
M000
0000
0000
0302
0000
0000
0000
0000
0000
20M3
0000
0000
0000
0000
0000
3200
0000
0000
000M
0000
0000
0320
0000
0000
0000
0000
0000
0032
0000
0000
0000
0000
0000
2003
0000
0000
0000
0000
0000
0000
0000
0000
0000
0000
0000
0010
0000
0000
0000
0000
0000
0000
0000
,  // measure 56
0000
0000
0000
0000
3001
0000
0000
0000
0000
0000
0100
0000
0000
0000
0000
0000
0020
0000
0000
0000
0000
0000
2030
0000
0000
0000
0000
0000
3002
0000
0000
0000
0000
0000
0013
0000
0000
0000
0000
0000
0200
0000
0000
0000
0000
0000
2300
0000
0000
0000
0000
0000
3002
0000
0000
0000
0000
0000
0203
0000
0000
00M0
0000
0000
,  // measure 57
2300
3200
0302
1003
0100
0010
0001
0000
0000
0000
0000
0000
0000
0000
0000
0000
MM00
0000
0000
0000
0000
0000
0000
0000
;

//---------------dance-single - The patterns are slightly more sharp here.----------------
#NOTEDATA:;
#CHARTNAME:ITG 08 X 13;
#STEPSTYPE:dance-single;
#DESCRIPTION:The patterns are slightly more sharp here.;
#CHARTSTYLE:Pad;
#DIFFICULTY:Hard;
#METER:8;
#RADARVALUES:0.543256,0.567532,0.417283,0.267691,0.468460,483.000000,430.000000,53.000000,34.000000,0.000000,0.000000,7.000000,0.000000,0.000000,0.543256,0.567532,0.417283,0.267691,0.468460,483.000000,430.000000,53.000000,34.000000,0.000000,0.000000,7.000000,0.000000,0.000000;
#CREDIT:CuzcoBlocko;
#DISPLAYBPM:65.000000:130.000000;
#NOTES:
// measure 0
0000
0000
0000
0000
,  // measure 1
0000
0000
0000
0000
,  // measure 2
1100
0000
1001
0000
1100
0000
1001
0001
,  // measure 3
0100
1000
0100
0001
0100
1000
0100
0001
,  // measure 4
0011
0000
1001
0000
0011
0000
1100
1000
,  // measure 5
0001
0100
1000
0100
0001
0100
1000
0100
,  // measure 6
0101
0000
0011
0000
1100
0000
1010
0010
,  // measure 7
0100
0001
0001
0010
0010
1000
1000
0010
,  // measure 8
0011
0000
0101
0000
1010
0000
1001
0001
,  // measure 9
0020
1000
2030
0010
3010
0011
1001
1010
,  // measure 10
2002
0000
0000
0000
,  // measure 11
0000
0000
0000
3003
,  // measure 12
0002
0000
0000
0000
1000
0000
0000
0000
1000
0000
0000
0103
0000
0000
0010
0000
2000
0000
0000
0000
0001
0000
0000
0000
0001
0000
0000
3010
0000
0000
0001
0000
,  // measure 13
0020
0000
0000
0000
0100
0000
0000
0000
0100
0000
0000
1030
0000
0000
0001
0000
0020
0000
0000
0000
0100
0000
0000
0000
0100
0000
0000
0031
0000
0000
1000
0000
,  // measure 14
1100
0000
0000
0000
0000
0000
0000
0000
0000
0000
0000
0000
0100
0000
0000
0000
0000
0000
0010
0000
0000
0000
0000
0000
0011
0000
0000
0000
0000
0000
0000
0000
0000
0001
0000
0000
4000
0000
0000
0000
0000
0000
0000
0000
0000
0000
0000
0000
3010
0000
0000
0000
0000
0000
0000
0000
0000
0010
0000
0000
0100
0000
0000
0000
,  // measure 15
0000
0000
0010
0000
0000
0000
0000
0000
1010
0000
0000
0000
0000
0000
0000
0000
0000
1000
0000
0000
0000
0000
0000
0000
0000
0000
0001
0000
0000
0000
0000
0000
0101
0000
0000
0000
0000
0000
0000
0000
0000
0000
0000
0000
0100
0000
0000
0000
0000
0000
0010
0000
0000
0000
0000
0000
1010
0000
0000
0000
0000
0000
0000
0000
,  // measure 16
0000
1000
0000
0000
0004
0000
0000
0000
0000
0000
0000
0000
0000
0000
0000
0000
0013
0000
0000
0000
0000
0000
0000
0000
0000
0010
0000
0000
0100
0000
0000
0000
0000
0000
0010
0000
0000
0000
0000
0000
0011
0000
0000
0000
0000
0000
0000
0000
0000
0001
0000
0000
0000
0000
0000
0000
0000
0000
1000
0000
0000
0000
0000
0000
,  // measure 17
1100
0000
0000
0000
0000
0000
0000
0000
0000
0000
0000
0000
1000
0000
0000
0000
0000
0000
0001
0000
0000
0000
0000
0000
0101
0000
0000
0000
0000
0000
0000
0000
0000
0100
0000
0000
0040
0000
0000
0000
0000
0000
0000
0000
0030
0000
0000
0000
1010
0000
0000
0000
0000
0000
0000
0000
0000
0010
0000
0000
1000
0000
0000
0000
,  // measure 18
0000
0000
0001
0000
0000
0000
0000
0000
0011
0000
0000
0000
0000
0000
0000
0000
0000
0010
0000
0000
0000
0000
0000
0000
0000
0000
4000
0000
0000
0000
0000
0000
3010
0000
0000
0000
0000
0000
0000
0000
0000
0000
0000
0000
0001
0000
0000
0000
1000
0000
0000
0000
0000
0000
0000
0000
0010
0000
0000
0000
0000
0000
0000
0000
,  // measure 19
0100
0000
0000
0001
1000
0000
0100
0000
0010
0000
0010
0000
0001
0000
0001
0000
,  // measure 20
0101
0110
1010
0000
1001
0001
0100
0100
,  // measure 21
0001
0001
0100
1000
0100
0100
0001
0001
,  // measure 22
0010
0010
0100
0100
1000
1000
0100
0100
,  // measure 23
1000
1000
0100
0001
0100
0100
1000
1000
,  // measure 24
0010
0100
0010
0000
0100
0000
0100
0001
1000
0000
0100
0000
0010
0000
0100
0000
,  // measure 25
1000
0000
0100
0000
0010
0000
0001
1000
0001
0000
0100
0000
0010
0000
0100
0000
,  // measure 26
0001
0000
0100
0000
0010
0000
1000
0001
0010
0000
0100
0000
0010
0000
0001
0000
,  // measure 27
0010
0000
0100
0000
0010
0000
0001
1000
0010
0000
0100
0000
0010
0000
1000
0000
,  // measure 28
0010
0100
0001
0000
0001
0000
0001
1000
0100
0000
0010
0000
0002
0000
0003
0000
,  // measure 29
0101
0100
1000
0001
0010
1000
0100
1000
,  // measure 30
0010
1000
0100
0010
0001
0100
1000
0100
,  // measure 31
0001
0100
1000
0001
0010
1000
0100
1000
,  // measure 32
0010
0100
0001
0000
0010
0000
0100
1000
0100
0000
0100
0000
0001
0000
0100
0000
,  // measure 33
1000
0100
0001
1000
0010
0001
0100
0001
,  // measure 34
0010
0001
1000
0010
0100
0100
1000
0100
,  // measure 35
0001
0000
0000
0100
0000
0000
1000
0000
0000
0001
0000
0000
0010
0000
0000
0000
0010
0000
1000
0000
0000
0000
1000
0000
,  // measure 36
0100
0000
0000
0000
0000
0000
0000
0000
0100
0000
0000
0000
0001
0000
0000
0000
0000
0000
0000
0000
0001
0000
0000
0000
0400
0000
0000
0000
0000
0000
0000
0000
0000
0300
0000
0000
0110
0000
0000
0000
0000
0000
0000
0000
0000
0100
0000
0000
,  // measure 37
1000
0000
0010
0100
0000
0001
0000
2000
0100
0000
0000
0000
3010
0000
0000
0100
,  // measure 38
0001
0000
0010
0100
0000
1000
0000
0002
0100
0000
0000
0000
0013
0000
0000
0100
,  // measure 39
1000
0000
0010
0100
0000
0001
0000
2000
0100
0000
0000
0000
3010
0000
0000
0100
,  // measure 40
0001
0010
0000
0000
0110
0000
0000
0100
1000
0000
0000
0000
1010
0000
0000
1000
,  // measure 41
0001
0000
0010
0100
0000
1000
0000
0001
0100
0000
0000
0000
0110
0000
0000
0010
,  // measure 42
1000
0000
0100
0010
0000
0001
0000
1000
0100
0000
0000
0000
0101
0000
0000
0000
,  // measure 43
0011
0000
1010
0000
1001
0011
1001
1010
,  // measure 44
0400
0040
0000
0000
0000
0000
0000
0330
1002
0000
1003
0000
0002
0000
0013
0000
,  // measure 45
0002
0000
0000
0100
0000
0000
1000
0000
0203
0000
0310
0000
0200
0000
0301
0000
,  // measure 46
0200
0000
0000
0010
0000
0000
1300
0000
0200
0000
0310
0000
0200
0000
0301
0000
,  // measure 47
0200
0000
0000
1000
0000
0000
0010
0000
0302
0000
1003
0000
0002
0000
0013
0000
,  // measure 48
0001
0010
0000
0000
0110
0000
0000
0100
2000
0000
3001
0000
2000
0000
3010
0000
,  // measure 49
2000
0000
0000
0100
0000
0000
0001
0000
3200
0000
0310
0000
0200
0000
1300
0000
,  // measure 50
0200
0000
0000
0010
0000
0000
0301
0000
0100
0000
0000
1000
0001
0000
0100
0000
,  // measure 51
0010
0000
0000
1000
0001
0000
0010
0000
0100
0000
0100
0000
1000
0000
1000
0000
,  // measure 52
1010
0000
0000
0000
0101
0000
0000
0000
0011
0000
0000
0000
1100
0000
0000
0000
0110
0000
0000
0010
0000
0000
0001
0000
0000
2000
0000
0000
0100
0000
0000
3000
,  // measure 53
0000
0000
1000
0000
0000
0001
0000
0000
0100
0000
0000
1000
0000
0000
0100
0000
0000
0010
0000
0000
0100
0000
0000
0001
0000
0000
1000
0000
0000
0001
0000
0000
,  // measure 54
0100
0000
0000
0010
0000
0000
1000
0000
0000
0002
0000
0000
0100
0000
0000
0003
0000
0000
0001
0000
0000
0010
0000
0000
0100
0000
0000
0001
0000
0000
0100
0000
,  // measure 55
0000
0010
0000
0000
0100
0000
0000
1000
0000
0000
0001
0000
0000
1000
0000
0000
0010
0000
0000
0100
0000
0000
0002
0000
0000
0000
0000
0000
1000
0000
0000
0003
,  // measure 56
0000
0000
0001
0000
0000
0100
0000
0000
0010
0000
0000
1000
0000
0000
0001
0000
0000
0010
0000
0000
0100
0000
0000
0010
0000
0000
1000
0000
0000
0010
0000
0000
,  // measure 57
0001
0100
0010
1000
0100
0020
0002
0000
0000
0000
0000
0000
0000
0000
0000
0000
0033
0000
0000
0000
0000
0000
0000
0000
;

//---------------dance-single - Eighths!----------------
#NOTEDATA:;
#CHARTNAME:ITG 07 X 11;
#STEPSTYPE:dance-single;
#DESCRIPTION:Eighths!;
#CHARTSTYLE:Pad;
#DIFFICULTY:Medium;
#METER:7;
#RADARVALUES:0.490392,0.522129,0.511763,0.417283,0.287374,436.000000,371.000000,65.000000,53.000000,0.000000,0.000000,0.000000,0.000000,0.000000,0.490392,0.522129,0.511763,0.417283,0.287374,436.000000,371.000000,65.000000,53.000000,0.000000,0.000000,0.000000,0.000000,0.000000;
#CREDIT:CuzcoBlocko;
#DISPLAYBPM:65.000000:130.000000;
#NOTES:
// measure 0
0000
0000
0000
0000
,  // measure 1
0000
0000
0000
0000
,  // measure 2
1100
0011
1100
0011
,  // measure 3
0001
0100
0010
0100
1000
0100
0010
0100
,  // measure 4
0101
1010
0101
1001
,  // measure 5
1000
0100
0010
0100
0001
0100
0010
0000
,  // measure 6
0011
0101
1010
1100
,  // measure 7
1000
0010
0100
0010
0001
0010
0100
0010
,  // measure 8
1010
0000
0101
0000
0011
0000
1100
1000
,  // measure 9
0001
0010
0100
0010
1000
1000
0010
0010
,  // measure 10
0022
0000
0000
0000
,  // measure 11
0000
0000
0033
0000
,  // measure 12
0002
0000
0000
0000
0010
0000
0000
0000
0013
0000
0000
0100
0000
0000
1000
0000
0002
0000
0000
0000
0100
0000
0000
0000
0103
0000
0000
0010
0000
0000
1000
0000
,  // measure 13
2000
0000
0000
0000
0010
0000
0000
0000
3010
0000
0000
0100
0000
0000
0001
0000
2000
0000
0000
0000
0100
0000
0000
0000
3100
0000
0000
0010
0000
0000
0001
0000
,  // measure 14
1001
0000
0000
0000
0000
0000
0000
0000
0000
0000
0000
0000
1000
0000
0000
0000
0000
0000
0100
0000
0000
0000
0000
0000
0110
0000
0000
0000
0000
0000
0000
0000
0000
0000
0000
0000
0001
0000
0000
0000
0000
0000
1000
0000
0000
0000
0000
0000
1010
0000
0000
0000
0000
0000
0000
0000
0000
0010
0000
0000
0000
0000
0000
0000
,  // measure 15
0000
0100
0000
0000
0102
0000
0000
0000
0000
0000
0013
0000
0000
0000
0000
0000
0110
0000
0000
0000
0000
0000
0100
0000
0000
1000
0000
0000
1001
0000
0000
0000
,  // measure 16
0000
0000
0000
0000
0010
0000
0000
0000
0000
0000
0100
0000
0000
0000
0000
0000
1001
0000
0000
0000
0000
0000
0000
0000
0000
0001
0000
0000
0000
0000
0000
0000
0000
0000
0100
0000
0000
0000
0000
0000
0120
0000
0000
0000
0000
0000
0000
0000
0000
0000
0000
0000
1030
0000
0000
0000
0000
0000
0000
0000
0000
0000
0000
0000
,  // measure 17
1001
0000
0000
0000
0000
0000
0000
0000
0000
0000
0000
0000
0001
0000
0000
0000
0000
0000
0100
0000
0000
0000
0000
0000
0110
0000
0000
0000
0000
0000
0000
0000
0000
0000
0000
0000
1000
0000
0000
0000
0000
0000
0001
0000
0000
0000
0000
0000
0011
0000
0000
0000
0000
0000
0000
0000
0000
0010
0000
0000
0000
0000
0000
0000
,  // measure 18
0000
0100
0000
0000
2100
0000
0000
0000
0000
0000
3010
0000
0000
0000
0000
0000
0101
0000
0000
0000
0000
0000
0000
0000
0101
0000
0000
0000
0000
0000
0000
0000
,  // measure 19
1100
0000
1100
0000
0101
0001
1000
0001
,  // measure 20
0020
0000
0000
0000
0000
0000
0000
0000
0100
0000
0000
0000
0000
0000
0000
0000
0200
0330
0000
0000
0000
0000
0000
0000
0000
0000
0000
0000
0000
0000
0000
0000
1001
0000
0000
0000
0000
0000
0000
0000
0000
0000
0000
0000
0000
0000
0000
0000
0101
0000
0000
0000
0000
0000
0000
0000
0000
0000
0000
0000
0000
0000
0000
0000
,  // measure 21
1001
0000
1000
0100
0110
0000
0011
0000
,  // measure 22
1010
0000
0010
1000
1001
0000
1100
0000
,  // measure 23
1001
0000
0001
0100
0110
0000
1010
0000
,  // measure 24
0011
0000
0010
0001
1000
1000
0010
0010
,  // measure 25
1000
1000
0001
0010
0100
0100
1000
1000
,  // measure 26
0010
0010
0100
0001
1000
0001
0010
0010
,  // measure 27
0001
0001
1000
0010
0100
0100
0001
0001
,  // measure 28
1000
0100
0000
0000
0110
0000
0000
0010
0001
0000
0001
0000
1000
0000
0000
0000
,  // measure 29
0110
0000
0010
1000
0001
0010
0100
0010
,  // measure 30
1000
0010
0001
0000
1000
0100
1000
0001
,  // measure 31
1000
0100
0010
0001
1000
0010
0100
0010
,  // measure 32
0001
0010
0000
0000
1010
0000
0000
1000
0001
0000
0100
0000
0001
0000
1000
0000
,  // measure 33
0001
0100
0010
1000
0001
0010
0100
0010
,  // measure 34
1000
0010
0001
0000
1100
0100
1000
0001
,  // measure 35
1000
0000
0000
0100
0000
0000
0010
0000
0000
0001
0000
0000
1000
0000
0000
0000
0010
0000
1000
0000
0000
0000
0010
0000
,  // measure 36
0100
0000
0000
0000
0010
0000
0100
0000
0000
0000
0001
0000
0000
0000
0000
0000
0000
0000
0022
0000
0000
0033
0000
0000
,  // measure 37
2200
3300
2000
3001
0200
0310
0020
1030
,  // measure 38
2000
3001
0002
0013
0200
1300
2000
3001
,  // measure 39
0002
0103
0200
0310
2000
3001
0002
0013
,  // measure 40
0020
0100
0030
0000
2100
0000
3000
1000
0002
0000
0103
0000
0200
0000
0310
0000
,  // measure 41
0020
1030
2000
3001
0020
0130
0200
0301
,  // measure 42
0002
1003
2000
3010
0210
0300
1200
0300
,  // measure 43
0201
0300
0210
0300
1002
1000
1000
2003
,  // measure 44
0010
0010
0010
3010
0210
0000
1000
0000
,  // measure 45
0301
0000
0000
1000
0100
0000
0010
0000
0002
0000
0000
0000
0100
0000
0000
0000
,  // measure 46
1003
0000
0000
0010
0100
0000
0001
0000
0020
0000
0000
0000
1000
0000
0000
0000
,  // measure 47
0031
0000
0000
1000
0010
0000
0100
0000
0002
0000
0000
0000
0010
0000
0000
0000
,  // measure 48
1003
0001
0000
0000
0011
0000
0000
1000
0200
0000
0000
0000
0001
0000
0000
0000
,  // measure 49
1300
0000
0000
0001
0100
0000
0010
0000
2000
0000
0000
0000
0100
0000
0000
0000
,  // measure 50
3001
0000
0000
0010
0100
0000
1000
0000
1100
0000
0000
0000
1100
0000
0000
0000
,  // measure 51
0101
0000
0101
0000
1100
1000
0001
1000
,  // measure 52
0010
0000
0010
0000
0001
0000
0001
0000
0020
0000
0000
1000
0000
0000
0100
0000
,  // measure 53
0000
0000
1030
0000
0000
0001
0000
0000
0010
0000
0000
0100
0000
0000
1000
0000
0000
0001
0000
0000
0010
0000
0000
0100
0000
0000
1000
0000
0000
0001
0000
0000
,  // measure 54
0200
0000
0000
0000
0000
0000
0010
0000
0000
0000
0000
0000
0001
0000
0000
0000
0000
0000
0310
0000
0000
1000
0000
0000
0001
0000
0000
0010
0000
0000
0100
0000
,  // measure 55
0000
1000
0000
0000
0001
0000
0000
0010
0000
0000
1000
0000
0000
0010
0000
0000
0020
0000
0000
0000
0000
0000
0001
0000
0000
0000
0000
0000
0100
0000
0000
0000
,  // measure 56
0000
0000
0031
0000
0000
1000
0000
0000
0100
0000
0000
0010
0000
0000
0100
0000
0000
0010
0000
0000
0001
0000
0000
0100
0000
0000
1000
0000
0000
0100
0000
0000
,  // measure 57
0020
0000
0000
0100
0000
0000
0200
0000
0000
0000
0000
0000
0000
0000
0000
0000
0330
0000
0000
0000
0000
0000
0000
0000
;
