#VERSION:0.83;
#TITLE:AXION;
#SUBTITLE:;
#ARTIST:削除;
#TITLETRANSLIT:;
#SUBTITLETRANSLIT:;
#ARTISTTRANSLIT:Sakuzyo;
#GENRE:Chaos fantasia;
#ORIGIN:;
#CREDIT:;
#BANNER:[Round 2] - AXION.png;
#BACKGROUND:[Round 2] - AXION-bg.png;
#PREVIEWVID:;
#JACKET:[Round 2] - AXION-jacket.png;
#CDIMAGE:;
#DISCIMAGE:;
#LYRICSPATH:;
#CDTITLE:cdtitle.png;
#MUSIC:[Round 2] - AXION.ogg;
#OFFSET:-0.840000;
#SAMPLESTART:74.399002;
#SAMPLELENGTH:15.000000;
#SELECTABLE:YES;
#DISPLAYBPM:80.000000:160.000000;
#BPMS:0.000=80.000,
32.000=160.000,
129.000=80.000,
145.000=160.000,
186.000=320.000,
192.000=160.000,
209.000=80.000,
233.000=40.000;
#STOPS:32.000=1.125,
186.000=0.188,
187.000=0.141,
187.750=0.141,
188.500=0.141,
189.250=0.141,
190.000=0.141,
190.750=0.141,
191.500=0.094;
#DELAYS:;
#WARPS:;
#TIMESIGNATURES:0.000=4=4,
32.000=1=4,
33.000=4=4;
#TICKCOUNTS:0.000=4;
#COMBOS:0.000=1;
#SPEEDS:0.000=1.000=0.000=0;
#SCROLLS:0.000=1.000;
#FAKES:;
#LABELS:0.000=Song Start;
#BGCHANGES:-0.500=[Round 2] - AXION.avi=1.000=0=0=0=StretchNoLoop==CrossFade_Fastest==,
99999=-nosongbg-=1.000=0=0=0 // don't automatically add -songbackground-
;
#KEYSOUNDS:;
#ATTACKS:
;

//---------------dance-single - ----------------
#NOTEDATA:;
#CHARTNAME:;
#STEPSTYPE:dance-single;
#DESCRIPTION:;
#CHARTSTYLE:;
#DIFFICULTY:Beginner;
#METER:1;
#RADARVALUES:0.092250,0.168078,0.073566,0.138958,0.000000,79.000000,70.000000,9.000000,17.000000,0.000000,0.000000,0.000000,0.000000,0.000000,0.092250,0.168078,0.073566,0.138958,0.000000,79.000000,70.000000,9.000000,17.000000,0.000000,0.000000,0.000000,0.000000,0.000000;
#CREDIT:;
#DISPLAYBPM:80.000000:160.000000;
#NOTES:
0000
0000
0000
0000
,
0000
0000
0000
0000
,
0000
0000
0000
0000
,
0000
0000
0000
0000
,
1001
0000
0000
0000
,
1001
0000
0000
0000
,
1001
0000
0000
0000
,
1001
0000
0000
0000
,
1001
0000
0000
0000
,
0000
0010
0000
0000
,
0000
0001
0000
0000
,
0000
0010
0000
0000
,
0000
1000
0000
0000
,
0000
0100
0000
0000
,
0000
0001
0000
0000
,
0000
0100
0000
0000
,
0000
2000
0000
3000
,
0000
0020
0000
0030
,
0000
0200
0000
0300
,
0000
0002
0000
0003
,
0000
2000
0000
3000
,
0000
0200
0000
0300
,
0000
0020
0000
0030
,
0000
0002
0000
0003
,
0000
1000
0000
2000
,
0000
0000
0000
3000
,
0000
0002
0000
0000
,
0000
0003
0000
0001
,
0000
0100
0000
0000
,
0000
0010
0000
0000
,
0000
0010
0000
0000
,
0000
0100
0000
0000
,
0000
1001
0000
0001
,
0000
1000
0000
0001
,
0000
1001
0000
1000
,
0000
0001
0000
1000
,
0000
0001
0000
0001
,
0000
0100
0000
0100
,
0000
0010
0000
0010
,
0000
1000
0000
1000
,
0000
0002
0000
0003
,
0000
2000
0000
3000
,
0000
0002
0000
0003
,
0000
2000
0000
3000
,
0000
0001
0000
0001
,
0000
0010
0000
0010
,
0000
0100
0100
0000
,
0000
0000
0000
0000
,
0000
0000
0000
0000
,
0000
1000
0000
1000
,
0000
1000
0000
0000
,
0000
0001
0000
0000
,
0000
1001
0000
0000
,
0000
1000
0000
1000
,
0000
0001
0001
0000
,
0001
0000
1000
0000
,
1000
0000
0100
0000
,
0100
0200
0000
0300
,
0000
2002
0000
3003
;

//---------------dance-single - ----------------
#NOTEDATA:;
#CHARTNAME:;
#STEPSTYPE:dance-single;
#DESCRIPTION:;
#CHARTSTYLE:;
#DIFFICULTY:Easy;
#METER:5;
#RADARVALUES:0.270910,0.360167,0.155306,0.433222,0.000000,232.000000,213.000000,19.000000,53.000000,0.000000,0.000000,0.000000,0.000000,0.000000,0.270910,0.360167,0.155306,0.433222,0.000000,232.000000,213.000000,19.000000,53.000000,0.000000,0.000000,0.000000,0.000000,0.000000;
#CREDIT:;
#DISPLAYBPM:80.000000:160.000000;
#NOTES:
0000
0000
0000
0000
,
0000
0000
0000
0000
,
1001
0000
0000
0000
,
0000
0000
0000
0000
,
1002
1000
0100
0100
,
0010
0010
0100
0100
,
2003
0001
0100
0100
,
0010
0010
0100
0100
,
3001
1000
1000
0010
,
0010
0001
0001
0010
,
0010
1000
0010
0001
,
0010
1000
0100
0010
,
0001
0001
0001
0010
,
0010
1000
1000
0010
,
0010
0001
0010
1000
,
0010
0001
0100
0010
,
1000
0002
0100
0203
,
0010
0320
1000
2030
,
0001
3002
0010
0023
,
0100
0230
1000
1300
,
0100
2000
0100
3200
,
0010
0320
0001
0032
,
1000
2003
0010
3020
,
0100
0230
0001
0301
,
0100
0001
1000
0010
,
1000
0200
0010
0310
,
0001
0200
0010
0310
,
0100
1001
0010
1001
,
0100
1000
1010
0001
,
0011
1000
1100
0001
,
0101
1000
0010
0100
,
0001
0010
0100
1000
,
0001
2001
0010
3020
,
0100
0230
0001
0301
,
1000
0002
0010
0023
,
0100
0230
1000
1300
,
0001
1000
0010
0100
,
0101
0001
0010
0100
,
1100
1000
0010
0100
,
0101
0002
1000
2003
,
3001
2000
3001
0002
,
0103
0200
0310
0020
,
1030
2000
3200
0320
,
0031
0002
0203
0320
,
1030
0001
0010
0100
,
1100
1000
0010
0100
,
0101
0001
2002
0000
,
0000
0000
0000
0000
,
3003
2000
0010
0100
,
0010
3002
0010
0100
,
0010
2003
0010
3020
,
0100
0230
0302
0023
,
0130
2002
0000
3003
,
0000
2000
3020
0230
,
0302
1003
0010
0001
,
0100
1000
0100
0001
,
0010
1000
1010
0001
,
0101
0000
1000
0010
0100
0001
0100
0010
,
1000
2002
0000
3003
;

//---------------dance-single - ----------------
#NOTEDATA:;
#CHARTNAME:;
#STEPSTYPE:dance-single;
#DESCRIPTION:;
#CHARTSTYLE:;
#DIFFICULTY:Medium;
#METER:7;
#RADARVALUES:0.392352,0.480223,0.081740,0.335134,0.216611,336.000000,326.000000,10.000000,41.000000,0.000000,0.000000,0.000000,0.000000,0.000000,0.392352,0.480223,0.081740,0.335134,0.216611,336.000000,326.000000,10.000000,41.000000,0.000000,0.000000,0.000000,0.000000,0.000000;
#CREDIT:;
#DISPLAYBPM:80.000000:160.000000;
#NOTES:
0000
0000
0000
0000
,
0000
0000
0000
0000
,
1000
0000
0010
0100
0000
0010
0000
1000
0000
0100
0000
0010
0000
0001
0000
1000
,
0001
0000
0010
0100
0000
0010
0000
0001
0000
0100
0000
0010
0000
1000
0000
0001
,
1000
0000
0010
0100
0000
0010
0000
0001
0000
0010
0000
0100
0000
0001
0000
1000
,
0001
0000
0010
0100
0000
0010
0000
1000
0000
0010
0000
0100
0000
1000
0000
0001
,
1000
0000
0100
0010
0000
0100
0000
0001
0000
0100
0000
0010
0000
0001
0000
1000
,
0001
0000
0100
0010
0000
0100
0000
1000
0000
0100
0000
0010
1000
0000
0001
0000
,
1001
0000
1000
0000
0010
0000
0100
0001
,
0010
0000
0100
0000
1000
0000
0010
1000
,
0100
0000
1000
0000
0001
0000
0100
0010
,
1000
0000
0001
0000
0100
0000
0010
1000
,
0100
1000
0001
0000
0010
0000
0100
1000
,
0010
0000
0100
0000
0001
0000
0010
0001
,
0100
0000
0001
0000
1000
0000
0100
0010
,
0001
0000
1000
0000
0100
0000
0010
0001
,
0100
0001
2000
0000
0010
0000
3020
0000
,
0001
0032
0100
0203
,
1000
0000
2300
0000
3010
0100
0002
0000
,
0103
0010
2000
0000
3100
0010
0002
0000
,
1003
0002
0010
0023
,
1000
2030
0100
3200
,
0001
0000
0302
0000
0013
0100
2000
0000
,
3100
0010
0002
0000
0103
0010
2000
0000
,
3001
0000
0000
0000
1000
0000
0000
1000
0000
0000
1000
0000
0001
0000
0100
0000
,
0010
2000
0100
0001
,
0010
3002
0010
1000
,
0100
0000
0000
0000
1003
0000
0000
1000
0000
0000
1000
0000
0001
0000
0000
0001
,
0000
0000
0001
0000
1000
0000
0010
0000
0100
0000
0000
0001
0000
0000
1000
0000
,
0010
0000
0000
0000
1000
0000
0100
0000
0010
0000
0000
0001
0000
0000
1000
0000
,
0100
2000
3020
0230
,
0302
0000
1003
0010
0100
0001
0100
0010
,
2000
0000
3001
0100
0010
1000
0001
0010
,
0100
1000
0000
0001
0100
0010
1000
0100
,
0010
0001
1000
0100
0010
0001
1000
0010
,
0100
0001
0000
1000
0100
0010
0001
0100
,
0010
0000
1000
0000
0001
0000
0000
0100
0000
0000
0010
0000
2000
0000
0000
0000
,
3001
0000
0000
0000
1000
0000
0000
0100
0000
0000
0010
0000
0002
0000
0000
0000
,
1003
0000
0000
0000
0001
0000
0000
1000
0000
0000
0100
0000
0020
0000
0000
0000
,
0130
2000
0010
3010
,
1000
0000
0001
0001
0001
0000
1000
1000
,
1000
0000
0010
0010
0010
0000
0100
0100
,
0100
0000
0001
1000
0001
1000
0001
1000
,
0001
0000
0010
0100
0010
0100
0010
0100
,
0010
0000
0100
0000
1000
0000
0000
0100
0000
0000
0010
0000
0002
0000
0000
0000
,
1003
0000
0000
0000
0001
0000
0000
0100
0000
0000
0010
0000
2000
0000
0000
0000
,
3001
0000
0000
0000
1000
0000
0000
0000
1001
0000
0000
0000
0001
0000
0000
0100
,
0000
0000
0010
0000
0000
1000
0000
0000
0100
0000
0000
0010
0000
0000
0001
0000
,
2000
3002
0100
0010
,
1000
2003
0010
0100
,
3001
0000
1000
0100
1000
0100
0010
0001
,
0010
0001
1000
0010
0100
0001
2000
0000
,
3001
2002
0000
3003
,
1000
0010
0200
0000
0302
0000
2003
0000
,
3020
0130
1001
0010
,
1001
0100
1001
0010
,
1001
0000
1000
0010
1010
0000
0001
0100
,
0101
0000
1000
0010
0100
0001
0010
0100
,
1000
0001
2002
0000
0000
0000
3003
0000
;

//---------------dance-single - ----------------
#NOTEDATA:;
#CHARTNAME:;
#STEPSTYPE:dance-single;
#DESCRIPTION:;
#CHARTSTYLE:;
#DIFFICULTY:Hard;
#METER:9;
#RADARVALUES:0.540652,0.744346,0.122610,0.449570,0.470005,463.000000,448.000000,15.000000,55.000000,0.000000,0.000000,0.000000,0.000000,0.000000,0.540652,0.744346,0.122610,0.449570,0.470005,463.000000,448.000000,15.000000,55.000000,0.000000,0.000000,0.000000,0.000000,0.000000;
#CREDIT:;
#DISPLAYBPM:80.000000:160.000000;
#NOTES:
0000
0000
0000
0000
,
0000
0000
0000
0000
,
1000
0010
0100
0010
0000
0100
0001
1000
0000
0010
0000
0100
0000
0001
0000
1000
,
0001
0010
0100
0010
0000
0100
1000
0001
0000
0010
0000
0100
0000
1000
0000
0001
,
1000
0010
0100
0001
0000
1000
0100
0001
0000
0100
0000
1000
0000
0010
0000
0100
,
0001
0010
0100
1000
0000
0001
0100
1000
0000
0100
0000
0001
0000
0010
0000
0100
,
1000
0100
0010
0001
0000
1000
0010
0001
0000
0010
0000
1000
0000
0100
0000
0010
,
0001
0100
0010
1000
0000
0001
0010
1000
0000
0010
0000
0001
1000
0000
0001
0000
,
2002
3003
0000
0000
0000
0000
0000
0000
0000
0000
0000
0000
0000
0000
0000
0000
1000
0000
0000
0000
0000
0000
0000
0000
0010
0000
0000
0000
0000
0000
0000
0000
0100
0000
0000
0000
0000
0000
0000
0000
0000
0000
0000
0000
0001
0000
0000
0000
0000
0000
0000
0000
0000
0000
0000
0000
1000
0000
0000
0000
0000
0000
0000
0000
,
0010
0000
0000
0000
1000
0000
0100
0000
0010
0000
0000
0001
0000
0000
1000
0000
,
0010
0000
0100
0000
0001
0000
0010
0000
0100
0000
0000
1000
0000
0000
0001
0000
,
0010
0000
0000
0000
0001
0000
0100
0000
0010
0000
0000
1000
0000
0000
0001
0000
,
0010
0000
0100
0000
1000
0000
0010
0000
0001
0000
0000
0010
0000
0000
1000
0000
,
0100
0000
0000
0000
0010
0000
0001
0000
0100
0000
0000
1000
0000
0000
0100
0000
,
0001
0000
1000
0000
0001
0000
0010
0000
1000
0000
0000
0010
0000
0000
0001
0000
,
0100
0000
0000
0000
0010
0000
1000
0000
0100
0000
0000
0001
0000
0000
0100
0000
,
1000
0001
2000
0000
3010
0001
0200
0000
,
0301
0010
2000
0000
3100
0010
0002
0000
,
0103
0010
2000
0000
3100
0001
0200
0000
,
1300
0001
0020
0000
0031
0100
1000
0100
,
0001
1000
0002
0000
0013
1000
0200
0000
,
1300
0010
0002
0000
0103
0010
2000
0000
,
3100
0010
0002
0000
0103
1000
0200
0000
,
0301
1000
0020
0000
1030
0100
0001
0100
,
1000
0000
0001
0000
1000
0000
0000
0010
0000
0000
0100
0000
0001
0000
0010
0000
,
1000
0010
0002
0000
1000
0000
0103
0001
,
0010
0100
2000
0000
0001
0000
3010
1000
,
0100
0000
0010
0000
0001
0100
0000
0001
0000
0000
0100
0000
0010
1000
0000
0010
,
0000
0000
1000
0000
0001
0000
0100
0000
0010
0100
0000
0001
0000
0000
0010
0000
,
0100
0000
0000
0000
1000
0000
0100
0000
0010
0100
0000
1000
0000
0000
0010
0000
,
0100
0000
0001
0010
0100
1000
0001
0100
,
0010
1000
0001
0010
1000
0010
0001
0100
,
0010
1000
0002
0203
0320
1030
2000
3200
,
0320
0031
0002
0203
2300
3200
0302
2003
,
3010
1000
0100
0000
2000
0000
3200
0000
0320
0000
0031
0000
0002
0000
0203
0000
,
0320
1030
2000
3200
0302
0203
2300
3002
,
0013
0001
0100
0000
0001
0000
0000
1000
0000
0000
0100
0000
0010
0000
0001
0000
,
1000
0000
0010
0000
0100
0000
0000
0001
0000
0000
1000
0000
0100
0000
0010
0000
,
0001
0000
0100
0000
0010
0000
0000
1000
0000
0000
0100
0000
0010
0000
0001
0000
,
1000
0010
0200
0000
0301
1000
0020
0000
,
0130
0000
0001
0000
1000
0100
1000
0100
1000
0000
0000
0000
0100
0010
0100
0010
,
0100
0000
0000
0000
0010
0001
0010
0001
0010
0000
0000
0000
0001
1000
0001
1000
,
0001
0000
0000
0000
1000
0001
1000
0001
1000
0001
1000
0001
1000
0001
1000
0001
,
1000
0000
0000
0000
0001
1000
0001
1000
0001
1000
0001
1000
0001
1000
0001
1000
,
0001
0000
0000
0000
1000
0000
0000
0001
0000
0000
0100
0000
0010
0000
1000
0000
,
0001
0000
0010
0000
0100
0000
0000
1000
0000
0000
0001
0000
0100
0000
0010
0000
,
1000
0000
0001
0000
0100
0000
0000
0000
1001
0000
0000
0000
1010
0000
0000
0110
,
0000
0000
0101
0000
0000
1001
0000
0000
1100
0000
0000
0110
0000
0000
0010
0000
,
0001
0000
0100
0000
0010
0000
2000
0000
0000
0000
0000
0000
0100
0000
0000
0000
0000
0000
3001
0000
0000
1000
0000
0000
,
0100
0010
0002
0000
0100
0000
1003
0001
,
0100
0010
1000
0100
0001
0100
1000
0010
,
0001
0000
0010
0000
1000
0000
0100
0000
0010
0000
0001
0000
1000
0001
1000
0001
,
1000
0001
1000
0002
2000
0000
0000
0000
0000
0000
0000
0000
3003
0000
0000
1000
,
0100
0010
0001
0100
0020
0000
0000
0000
2030
0000
0000
0000
3200
0000
0000
0000
,
0310
0001
0100
0010
1000
0000
0100
0000
1100
0000
1000
0000
0001
0000
0100
0000
,
0101
0001
1000
0010
1010
1000
0001
0010
,
0011
0000
0001
0000
2000
0000
3010
0000
1001
0000
0001
1000
0002
0000
0103
0000
,
1001
0000
1000
0001
1000
0100
0010
0001
0010
0100
1000
0010
0100
0001
1000
0010
,
0100
0010
0100
0010
0100
0000
0000
0000
2002
0000
0000
0000
0000
0000
0000
0000
0000
0000
0000
0000
0000
0000
0000
0000
3003
0000
0000
0000
0000
0000
0000
0000
;

//---------------dance-single - ----------------
#NOTEDATA:;
#CHARTNAME:;
#STEPSTYPE:dance-single;
#DESCRIPTION:;
#CHARTSTYLE:;
#DIFFICULTY:Challenge;
#METER:10;
#RADARVALUES:0.638740,0.840390,0.130784,0.539485,0.686617,547.000000,531.000000,16.000000,66.000000,0.000000,0.000000,0.000000,0.000000,0.000000,0.638740,0.840390,0.130784,0.539485,0.686617,547.000000,531.000000,16.000000,66.000000,0.000000,0.000000,0.000000,0.000000,0.000000;
#CREDIT:;
#DISPLAYBPM:80.000000:160.000000;
#NOTES:
// measure 0
0000
0000
0000
0000
,  // measure 1
0000
0000
0000
0000
,  // measure 2
1000
0001
0100
0010
0000
0100
0001
0010
0000
0100
1000
0010
0000
0100
0010
1000
,  // measure 3
0001
1000
0100
0010
0000
0100
1000
0010
0000
0100
0001
0010
0000
0100
0010
0001
,  // measure 4
1000
0100
0001
0100
0000
1000
0010
0001
0000
0010
1000
0100
0000
0010
0001
0100
,  // measure 5
0010
1000
0100
0001
0000
0100
1000
0010
0000
0100
0001
0010
0100
1000
0100
0010
,  // measure 6
0001
0100
1000
0100
0000
0001
0010
1000
0000
0010
0001
0100
0000
0010
1000
0100
,  // measure 7
0010
0001
0100
1000
0000
0100
0001
0010
0000
0100
1000
0010
0100
0001
1000
0000
,  // measure 8
2002
3003
0000
0000
0000
0000
0000
0000
0000
0000
0000
0000
0000
0000
0000
0000
0001
0000
0000
0000
0000
0000
0000
0000
0010
0000
0000
0000
0000
0000
0000
0000
0100
0000
0000
0000
0000
0000
0000
0000
1000
0000
0000
0000
0010
0000
0000
0000
0000
0000
0000
0000
1000
0000
0000
0000
0100
0000
0000
0000
0000
0000
0000
0000
,  // measure 9
0010
0000
0000
0000
0001
0000
0100
0000
0010
0000
1000
0100
0000
1000
0010
0000
,  // measure 10
0100
0000
0001
0000
1000
0000
0010
0000
0100
0000
0001
0010
0000
0001
0100
0000
,  // measure 11
0010
0000
0000
0000
1000
0000
0100
0000
0010
0000
0001
0100
0000
0001
0010
0000
,  // measure 12
0100
0000
1000
0000
0001
0000
0100
0000
1000
0000
0100
0010
0000
0100
0001
0000
,  // measure 13
1000
0000
0000
0000
0001
0000
0010
0000
1000
0000
0010
0100
0000
0010
0001
0000
,  // measure 14
0100
0000
0010
0000
1000
0000
0100
0000
0001
0000
0100
0010
0000
0100
1000
0000
,  // measure 15
0001
0000
0000
0000
1000
0000
0010
0000
0001
0000
0010
0100
0000
0010
1000
0000
,  // measure 16
0100
0010
0002
0000
0100
1000
0023
0000
,  // measure 17
0001
0100
2030
0000
0010
0001
3020
0000
,  // measure 18
1000
0100
0032
0000
0010
1000
0203
0000
,  // measure 19
0001
0000
0010
0000
1300
0000
0100
0000
0001
0000
0010
0100
0010
0000
0001
0000
,  // measure 20
0100
0010
2000
0000
0100
0001
3020
0000
,  // measure 21
1000
0100
0032
0000
0010
1000
0023
0000
,  // measure 22
0001
0100
2030
0000
0010
0001
3200
0000
,  // measure 23
1000
0000
0010
0000
0301
0000
0100
0000
1000
0000
0010
0100
0010
0000
1000
0000
,  // measure 24
0100
0000
0010
0000
0002
0000
0000
2003
0000
0000
3010
0000
1000
0000
0001
0000
,  // measure 25
0100
0000
0010
1000
0200
0000
0000
0000
0010
0000
0000
0000
0301
0000
0100
0000
,  // measure 26
1000
0001
0020
0000
0100
0000
0031
0010
,  // measure 27
1000
0000
0010
0000
0001
1000
0000
0020
0000
0000
1030
0000
0001
1000
0000
0200
,  // measure 28
0000
0000
1300
0000
0001
0000
0100
0000
0010
1000
0000
0001
0000
0000
0010
0000
,  // measure 29
0100
1000
0000
0001
1000
0000
0100
0000
0010
0001
0000
1000
0000
0000
0010
0000
,  // measure 30
0100
0001
0000
1000
0001
0000
0100
0000
1000
0000
0100
0000
0001
0000
1000
0000
,  // measure 31
0010
0001
0010
1000
0100
0010
0001
0100
,  // measure 32
0010
1000
0010
1000
0002
0000
0023
0000
2030
0000
3001
0000
2000
0000
3200
0000
,  // measure 33
0302
1003
0002
0203
0320
2030
3002
0023
,  // measure 34
0130
0010
0100
0010
0100
0010
0100
0000
2000
0000
0000
0000
3020
0000
0000
0000
0032
0000
0000
0000
1003
0000
0000
0000
0002
0000
0000
0000
0203
0000
0000
0000
,  // measure 35
2300
3001
2000
3200
0320
0032
2003
3020
,  // measure 36
0130
0010
0100
0010
0100
0010
0100
0000
0001
0000
0000
0000
1000
0000
0001
0000
0000
0000
1000
0000
0010
0000
0000
0000
0200
0000
0000
0000
0000
0000
0000
0000
,  // measure 37
0301
0000
0100
0000
0010
0000
1000
0010
0000
1000
0002
0000
0000
0000
0103
0000
,  // measure 38
0001
0000
0010
0000
0100
0000
1000
0100
0000
1000
0001
0000
0020
0000
0000
0000
,  // measure 39
0130
1000
0002
0000
0103
0010
2000
0000
,  // measure 40
3010
0000
0100
0000
0001
0010
0001
0010
0001
0010
0001
0000
0010
0100
0010
0100
,  // measure 41
0010
0100
0010
0000
0100
1000
0100
1000
0100
1000
0100
0000
1000
0001
1000
0001
,  // measure 42
1000
0001
1000
0000
0001
0100
0001
0100
0001
0100
0010
0100
0010
0100
0010
0100
,  // measure 43
0010
0100
0010
0000
1000
0100
1000
0100
1000
0100
0010
0100
0010
0100
0010
0100
,  // measure 44
0010
0000
0001
0000
1000
0000
0001
1000
0000
0001
0010
0000
0200
0000
0000
0000
,  // measure 45
1300
0000
0100
0000
0010
0000
0001
0010
0000
0001
2000
0000
0000
0000
3100
0000
,  // measure 46
1000
0000
0010
0000
0100
0000
0000
0000
0110
0000
0000
0000
1001
0000
0000
1010
,  // measure 47
0000
0000
0101
0000
0000
0011
0000
0000
1100
0000
0000
0110
0000
0000
1001
0000
,  // measure 48
1000
0000
0010
0000
0100
0000
0002
0000
0000
0000
0000
0000
0100
0000
0000
1000
0000
0000
0013
0000
0000
0001
0000
0000
,  // measure 49
0100
0010
2000
0000
0100
0001
3010
1000
,  // measure 50
0100
0010
0001
0100
1000
0100
0001
1000
,  // measure 51
0010
0000
0001
0000
0010
0000
1000
0000
0001
0000
1000
0000
0010
0100
0010
0100
,  // measure 52
0010
0000
1000
0000
0001
0000
2000
0000
0002
0000
0000
0000
0000
0000
0000
0000
0000
0000
0000
0000
0000
0000
0000
0000
3003
0000
0000
0000
0000
0000
1000
0001
,  // measure 53
1000
0010
0100
0001
2000
0000
0000
3100
0020
0000
0000
0031
0200
0000
0000
0310
,  // measure 54
1000
0100
1000
0100
1000
0100
1000
0000
0002
0000
0000
0000
0103
0000
0000
0000
1010
0000
0000
0000
1000
0001
1000
0001
2000
0000
0000
0000
3100
0000
0000
0000
,  // measure 55
0011
0000
0001
1000
0020
0000
0130
0000
1001
0000
1000
0001
0020
0000
0130
0000
,  // measure 56
1001
0000
0000
0000
1001
0000
0000
0000
2000
0000
0000
0000
3010
0000
0000
0000
1001
0000
0000
0000
1000
0100
1000
0000
0002
0000
0000
0000
0013
0000
0000
0000
,  // measure 57
1001
0000
0000
0000
0001
0100
0001
0000
1000
0000
0100
0000
0001
0000
0100
0000
1000
0000
0001
0000
0010
0000
1000
0000
0010
0000
0001
0000
1000
0000
0010
0000
,  // measure 58
0100
0010
0100
0010
0100
0010
0100
0020
0200
0000
0000
0000
0000
0000
0000
0000
0000
0000
0000
0000
0000
0000
0000
0000
0330
0000
0000
0000
0000
0000
0000
0000
;
