#VERSION:0.83;
#TITLE:『82.99 AM』;
#SUBTITLE:;
#ARTIST:MACROSS 82.99;
#TITLETRANSLIT:[82.99 AM];
#SUBTITLETRANSLIT:;
#ARTISTTRANSLIT:;
#GENRE:;
#ORIGIN:;
#CREDIT:;
#BANNER:8299am_bn.png;
#BACKGROUND:8299am_bg.png;
#PREVIEWVID:;
#JACKET:8299am_jacket.png;
#CDIMAGE:;
#DISCIMAGE:;
#LYRICSPATH:;
#CDTITLE:cdtitle.png;
#MUSIC:8299am.ogg;
#OFFSET:0.488000;
#SAMPLESTART:17.072975;
#SAMPLELENGTH:15.609756;
#SELECTABLE:YES;
#BPMS:0.000=123.000;
#STOPS:;
#DELAYS:;
#WARPS:;
#TIMESIGNATURES:0.000=4=4;
#TICKCOUNTS:0.000=4;
#COMBOS:0.000=1;
#SPEEDS:0.000=1.000=0.000=0;
#SCROLLS:0.000=1.000;
#FAKES:;
#LABELS:0.000=Song Start;
#BGCHANGES:;
#KEYSOUNDS:;
#ATTACKS:
;

//---------------dance-single - ----------------
#NOTEDATA:;
#CHARTNAME:;
#STEPSTYPE:dance-single;
#DESCRIPTION:;
#CHARTSTYLE:;
#DIFFICULTY:Easy;
#METER:3;
#RADARVALUES:0.247192,0.325157,0.123010,0.147612,0.016401,211.000000,196.000000,15.000000,18.000000,0.000000,0.000000,0.000000,0.000000,0.000000,0.247192,0.325157,0.123010,0.147612,0.016401,211.000000,196.000000,15.000000,18.000000,0.000000,0.000000,0.000000,0.000000,0.000000;
#CREDIT:DigitalBasic;
#NOTES:
0000
0000
0000
0000
,
2000
3000
0002
0003
,
2000
3000
0002
0003
,
2000
0000
0000
0000
,
3000
0000
0000
0000
,
1002
0003
2000
3000
,
0002
0003
2000
3000
,
0002
0000
0000
0000
,
1003
0000
0000
0000
,
1000
0010
0001
0010
,
1000
0010
0001
0010
,
1000
0100
0001
0100
,
1000
0100
0001
0100
,
1000
0010
0001
1000
,
0100
0001
0010
1000
,
0001
0100
1000
0001
,
0010
0000
0000
0000
0000
0000
0000
0000
0100
0000
0000
0000
0000
0000
0000
0000
1000
0000
0000
0000
0000
0000
0000
0000
0000
1001
0000
0000
0000
0000
0000
0000
,
0000
0000
0000
0000
,
0000
0000
0000
0000
,
0102
0103
0001
0010
,
1000
0100
0001
1000
,
2100
3100
1000
0010
,
0001
0100
1000
0001
,
0012
0013
0001
0100
,
1000
0010
0001
1000
,
1010
1000
1001
1000
,
1100
0000
0100
1000
,
0001
1000
0010
0100
,
0001
0010
0001
0000
,
0011
0001
1001
0001
,
0101
0000
0100
0010
,
1000
0001
0010
0100
,
0010
0000
0000
0100
0000
0010
0000
0100
0000
0000
0000
0000
0000
0000
0000
0000
,
1000
1000
0001
0001
,
1000
1000
0001
0001
,
0100
0010
0001
0100
,
0010
0001
0100
0010
,
1000
1000
0001
0001
,
1000
0000
1000
0000
0001
0000
0100
0020
,
0000
0100
0100
0130
,
0110
1001
0110
1001
,
1000
0100
0001
0100
,
1000
1000
0001
0001
,
0010
1000
0100
0010
,
1000
1000
0001
0001
,
0001
0100
1000
0100
,
0001
0001
1000
1000
,
0100
0001
0010
0100
,
0001
0010
0001
1000
,
0001
0010
1000
0010
,
0001
0001
1000
1000
,
0100
0001
0010
0100
,
0001
0001
1000
1000
,
1000
0010
0001
0010
,
1000
1000
0001
0001
,
0010
1000
0100
0010
,
1000
0100
1000
0001
,
2000
0000
0000
0000
,
0002
0000
0000
3000
,
0200
0000
0000
0003
,
0020
0000
0000
0300
,
0030
0000
0000
0000
;

//---------------dance-single - ----------------
#NOTEDATA:;
#CHARTNAME:;
#STEPSTYPE:dance-single;
#DESCRIPTION:;
#CHARTSTYLE:;
#DIFFICULTY:Hard;
#METER:8;
#RADARVALUES:0.460410,0.446527,0.196816,0.254221,0.344429,393.000000,369.000000,24.000000,31.000000,0.000000,0.000000,0.000000,0.000000,0.000000,0.460410,0.446527,0.196816,0.254221,0.344429,393.000000,369.000000,24.000000,31.000000,0.000000,0.000000,0.000000,0.000000,0.000000;
#CREDIT:;
#NOTES:
// measure 0
0000
0000
0000
0000
,  // measure 1
2000
0010
3002
0010
,  // measure 2
2003
0000
0000
0000
0010
0000
0000
0000
3002
0000
0000
0000
0013
0000
0000
0001
,  // measure 3
1000
0000
0000
1000
0001
0000
0000
0000
0100
0000
0010
0000
0001
0000
0010
0000
,  // measure 4
0100
1000
0100
0010
0001
0010
1000
0000
,  // measure 5
1002
0100
2003
0100
,  // measure 6
3002
0000
0000
0000
0100
0000
0000
0000
2003
0000
0000
0000
3100
0000
0000
1000
,  // measure 7
0100
0000
0000
0010
0001
0000
0000
0000
0010
0000
1000
0000
0001
0000
0100
0000
,  // measure 8
0101
0000
0000
0000
0000
0000
0000
0000
0000
0100
0000
0000
1000
0000
0000
0000
0000
0000
0100
0000
0000
0000
0000
0000
0010
0000
0000
0000
0100
0000
0000
0000
0000
0000
0000
0000
1000
0000
0000
0000
0000
0000
0001
0000
0000
0000
0000
0000
,  // measure 9
1000
0000
0000
0010
0000
0000
1000
0000
0000
0001
0000
0100
0000
0000
0000
0010
0000
0000
0100
0000
0000
0000
0000
0000
,  // measure 10
0001
0000
0000
0000
0000
0000
0010
0000
0000
0010
0000
0000
0001
0000
1000
0000
0000
0010
0000
0000
0001
0000
0000
0020
,  // measure 11
0000
0000
0000
0000
0000
0000
0100
0000
0000
0000
0000
0000
1030
0000
0000
0010
0000
0000
1000
0000
0000
0001
0000
1000
,  // measure 12
0000
0000
0000
0000
0001
0000
0000
0000
0100
0010
0000
0000
0100
0000
0000
0000
,  // measure 13
0001
0000
0000
0010
0000
0000
0001
0000
0000
1000
0000
0001
0000
0000
0000
0100
0000
0000
0010
0000
0000
0000
0000
0000
,  // measure 14
1000
0000
0000
0000
0000
0000
0010
0000
0000
0010
0000
0000
1000
0000
0001
0000
0000
0100
0000
0000
1000
0000
0000
0200
,  // measure 15
0000
0000
0000
0000
0000
0000
0010
0000
0000
0000
0000
0000
0301
0000
0000
0100
0000
0000
0001
0000
0000
0010
0000
0100
,  // measure 16
0000
0000
0000
0000
0000
0000
0000
0000
0000
0000
0000
0000
0000
0000
0000
0000
0000
0000
0000
0000
0000
0000
0000
0000
0000
0000
0000
0000
0000
0000
0000
0000
0000
0000
0000
0000
0000
0000
0000
0000
0000
0000
0000
0000
0000
0000
0000
0000
0100
0000
0000
0000
0000
0000
0000
0000
0000
0000
0000
0000
0000
0000
0000
0000
0000
0000
0000
0000
0000
0000
0000
0000
0000
0000
0000
0000
0000
0000
0000
0000
0000
0000
0000
0000
0000
0000
0000
0000
0000
0000
0000
0000
0000
0000
0000
0000
1000
0000
0000
0000
0000
0000
0000
0000
0000
0000
0000
0000
0000
0000
0000
0000
0001
0000
0000
0000
0000
0000
0000
0000
0000
0000
0000
0000
0000
0000
0000
0000
0000
0000
0000
0000
0000
0000
0000
0000
0000
0000
0000
0000
0000
0000
0000
0000
0000
0000
0000
0000
0000
0000
1001
0000
0000
0000
0000
0000
0000
0000
0000
0000
0000
0000
0000
0000
0000
0000
0000
0000
0000
0000
0000
0000
0000
0000
0000
0000
0000
0000
0000
0000
0000
0000
0000
0000
0000
0000
0000
0000
0000
0000
0000
0000
,  // measure 17
0002
0000
0203
0000
2300
3200
0302
0023
,  // measure 18
0230
0000
2300
3200
0000
0320
0200
0330
,  // measure 19
0110
0000
1001
0000
0001
0100
1000
0010
,  // measure 20
0001
0000
0001
1000
0000
0001
0100
0010
,  // measure 21
0110
0000
1001
0000
1000
0100
0001
0010
,  // measure 22
1000
0000
0100
1000
0000
0001
0100
0010
,  // measure 23
0110
0000
1001
0000
0001
0010
0100
0001
,  // measure 24
0010
1000
0001
2000
0000
0000
3001
0000
,  // measure 25
1000
0000
0000
1000
0010
0000
0000
0010
0100
0000
0000
0100
0001
0000
0000
0000
,  // measure 26
1000
0000
0010
0100
0000
0001
0000
0010
0000
0000
0000
0000
0100
0000
1000
0001
,  // measure 27
0000
0001
1000
0000
0000
0000
0000
0000
0010
0000
0100
1000
0000
0100
0000
0010
,  // measure 28
0000
0000
1000
0001
0000
0001
0000
1000
0000
0000
0000
0000
0110
0000
0000
0000
,  // measure 29
0001
0000
0000
0001
0010
0000
0000
0010
0100
0000
0000
0100
1000
0000
0000
0000
,  // measure 30
0001
0000
0100
0010
0000
1000
0000
0100
0000
0000
0000
0000
0010
0000
0001
1000
,  // measure 31
0000
1000
0001
0000
0000
0000
0001
1000
0000
0010
0000
0100
0000
0000
0000
0000
,  // measure 32
0010
0000
0100
0001
0000
1000
0000
0001
0000
0000
0000
0001
0010
0000
0000
0000
,  // measure 33
0002
0000
0103
0010
0001
0010
0100
0020
,  // measure 34
0100
0000
0130
1000
0100
0010
0001
0010
,  // measure 35
1000
0100
0001
1000
0010
0001
0100
1000
,  // measure 36
0001
0000
0010
0000
1000
0000
0001
0000
1000
0000
0100
0000
1000
0000
1000
0001
,  // measure 37
2000
0000
3100
0001
0100
0010
0100
0020
,  // measure 38
0100
0000
0130
0001
0100
1000
0010
0200
,  // measure 39
0010
0000
0000
0000
1000
0000
0000
0000
0001
0000
0000
0000
0310
0000
0100
0010
,  // measure 40
0100
1001
0110
1001
,  // measure 41
1000
0000
0100
0000
0100
0000
0001
0000
1000
0000
0000
0001
0000
0000
0000
0000
,  // measure 42
1000
0000
0010
0100
0000
0000
0001
0000
0010
0000
1000
0000
0001
0000
0100
0010
,  // measure 43
0000
0000
0100
1000
0000
0000
0000
0000
0002
0000
0000
0000
1003
0000
0000
0000
,  // measure 44
1000
0000
0000
1000
0000
0000
0001
0000
0000
0000
0001
1000
0000
0010
0100
0000
,  // measure 45
0001
0000
0100
0000
0100
0000
1000
0000
0001
0000
0000
1000
0000
0000
0000
0000
,  // measure 46
0101
0000
0000
1001
0000
0000
1000
0100
0000
0000
0010
0000
0001
0000
0010
0000
,  // measure 47
0100
0010
0000
0000
0001
0000
1000
0000
0010
0000
0100
0000
0000
0010
0000
0000
,  // measure 48
1010
0000
0000
0110
0000
0000
0101
0000
0000
0000
0000
0000
0110
0000
0010
1000
,  // measure 49
0001
0000
0010
0000
0010
0000
1000
0000
0001
0000
0000
1000
0000
0000
0000
0000
,  // measure 50
0001
0000
0100
0010
0000
1000
0001
0000
0100
0000
0001
0000
1000
0000
0010
0100
,  // measure 51
0000
0000
0100
0010
0000
0000
0000
0000
2000
0000
0000
0000
3001
0000
0000
0000
,  // measure 52
0001
0000
0000
0001
0000
0000
1000
0000
0000
0000
1000
0001
0000
0100
0010
0000
,  // measure 53
1000
0000
0010
0000
0010
0000
0001
0000
1000
0000
0000
0001
0000
0000
0000
0000
,  // measure 54
1010
0000
0000
1001
0000
0000
0001
0010
0000
0000
0100
0000
1000
0000
0100
0000
,  // measure 55
0010
0100
0000
0000
1000
0000
0001
0000
0100
0000
0010
0000
0000
0100
0000
0000
,  // measure 56
0101
0000
0000
1001
0000
0000
1100
0000
0000
0000
0000
0000
0010
0000
0010
0000
,  // measure 57
0200
0000
0010
0010
0000
1000
0000
0001
,  // measure 58
0000
0000
0000
0000
0010
0010
0000
0010
0000
0000
0000
0000
0000
0000
0000
0000
,  // measure 59
0000
0000
0000
0000
0000
0000
0000
0000
0000
0000
0000
0000
0000
0000
0000
0000
0000
0000
0000
0000
0000
0000
0000
0000
1000
0000
0000
0000
0000
0000
0000
0000
0000
0010
0000
0000
0000
0000
0000
0000
0001
0000
0000
0000
0000
0000
0000
0000
,  // measure 60
0020
0000
0330
0000
;

//---------------dance-single - ----------------
#NOTEDATA:;
#CHARTNAME:;
#STEPSTYPE:dance-single;
#DESCRIPTION:;
#CHARTSTYLE:;
#DIFFICULTY:Medium;
#METER:7;
#RADARVALUES:0.372546,0.425206,0.139412,0.164014,0.057405,318.000000,301.000000,17.000000,20.000000,0.000000,0.000000,0.000000,0.000000,0.000000,0.372546,0.425206,0.139412,0.164014,0.057405,318.000000,301.000000,17.000000,20.000000,0.000000,0.000000,0.000000,0.000000,0.000000;
#CREDIT:;
#NOTES:
0000
0000
0000
0000
,
2100
0001
0010
0001
,
0100
0001
0010
0001
,
0100
0001
0010
0001
,
3100
0000
0000
0000
,
0102
1000
0010
1000
,
0100
1000
0010
1000
,
0100
1000
0010
1003
,
1001
0000
0000
0000
0000
0000
0000
0000
0000
0000
0000
0000
0000
0000
1000
0000
0000
0000
0001
0000
0000
0010
0000
0000
,
0100
0000
0010
0001
0100
0000
0001
0000
,
0100
0000
0010
1000
0001
0000
1000
0001
,
0010
0000
0100
0000
0100
0000
0100
0010
,
0001
0000
0100
0000
0001
0100
0010
0000
,
1000
0000
0001
0100
0010
0000
1000
0000
,
0001
0000
0010
0100
1000
0000
0001
0100
,
0010
0000
1000
0000
1000
0000
1000
0001
,
0100
0000
0000
0000
0000
0000
0000
0000
0000
0000
0000
0000
0000
0000
0000
0000
0000
0000
0000
0000
0000
0000
0000
0000
0000
0000
0000
0000
0000
0000
0000
0000
0000
0000
0000
0000
0000
0000
0000
0000
0000
0000
0000
0000
0000
0000
0000
0000
0010
0000
0000
0000
0000
0000
0000
0000
0000
0000
0000
0000
0000
0000
0000
0000
0000
0000
0000
0000
0000
0000
0000
0000
0000
0000
0000
0000
0000
0000
0000
0000
0000
0000
0000
0000
0000
0000
0000
0000
0000
0000
0000
0000
0000
0000
0000
0000
0010
0000
0000
0000
0000
0000
0000
0000
0000
0000
0000
0000
0000
0000
0000
0000
0100
0000
0000
0000
0000
0000
0000
0000
0000
0000
0000
0000
0000
0000
0000
0000
0000
0000
0000
0000
0000
0000
0000
0000
0000
0000
0000
0000
0000
0000
0000
0000
0000
0000
0000
0000
0000
0000
0010
0000
0000
0000
0000
0000
0000
0000
0000
0000
0000
0000
0000
0000
0000
0000
0000
0000
0000
0000
0000
0000
0000
0000
0000
0000
0000
0000
0000
0000
0000
0000
0000
0000
0000
0000
0000
0000
0000
0000
0000
0000
,
2000
3200
0320
0032
,
2003
3200
0302
0103
,
0102
0000
1003
0000
0010
0001
1000
0000
,
0010
0000
0100
0001
0000
0001
1000
0010
,
0002
0000
1003
0000
1000
0100
0001
1000
,
0010
0000
0100
0010
0000
0010
1000
0100
,
0002
0000
1003
0000
1000
0010
0001
1000
,
0010
0100
0010
2000
0000
0000
3001
0000
,
1010
1100
1001
0011
,
1100
0000
1000
0100
0001
0000
0001
0100
,
1000
0010
0001
0000
0010
0100
0001
0000
,
0001
0010
0100
1000
0000
0000
0001
0000
,
0011
0101
1001
1010
,
0101
0000
0001
0100
1000
0000
1000
0100
,
0001
0010
1000
0000
0010
0100
1000
0000
,
0010
0000
0000
0100
0000
0010
0000
1000
0000
0000
0000
0000
0000
0000
0000
0000
,
1000
0100
0001
0010
0001
0100
1000
0010
,
1000
0100
0001
0010
0001
0100
1000
0010
,
0100
0010
1000
0000
0001
0100
0010
0000
,
1000
0001
0100
0000
0100
0001
0010
0000
,
0010
0001
0100
1000
0010
1000
0100
0001
,
0010
0001
0100
1000
0010
1000
0100
0002
,
0000
0000
0000
0003
,
1001
0000
1001
0000
1001
0001
1000
0000
,
1000
0001
0100
0001
0010
0100
1000
0001
,
1000
0000
1000
0000
0001
0100
0010
0001
,
0010
0100
0002
1003
,
0001
0000
0000
1000
0000
0000
0100
0000
0000
0000
1000
0000
0000
0001
0000
0000
,
0001
1000
0100
1000
0010
0100
0001
1000
,
0001
0000
0001
0000
1000
0100
0010
1000
,
0010
0000
0000
0000
0100
0000
0000
0000
0010
0000
0100
0000
0000
1000
0000
0000
,
0001
0000
0000
0100
0000
0000
0010
0000
0000
0000
0000
0000
1000
0000
0000
0000
,
0001
1000
0100
1000
0010
0100
0001
1000
,
0001
0000
0001
0000
1000
0100
0010
1000
,
0010
0100
2000
3001
,
1000
0000
0000
0001
0000
0000
0100
0000
0000
0000
0001
0000
0000
1000
0000
0000
,
1000
0001
0100
0001
0010
0100
1000
0001
,
1000
0000
1000
0000
0001
0100
0010
0001
,
0010
0000
0000
0000
0100
0000
0000
0000
0010
0000
0100
0000
0000
0001
0000
0000
,
1000
0000
0000
0100
0000
0000
0010
0000
0000
0000
0000
0000
0100
0000
0010
0000
,
0200
0000
0000
0000
,
0020
0000
0000
0000
0000
0000
0000
0300
,
0002
0000
0000
0000
0000
0000
0000
0030
,
2000
0000
0000
0003
,
3001
0000
0000
0000
;
