#TITLE:WOBBLE IMPACT;
#SUBTITLE:;
#ARTIST:Sota Fujimori;
#TITLETRANSLIT:;
#SUBTITLETRANSLIT:;
#ARTISTTRANSLIT:;
#GENRE:Neurostep;
#CREDIT:CuzcoBlocko.png;
#BANNER:WOBBLE IMPACT.png;
#BACKGROUND:WOBBLE IMPACT-bg.png;
#LYRICSPATH:;
#CDTITLE:cdtitle.png;
#MUSIC:WOBBLE IMPACT.ogg;
#OFFSET:0.000;
#SAMPLESTART:74.526;
#SAMPLELENGTH:15.000;
#SELECTABLE:YES;
#DISPLAYBPM:95.000000:190.000000;
#BPMS:0.000=95.000,17.500=190.000,34.000=573573.000,34.021=174.167,34.250=190.000,35.000=573573.000,35.021=174.167,35.250=190.000,43.000=573573.000,43.021=174.167,43.250=190.000,43.500=573573.000,43.521=174.167,43.750=190.000,66.000=573573.000,66.021=174.167,66.250=190.000,67.000=573573.000,67.021=174.167,67.250=190.000,75.000=573573.000,75.021=174.167,75.250=190.000,75.500=573573.000,75.521=174.167,75.750=190.000,82.000=95.000,84.000=126.667,86.000=380.000,87.000=190.000,107.500=573573.000,107.521=174.167,107.750=190.000,108.500=573573.000,108.521=174.167,108.750=190.000,139.500=573573.000,139.521=174.167,139.750=190.000,140.500=573573.000,140.521=174.167,140.750=190.000,153.000=573573.000,153.021=174.167,153.250=190.000,154.000=573573.000,154.021=174.167,154.250=190.000,159.000=573573.000,159.021=174.167,159.250=190.000,161.000=573573.000,161.021=174.167,161.250=190.000,163.000=573573.000,163.021=174.167,163.250=190.000,165.000=573573.000,165.021=174.167,165.250=190.000,169.000=573573.000,169.021=174.167,169.250=190.000,170.000=573573.000,170.021=174.167,170.250=190.000,175.000=573573.000,175.021=174.167,175.250=190.000,177.000=573573.000,177.021=174.167,177.250=190.000,182.000=95.000,182.250=285.000,183.000=190.000,185.000=573573.000,185.021=174.167,185.250=190.000,186.000=573573.000,186.021=174.167,186.250=190.000,191.000=573573.000,191.021=174.167,191.250=190.000,193.000=573573.000,193.021=174.167,193.250=190.000,198.000=95.000,198.250=285.000,199.000=190.000,201.000=573573.000,201.021=174.167,201.250=190.000,202.000=573573.000,202.021=174.167,202.250=190.000,207.000=573573.000,207.021=174.167,207.250=190.000,209.000=573573.000,209.021=174.167,209.250=190.000,214.000=380.000,214.667=95.000,215.000=190.000,247.000=573573.000,247.021=269.167,247.375=190.000,247.875=95.000,248.125=190.000,248.625=285.000,249.000=190.000,263.000=95.000,265.000=190.000,265.500=95.000,265.750=573573.000,265.771=364.167,266.250=285.000,266.625=142.500,267.000=190.000,273.000=573573.000,273.021=174.167,273.250=190.000,274.000=573573.000,274.021=174.167,274.250=190.000,282.000=95.000,282.250=285.000,283.000=190.000,305.000=573573.000,305.021=388.261,306.000=573573.000,306.021=388.261,307.000=190.000,311.000=380.000,314.000=285.000,314.750=95.000,315.000=190.000,330.667=95.000,331.500=285.000,333.000=190.000,348.000=95.000,348.250=285.000,349.000=190.000,353.500=573573.000,353.521=174.167,353.750=190.000,354.500=573573.000,354.521=174.167,354.750=190.000,370.000=573573.000,370.021=47.500,370.083=63.333,371.000=95.000;
#STOPS:17.500=0.157,86.000=0.158,265.000=0.236,265.250=0.237,265.500=0.079,265.625=0.079,305.021=0.164,306.021=0.165,311.000=0.158,312.000=0.158,313.000=0.079,313.500=0.039,313.750=0.040,330.667=0.527;
#BGCHANGES:18.000=WOBBLE IMPACT.avi=1.000=1=0=0,
379.000=WOBBLE IMPACT-bg.png=1.000=1=0=1;
#KEYSOUNDS:;
#ATTACKS:;

//---------------dance-single - It's a good song.----------------
#NOTES:
     dance-single:
     ITG 11 X 16:
     Challenge:
     11:
     0.835648,0.937012,0.373843,0.557099,0.806327,798.000000,747.000000,51.000000,76.000000,96.000000,1.000000,0.835648,0.937012,0.373843,0.557099,0.806327,798.000000,747.000000,51.000000,76.000000,96.000000,1.000000:
0000
0000
0000
0000
,
0000
0000
0000
0000
,
0000
0000
0000
0000
,
0000
0000
0000
0000
,
10M2
00M0
0000
M100
0000
0103
0010
0000
1010
0000
1000
0000
0200
0000
0001
0300
,
0100
0010
0100
0010
0002
0000
0000
0000
0103
0000
0040
1000
0000
0000
0130
0000
,
0001
1000
0001
1000
0100
0000
0010
0000
0012
0000
0000
0000
0103
0000
1000
0000
,
0100
0000
0100
0000
0001
1000
0001
1000
0100
0000
0010
0000
0001
1000
0001
0000
,
0100
0000
0000
0000
0000
0000
0000
0000
0000
0000
0000
0000
0000
0000
0000
0000
0000
0000
0000
0000
0000
0000
0000
0000
0010
0000
0000
0000
0000
0000
0000
0000
0000
0000
0000
0000
0000
0000
0000
0000
0000
0000
0000
0000
0000
0000
0000
0000
1000
0000
0000
0000
0000
0000
0000
0000
0000
0000
0000
0000
0001
0000
0000
0000
0000
0000
0000
0000
0000
0000
0000
0000
1000
0000
0000
0000
0000
0000
0000
0000
0000
0000
0000
0000
0001
0000
0000
0000
0000
0000
0000
0000
0000
0000
0000
0000
0000
0010
0000
0000
0000
0000
0000
0000
0000
0000
0000
0000
0000
0000
0000
0000
0000
0000
0000
0000
0000
0000
0000
0000
0000
0000
0000
0000
0000
0000
0000
0000
0000
0000
0000
0000
0000
0000
0000
0000
0000
0000
0000
0000
0000
0000
0000
0000
0000
0020
0000
0000
0000
0000
0000
0000
0000
0000
0000
0000
0000
0000
0000
0000
0000
0000
0000
0000
0000
0000
0000
0000
1000
0000
0000
0000
0000
0000
0000
0000
0000
0000
0000
0000
0030
0000
0000
0000
0000
0000
0000
0000
0000
0000
0000
0000
,
0010
0000
0000
0000
0100
0000
0000
0000
0010
0000
0000
0000
1000
0000
0000
0001
0000
0000
0010
0000
0000
0000
0000
0000
0000
0000
0000
0000
0000
0000
0120
0000
0000
0000
0000
0000
0000
0000
0000
0031
0000
0000
1000
0000
0000
0000
0000
0000
,
0010
0000
0000
0000
0000
0000
0000
0000
0000
0000
0000
0000
0000
0000
0000
0000
0100
0000
0000
0000
0000
0000
0000
0000
0000
0000
0000
0000
0000
0000
0000
0000
0001
0000
0000
0000
0000
0000
0000
0000
0000
0000
0000
0000
0000
0000
0000
0000
1000
0000
0000
0000
0000
0000
0000
0000
0000
0000
0000
0000
0100
0000
0000
0000
0000
0000
0000
0000
0000
0000
0000
0000
0010
0000
0000
0000
0000
0000
0000
0000
0000
0000
0000
0000
0100
0000
0000
0000
0000
0000
0000
0000
0000
0000
0000
0000
2000
0000
0000
0000
0000
0000
0000
0000
0000
0000
0000
0000
0000
0000
0000
0000
0000
0000
0000
0000
0000
0000
0000
0000
0000
0000
0000
0000
0000
0000
0000
0000
0000
0000
0000
0000
0000
0000
0000
0000
0000
0000
0000
0000
0000
0000
0000
0000
3000
0010
0000
0000
0000
0000
0000
0000
0000
0000
0000
0000
0000
0000
0000
0000
0000
0000
0000
0000
0000
0000
0000
0000
0000
0010
0000
0000
0000
0000
0000
0000
0000
0000
0000
0000
0000
0000
0000
0000
0000
0000
0000
0000
0000
0000
0000
0000
,
0002
0000
0000
0000
1003
0000
0010
0000
0200
0000
0000
0000
0301
1000
0001
0000
,
0200
0000
0000
0000
0310
0000
1000
0000
1001
0000
0001
0000
0200
0000
1000
0300
,
0100
0010
0100
0010
2000
0000
0000
0000
3100
0000
0040
0001
0000
0000
0130
0000
,
1000
0001
1000
0001
0100
0000
0010
0000
2010
0000
0000
0000
3100
0000
0001
0000
,
0100
0000
0100
0000
0010
0001
1000
0001
1000
0000
0010
0000
0100
0001
1000
0000
,
0100
0000
0000
0000
0000
0000
0000
0000
0000
0000
0000
0000
0000
0000
0000
0000
0000
0000
0000
0000
0000
0000
0000
0000
0010
0000
0000
0000
0000
0000
0000
0000
0000
0000
0000
0000
0000
0000
0000
0000
0000
0000
0000
0000
0000
0000
0000
0000
0001
0000
0000
0000
0000
0000
0000
0000
0000
0000
0000
0000
1000
0000
0000
0000
0000
0000
0000
0000
0000
0000
0000
0000
0001
0000
0000
0000
0000
0000
0000
0000
0000
0000
0000
0000
1000
0000
0000
0000
0000
0000
0000
0000
0000
0000
0000
0000
0000
0010
0000
0000
0000
0000
0000
0000
0000
0000
0000
0000
0000
0000
0000
0000
0000
0000
0000
0000
0000
0000
0000
0000
0000
0000
0000
0000
0000
0000
0000
0000
0000
0000
0000
0000
0000
0000
0000
0000
0000
0000
0000
0000
0000
0000
0000
0000
0000
0010
0000
0000
0000
0000
0000
0000
0000
0000
0000
0000
0000
0000
0000
0000
0000
0000
0000
0000
0000
0000
0000
0000
0001
0000
0000
0000
0000
0000
0000
0000
0000
0000
0000
0000
0000
0000
0000
0000
0000
0000
0000
0000
0000
0000
0000
0000
,
1000
0000
0000
0000
0100
0000
0000
0000
0010
0000
0000
0000
0001
0000
0000
1000
0000
0000
0020
0000
0000
0000
0000
0000
0000
0000
0000
0000
0000
0000
0130
0000
0000
0000
0010
0000
0000
0000
0100
0000
0000
0000
0001
0000
0000
0000
0000
0000
,
1000
0000
0000
0000
0000
0000
0000
0000
0000
0000
0000
0000
0000
0000
0000
0000
0001
0000
0000
0000
0000
0000
0000
0000
0000
0000
0000
0000
0000
0000
0000
0000
1000
0000
0000
0000
0000
0000
0000
0000
0000
0000
0000
0000
0000
0000
0000
0000
0001
0000
0000
0000
0000
0000
0000
0000
0000
0000
0000
0000
0100
0000
0000
0000
0000
0000
0000
0000
0000
0000
0000
0000
0010
0000
0000
0000
0000
0000
0000
0000
0000
0000
0000
0000
0100
0000
0000
0000
0000
0000
0000
0000
0000
0000
0000
0000
0002
0000
0000
0000
0000
0000
0000
0000
0000
0000
0000
0000
0000
0000
0000
0000
0000
0000
0000
0000
0000
0000
0000
0000
0000
0000
0000
0000
0000
0000
0000
0000
0000
0000
0000
0000
0000
0000
0000
0000
0000
0000
0000
0000
0000
0000
0000
0000
0003
0010
0000
0000
0000
0000
0000
0000
0000
0000
0000
0000
0000
0000
0000
0000
0000
0000
0000
0000
0000
0000
0000
0000
0000
0010
0000
0000
0000
0000
0000
0000
0000
0000
0000
0000
0000
0000
0000
0000
0000
0000
0000
0000
0000
0000
0000
0000
,
2000
0000
0000
0000
3001
0000
0010
0000
0200
0000
0000
0000
2300
0000
0010
3000
,
0200
0000
0000
0000
0301
1000
0001
1000
0400
0000
0000
0000
0000
0000
0000
0000
,
M040
000M
0000
M00M
0000
0330
1001
0000
0000
1020
0000
0000
,
0230
0000
0001
0000
0301
0000
0010
0000
0100
1000
0100
1000
0001
0000
0100
0020
,
0000
1030
110M
00M0
0M11
M000
1000
1000
,
0020
0000
0000
0000
0000
0000
0100
0000
0000
0030
0000
0000
0010
0000
0000
0000
1000
0000
0000
0000
0001
0000
0000
0000
0010
0000
0000
0000
0000
0000
0010
0000
0000
0000
0000
0000
0100
0000
0000
0000
0000
0000
1000
0000
0000
0000
0000
0000
,
0001
0000
0000
1000
0000
0000
0001
0000
0000
0000
0000
0000
0010
0000
0000
0000
0100
0000
0000
0000
0010
0000
0000
0000
0001
0000
0000
0000
1000
0000
0000
0000
0001
0000
0000
0000
0200
0000
0000
0000
0000
0000
0000
0000
0000
0000
0000
0000
,
0320
0000
1000
0000
1030
0000
0010
0000
0100
0001
1000
0001
1000
0000
2000
0000
,
0000
0000
3001
1000
0100
0000
0001
0000
0100
0000
1000
0000
1001
0000
0000
0000
,
0002
0000
0000
1000
0000
0000
1003
0000
0100
0000
0010
0000
0001
0000
0000
0001
0000
0000
0100
0000
0000
0010
0000
0000
,
1000
0001
0100
0000
0010
1000
0001
1000
0100
0000
0000
0000
0021
0000
0000
0000
,
0230
0000
1000
0000
1300
0000
0010
0000
0100
0001
0100
0001
1000
0000
0100
0020
,
0000
0031
M101
00M0
1M10
000M
0001
0001
,
0020
0000
0000
0000
0000
0000
0100
0000
0000
0030
0000
0000
0010
0000
0000
0000
0001
0000
0000
0000
1000
0000
0000
0000
0010
0000
0000
0000
0000
0000
0010
0000
0000
0000
0000
0000
0100
0000
0000
0000
0000
0000
0010
0000
0000
0000
0000
0000
,
1000
0000
0000
0001
0000
0000
0100
0000
0000
0000
0000
0000
0010
0000
0000
0000
1000
0000
0000
0000
0001
0000
0000
0000
1000
0000
0000
0000
0100
0000
0000
0000
0010
0000
0000
0000
0200
0000
0000
0000
0000
0000
0000
0000
0000
0000
0000
0000
,
0320
0000
0001
0000
0031
0000
1000
0000
0100
0010
0001
1000
0001
0000
0002
0000
,
0000
0000
1003
0001
0100
0000
1000
0000
0100
0000
0001
0000
1001
0000
0000
0000
,
2000
0000
0000
0001
0000
0000
3001
0000
0010
0000
0100
0000
1000
0000
0000
1000
0000
0000
0100
0000
0000
0010
0000
0000
,
0001
1000
0001
0000
0100
0010
1000
0001
0200
0000
0000
0300
0110
0000
0010
0000
,
2000
0000
0000
0001
0000
0000
3002
0000
0000
0000
0000
0000
0203
0000
0000
0000
0000
0000
0310
0000
0000
0000
0010
0000
,
1000
0000
1000
0100
0010
0000
0000
0000
0001
0000
0100
0000
0040
0030
0000
0001
,
0010
0000
0000
0000
0000
0000
1000
0000
0000
0000
0000
0000
0040
0000
0000
0130
0000
0000
0010
0000
0000
0100
0000
0000
0001
0000
0000
0000
1000
0000
0000
0000
0100
0000
0000
0000
0040
0000
0000
0030
0000
0000
0001
0000
0000
0000
0000
0000
,
0000
1000
0100
0000
0040
0030
0002
0000
2003
0000
0000
0000
3001
0000
1000
0000
,
0002
0000
0000
0000
0000
0000
0010
0000
0000
0000
0000
0000
0023
0000
0000
0000
0000
0000
0000
0000
0000
0000
0000
0000
0230
0000
0000
0000
0000
0000
0000
0000
0000
0000
0000
0000
1300
0000
0000
0000
0000
0000
0000
0000
0001
1000
0000
0000
,
0000
0000
0100
0000
0020
0000
0000
0030
1002
0000
0000
0000
0043
0030
0000
1000
,
0010
0000
0000
0000
0000
0000
0001
0000
0000
0000
0000
0000
0040
0000
0000
0130
0000
0000
0010
0000
0000
0100
0000
0000
1000
0000
0000
0000
0001
0000
0000
0000
0100
0000
0000
0000
0040
0000
0000
0030
0000
0000
1000
0000
0000
0000
0000
0000
,
0001
1000
0010
0000
0000
0041
0030
0000
1040
0030
0000
0000
1100
0000
0100
0000
,
0002
0000
0000
0000
0000
0000
0100
0000
0000
0003
0000
0000
0020
0000
0000
0000
0000
0000
0100
0000
0000
0000
0000
0000
0230
0000
0000
0000
0000
0000
1000
0000
0000
0000
0000
0000
1300
0000
0000
0000
0000
0000
0000
0000
0010
0000
0000
0000
,
1000
0000
0001
0010
0001
0000
1000
0010
1000
0000
0001
0000
0400
0300
0000
1000
,
0100
0000
0000
0000
0000
0000
0010
0000
0000
0000
0000
0000
0400
0000
0000
0301
0000
0000
0100
0000
0000
0001
0000
0000
1000
0000
0000
0000
0001
0000
0000
0000
0010
0000
0000
0000
040M
0000
0000
0300
0000
0000
0001
0000
0000
M000
0000
0000
,
0100
0000
1000
0000
0001
0000
1000
0000
002M
0000
0000
0000
0230
0000
M000
0300
0102
0000
0000
0000
0000
0000
0000
0000
1003
0000
0000
0000
0001
0000
0000
0000
,
0020
0000
0000
0000
0000
0000
1000
0000
0000
0030
0000
0000
0020
0000
0000
0000
0000
0000
0100
0000
0000
0000
0000
0000
0230
0000
0000
0000
0000
0000
1000
0000
0000
0000
0000
0000
1300
0000
0000
0000
0001
0000
0000
0000
0100
0000
0000
0000
,
0010
0000
0000
0000
1000
0000
0000
0000
0001
0000
0000
0000
0010
0000
0000
0000
0000
0000
0010
0000
0000
0000
0000
0000
2001
0000
0000
0000
0000
0000
0000
0000
0000
0000
0000
0000
3400
0000
0000
0300
0000
0000
0000
0000
0000
0001
0000
0000
,
0100
0000
0000
0000
0000
0000
0010
0000
0000
0000
0000
0000
0400
0000
0000
1300
0000
0000
0100
0000
0000
1000
0000
0000
0001
0000
0000
0000
1000
0000
0000
0000
0010
0000
0000
0000
0400
0000
0000
0300
0000
0000
0001
0000
0000
0000
0000
0000
,
1000
0001
1000
0000
0010
0000
0400
0300
0410
0300
0000
0000
1001
0000
1000
0000
,
001M
0100
0001
0001
0010
0200
0000
1000
,
0000
0000
0310
0000
010M
1000
0100
1000
00M1
0100
0001
0100
0010
0000
1000
0000
,
0100
0010
0M01
1M00
0M01
0200
0000
0001
,
0000
0310
0100
0000
0004
0000
4003
0000
3400
0000
0340
0000
0130
0000
1000
0000
,
001M
0100
0001
0001
0010
2000
0000
0010
,
0000
0000
0000
0000
0000
0000
3010
0000
0000
0100
0000
0000
0010
0000
0000
0000
0001
0000
0000
0000
1000
0000
0000
0000
0010
0000
0000
0000
0000
0000
0010
0000
0000
0000
0000
0000
0001
0000
0000
0000
0000
0000
1000
0000
0000
0000
0000
0000
,
01M0
0001
M010
M100
M010
0200
0000
1000
,
1300
0001
1000
0000
0001
1000
0010
1000
0001
0000
0010
0000
0012
0000
0000
0000
,
MMM0
0000
0000
0000
0000
0000
0000
0000
0000
0000
0000
0000
0103
0000
0000
0000
0000
0000
0000
0000
0000
0110
0000
0000
0000
0000
0000
0000
0000
0000
0010
0000
0000
0000
0000
0000
1000
0000
0000
0000
0001
0000
0000
0000
1000
0000
0000
0000
,
0100
0000
0010
0000
0100
0000
0000
0000
1MM1
0000
0001
0000
0100
0010
0100
0010
,
1000
0000
0000
0000
0001
0000
0000
0000
1000
0000
0000
0000
0200
0000
0000
0000
0000
0000
0010
0000
0000
0300
0000
0000
0100
0000
0000
0000
0000
0000
1000
0000
0000
0000
0000
0000
0001
0000
0000
0000
0100
0000
0000
0000
0001
0000
0000
0000
,
1MM0
0000
0000
0000
0001
0000
0000
0000
0010
0000
0000
0000
0100
0000
0000
0000
1000
0000
0000
0000
0010
0000
0000
0000
M10M
0000
0000
0000
0001
0000
0000
0000
1000
0000
0000
0000
0100
0000
0000
0000
0000
0000
1000
0000
0000
1000
0000
0000
,
0001
0000
0000
0000
0100
0000
0000
0010
1000
0000
0001
0000
0010
0100
2002
0000
0000
0000
0000
0000
0000
3003
0000
0000
1200
0000
0000
0000
0000
0000
0000
0000
,
0001
0000
0310
0100
1000
0010
0001
0010
,
1000
0001
0100
0010
0000
0000
1010
0000
0000
0210
0000
0000
,
1000
0000
0000
0000
0000
0000
0310
0000
0000
0010
0000
0000
0010
0000
0000
0010
0000
0000
0100
0000
0001
0000
1000
0000
,
0010
0000
0100
0000
0001
0000
0010
0000
0100
0000
1000
0000
0001
0000
0000
MMMM
0000
0000
0201
0000
0000
0000
0000
0000
,
1000
0000
0301
1000
0100
0001
0100
0010
,
0100
0000
1000
0001
0100
0000
0010
0000
0100
0000
1000
0000
0001
0000
0010
0000
,
1000
0100
0010
0001
1000
0100
0010
0010
,
0001
1000
0001
0000
0101
0000
0M0M
0000
0101
0000
0000
0000
0021
0000
0000
0000
,
1000
0000
0000
0000
0031
0010
0100
0000
0010
0000
0001
0000
1000
0000
1000
0000
,
0010
0000
0000
0000
0110
0000
0000
0000
0110
0000
0000
0000
0010
1000
0001
0000
,
0100
0001
1000
0000
0100
0000
0010
0000
0001
1000
0001
0000
0011
0000
00MM
0000
,
1001
0000
M00M
0000
1010
0000
1000
0001
0020
0000
0000
0000
1030
0010
0100
0000
,
1000
0100
0010
0001
0100
1000
0100
0010
,
0100
0000
0001
1000
0100
0000
0010
0000
0100
0000
0001
0000
1000
0000
0010
0000
,
0001
0000
0100
0000
0010
1000
0010
1000
0001
0010
0001
0010
0100
1000
0100
0010
,
0001
0000
0000
1000
0000
0000
0001
0000
0000
0100
0000
0000
0010
0000
0000
0000
0000
0000
0010
0000
0000
0000
0000
0000
1000
0000
0000
0000
0100
0000
0000
0000
0010
0000
0000
0000
M10M
0000
0000
0000
0000
0000
1MM1
0000
0000
0000
0000
0000
,
0000
0000
0000
0000
1010
0000
0000
0000
0101
0000
0000
0000
0001
1000
0010
0000
,
1000
0100
0010
0100
0001
M000
01M1
M000
,
11M0
0000
0000
0000
0000
0000
000M
0000
0000
0000
0000
0000
0011
0000
0000
0000
0000
0000
0001
0000
0000
0000
0000
0000
2000
0000
0000
0000
0000
0000
0100
0000
0000
3000
0000
0000
1000
0000
0000
0000
0001
0000
0000
0000
1000
0000
0000
0000
,
0010
0000
0010
0000
1000
0000
0400
0000
0010
0000
0000
0000
1300
0000
0001
1000
,
0200
0000
M0MM
0300
0011
0000
0000
0000
1100
0000
1000
0000
0002
0000
0010
0003
,
0001
0000
0100
0000
1000
0000
0100
0000
0001
0000
1000
0001
0100
0000
1000
0000
,
0100
0000
0000
0000
0000
0000
0010
0000
0000
0000
0000
0000
0110
0000
0000
0000
0000
0000
0000
0000
0000
0000
0000
0000
0020
0000
0000
0000
0000
0000
0100
0000
0000
0030
0000
0000
0010
0000
0000
0000
1000
0000
0000
0000
0001
0000
0000
0000
,
0010
0000
0010
0000
0100
0000
0001
0000
0100
0010
0100
0000
1000
0000
0010
0000
,
0001
0000
0010
0000
1000
0000
0001
0000
0010
0000
0100
0000
1000
0000
0001
0000
0100
0000
0010
0000
0000
0010
0000
0000
,
1001
0000
0000
0000
M02M
0M00
0M00
0M30
2002
0000
0000
0000
0010
0M00
30M3
0M00
,
00M0
0000
00M0
0000
000M
0000
00M0
0000
0000
0000
0M00
0000
0000
0000
0000
0000
M000
00M0
0M00
000M
M000
000M
00M0
0M00
M000
0000
0M00
0000
00M0
0000
0M00
0000
,
00M0
00M0
M000
00M0
0000
000M
0000
00M0
0M00
M000
00M0
000M
0000
0000
0000
0000
;

//---------------dance-single - Streamy.----------------
#NOTES:
     dance-single:
     ITG 09 X 13:
     Hard:
     9:
     0.687996,0.747869,0.461806,0.351852,0.348187,657.000000,594.000000,63.000000,48.000000,31.000000,0.000000,0.687996,0.747869,0.461806,0.351852,0.348187,657.000000,594.000000,63.000000,48.000000,31.000000,0.000000:
0000
0000
0000
0000
,
0000
0000
0000
0000
,
0000
0000
0000
0000
,
0000
0000
0000
0000
,
0100
0010
0000
1001
0000
0100
0010
0000
1001
0000
0001
0000
0020
0000
0000
0000
,
0130
1000
0010
0100
0004
0000
0000
0000
,
1003
0010
0100
0001
2001
0000
3010
0100
,
0001
0001
1000
0100
0010
0001
1000
0100
,
0010
0001
0100
0010
1000
0000
1200
0000
,
0310
0000
0000
0000
0001
0000
0000
0000
1000
0000
0000
0000
0100
0000
0000
0000
0000
0000
0010
0000
0000
0000
0000
0000
0000
0000
0000
0000
0000
0000
0021
0000
0000
0000
0000
0000
0000
0000
0000
0130
0000
0000
1000
0000
0000
0000
0000
0000
,
0001
0000
1000
0000
0001
0000
0100
0000
0000
0100
0000
0000
0020
0000
0000
0000
0000
0000
1030
0000
0000
0001
0000
0000
,
0020
0000
0130
0010
0002
0000
0103
0010
,
1000
0000
0200
1300
1001
1000
0020
0000
,
1030
0001
0010
0100
4000
0000
0000
0000
,
3100
0010
0001
1000
1002
0000
0013
0100
,
1000
1000
0001
0100
0010
1000
0001
0100
,
0010
1000
0100
0010
0001
0000
0201
0000
,
0310
0000
1000
0000
0001
0000
1000
0000
0000
1020
0000
0000
0000
0000
0000
0130
0000
0001
0000
0100
0000
0001
0000
0000
,
1000
0000
0001
0000
1000
0000
0100
0000
0000
0100
0000
0000
0020
0000
0000
0000
0000
0000
0031
0000
0000
1000
0000
0000
,
0020
0000
0130
0001
2000
0000
3200
0000
,
0320
0000
0031
0002
2000
0000
0000
3003
,
0010
0100
0000
1001
0000
0010
0100
0000
0000
1001
0000
0000
,
1100
0000
0000
0000
0100
0000
0010
0000
0001
0000
1000
0000
0001
0000
0001
0020
,
0000
0130
1100
0000
0101
0000
0001
0100
,
0010
0000
0000
1000
0000
0000
0001
0000
0100
0000
0001
0000
1000
0000
0000
1000
0000
0000
0100
0000
0000
0040
0000
0000
,
0000
0000
0000
0031
1000
0001
1000
0001
1000
0010
0000
0000
,
0101
0000
0100
0010
1000
0001
0100
0200
,
0000
0310
1010
0000
0011
0000
0002
0000
,
0013
0000
0000
0100
0000
0000
1000
0000
0100
0000
1000
0000
0100
0000
0000
0100
0000
0000
0020
0000
0000
0001
0000
0000
,
0000
0031
1000
0000
0020
0000
0000
0000
1030
0000
0000
0000
1001
0000
0000
0000
,
0101
0000
0000
0000
0001
0000
1000
0000
0100
0000
0010
0000
0001
0000
1000
0020
,
0000
0130
0101
0000
1100
0000
1000
0001
,
0010
0000
0000
0100
0000
0000
1000
0000
0001
0000
1000
0000
0010
0000
0000
0010
0000
0000
0100
0000
0000
0040
0000
0000
,
0000
0000
0000
1030
0001
1000
0001
1000
0001
0010
0000
0000
,
1100
0000
0100
0010
0001
1000
0100
0200
,
0000
0310
0011
0000
1010
0000
0020
0000
,
1030
0000
0000
0001
0000
0000
0100
0000
0001
0000
0100
0000
0001
0000
0000
0001
0000
0000
2000
0000
0000
0010
0000
0000
,
0000
3010
1000
0000
0002
0000
0000
0000
0013
0000
0000
0000
0110
0000
0000
0000
,
0010
0000
0000
0000
0000
0000
0000
0000
0000
0000
0000
0000
0000
0000
0000
0000
0000
0000
0000
0000
0000
0000
0000
0000
0001
0000
0000
0000
0000
0000
0000
0000
0000
0000
0000
0000
0000
0000
0000
0000
0000
0000
0000
0000
0000
0000
0000
0000
0000
0100
0000
0000
0000
0000
0000
0000
0000
0000
0000
0000
0000
0000
0000
0000
0000
0000
0000
0000
0000
0000
0000
0000
0000
0000
0000
0000
0000
0000
0000
0000
0000
0000
0000
0000
0000
0000
0000
0000
0000
0000
0000
0000
0000
0000
0000
0000
0000
0100
0000
0000
0000
0000
0000
0000
0000
0000
0000
0000
0000
0000
0000
0000
0000
0000
0000
0000
0000
0000
0000
0000
0000
0000
0000
0000
0000
0000
0000
0000
0000
0000
0000
0000
0000
0000
0000
0000
0000
0000
0000
0000
0000
0000
0000
0000
1000
0000
0000
0000
0000
0000
0000
0000
0000
0000
0000
0000
0000
0000
0000
0000
0000
0000
0000
0000
0000
0000
0000
0000
0000
0000
0000
0000
0000
0000
0000
0000
1000
0000
0000
0000
0000
0000
0000
0000
0000
0000
0000
0000
0000
0000
0000
0000
,
0001
0000
1000
0000
0020
0000
0000
0000
0130
0000
0010
0000
1010
0000
0000
0010
,
1000
0001
0040
0000
0430
0000
1300
0100
,
0000
0100
1000
0000
0001
0000
0100
0000
0020
0000
0000
0000
1030
0000
1000
0000
,
0001
0000
0000
0000
0000
0000
0000
0000
0000
0000
0000
0000
0000
0000
0000
0000
0000
0000
0000
0000
0000
0000
0000
0000
1000
0000
0000
0000
0000
0000
0000
0000
0000
0000
0000
0000
0000
0000
0000
0000
0000
0000
0000
0000
0000
0000
0000
0000
0000
0100
0000
0000
0000
0000
0000
0000
0000
0000
0000
0000
0000
0000
0000
0000
0000
0000
0000
0000
0000
0000
0000
0000
0000
0000
0000
0000
0000
0000
0000
0000
0000
0000
0000
0000
0000
0000
0000
0000
0000
0000
0000
0000
0000
0000
0000
0000
0000
0100
0000
0000
0000
0000
0000
0000
0000
0000
0000
0000
0000
0000
0000
0000
0000
0000
0000
0000
0000
0000
0000
0000
0000
0000
0000
0000
0000
0000
0000
0000
0000
0000
0000
0000
0000
0000
0000
0000
0000
0000
0000
0000
0000
0000
0000
0000
0001
0000
0000
0000
0000
0000
0000
0000
0000
0000
0000
0000
0000
0000
0000
0000
0000
0000
0000
0000
0000
0000
0000
0000
0001
0000
0000
0000
0000
0000
0000
0000
0000
0000
0000
0000
1000
0000
0000
0000
0000
0000
0000
0000
0000
0000
0000
0000
,
0000
0000
0100
0000
0020
0000
0000
0000
1030
0000
0000
0000
0011
0000
0000
0001
,
0010
0100
4000
0000
3004
0000
0103
0100
,
0001
0100
0010
0000
0000
1010
0000
0000
1001
0000
0000
0000
0110
0000
0000
0000
,
1001
0000
0000
0000
0000
0000
0000
0000
0000
0000
0000
0000
0000
0000
0000
0000
0000
0000
0000
0000
0000
0000
0000
0000
0001
0000
0000
0000
0000
0000
0000
0000
0000
0000
0000
0000
0000
0000
0000
0000
0000
0000
0000
0000
0000
0000
0000
0000
0000
0010
0000
0000
0000
0000
0000
0000
0000
0000
0000
0000
0000
0000
0000
0000
0000
0000
0000
0000
0000
0000
0000
0000
0000
0000
0000
0000
0000
0000
0000
0000
0000
0000
0000
0000
0000
0000
0000
0000
0000
0000
0000
0000
0000
0000
0000
0000
0000
0010
0000
0000
0000
0000
0000
0000
0000
0000
0000
0000
0000
0000
0000
0000
0000
0000
0000
0000
0000
0000
0000
0000
0000
0000
0000
0000
0000
0000
0000
0000
0000
0000
0000
0000
0000
0000
0000
0000
0000
0000
0000
0000
0000
0000
0000
0000
1000
0000
0000
0000
0000
0000
0000
0000
0000
0000
0000
0000
0000
0000
0000
0000
0000
0000
0000
0000
0000
0000
0000
0000
0000
0000
0000
0000
0000
0000
0000
0000
0000
0000
0000
0000
1000
0000
0000
0000
0000
0000
0000
0000
0000
0000
0000
0000
,
0001
0000
0100
0000
0010
0000
1000
0000
0001
0000
0010
0000
0011
0000
0000
0010
,
0001
1000
0040
0000
0430
0000
0301
0001
,
1000
0100
0001
0100
1100
0000
0011
0010
,
0001
0000
0000
0000
0000
0000
0000
0000
0000
0000
0000
0000
0000
0000
0000
0000
0000
0000
0000
0000
0000
0000
0000
0000
1000
0000
0000
0000
0000
0000
0000
0000
0000
0000
0000
0000
0000
0000
0000
0000
0000
0000
0000
0000
0000
0000
0000
0000
0000
0010
0000
0000
0000
0000
0000
0000
0000
0000
0000
0000
0000
0000
0000
0000
0000
0000
0000
0000
0000
0000
0000
0000
0000
0000
0000
0000
0000
0000
0000
0000
0000
0000
0000
0000
0000
0000
0000
0000
0000
0000
0000
0000
0000
0000
0000
0000
0000
0010
0000
0000
0000
0000
0000
0000
0000
0000
0000
0000
0000
0000
0000
0000
0000
0000
0000
0000
0000
0000
0000
0000
0000
0000
0000
0000
0000
0000
0000
0000
0000
0000
0000
0000
0000
0000
0000
0000
0000
0000
0000
0000
0000
0000
0000
0000
0001
0000
0000
0000
0000
0000
0000
0000
0000
0000
0000
0000
0000
0000
0000
0000
1000
0000
0000
0000
0000
0000
0000
0000
0000
0000
0000
0000
0000
0000
0000
0000
0001
0000
0000
0000
0000
0000
0000
0000
0000
0000
0000
0000
0000
0000
0000
0000
,
0010
0000
0000
0000
0100
0000
0000
0000
0010
0000
0000
0000
0100
0000
0000
0000
0000
0000
1000
0000
0000
0000
0000
0000
1001
0000
0000
0000
0000
0000
0000
0000
0000
0000
0000
0000
1010
0000
0000
0000
0000
0000
0000
0000
0000
1000
0000
0000
,
0010
0100
0004
0000
4003
0000
3100
0100
,
1000
0100
1000
0000
0001
0000
0100
0000
0110
0000
0000
0000
0001
0000
0100
0000
,
0010
0100
0001
1000
0010
0200
0000
0010
,
0000
0310
4000
0000
3004
0000
0013
0100
,
1000
0100
0010
0010
0010
0200
0000
0010
,
0000
1000
1300
0001
0010
0100
1000
0100
,
0010
0100
1000
0010
0100
0020
0000
0100
,
0000
0130
0004
0000
4003
0000
3100
0001
,
0100
1000
0010
0010
0010
0200
0000
0010
,
0340
0000
1030
0100
0010
0001
1001
0000
,
MMMM
0000
0000
0000
0000
0000
0000
0000
0000
0000
0000
0000
0001
0000
0000
0000
0000
0000
0000
0000
0000
0100
0000
0000
0000
0000
0000
0000
0000
0000
0010
0000
0000
0000
0000
0000
1000
0000
0000
0000
0001
0000
0000
0000
1000
0000
0000
0000
,
0001
0010
0100
0000
2MMM
0000
3001
0100
,
0010
0000
0100
0000
0010
0000
0100
0000
0000
0001
0000
0000
1000
0000
0000
0100
0000
0000
1000
0000
0100
0000
1000
0000
,
0001
0000
0000
0000
1000
0000
0000
0000
0001
0000
0000
0000
0100
0000
0000
0000
0001
0000
0000
0000
0100
0000
0000
0000
0010
0000
0000
0000
1000
0000
0000
0000
0001
0000
0000
0000
1M00
0000
0000
0000
0000
0000
00M0
0000
0000
0M00
0000
0000
,
000M
0000
0000
0000
M000
0000
0000
0M00
00M0
0000
0M00
0000
M000
000M
0110
0000
0000
0000
0000
0000
0000
0000
0000
0000
1002
0000
0000
0000
0000
0000
0000
0000
,
0100
0000
1003
0100
0010
0001
1000
0100
,
0010
0100
0010
0001
0000
0000
0011
0000
0000
2001
0000
0000
,
0100
0000
0000
3004
0000
0000
0403
0000
0000
0310
0100
0010
,
1000
0000
0001
0000
1000
0000
0100
0000
0010
0000
0100
0000
0010
0000
0000
MMMM
0000
0000
1002
0000
0000
0000
0000
0000
,
0010
0000
1003
0100
0010
0001
1000
0100
,
0010
0000
0100
1000
0001
0000
0100
0000
0010
0000
0100
0000
1000
0000
0100
0000
,
0010
0100
0001
1000
0100
0010
0001
0001
,
0100
0010
1010
0000
0101
0000
2001
0000
,
0010
0000
3001
0100
1000
0100
0010
0010
,
0100
0000
0101
0000
1010
0000
1000
0010
,
1000
0001
0010
0100
1000
0001
0101
0000
,
1100
0000
1010
0000
0011
0000
0010
0100
,
1000
0001
0010
0100
1000
0010
0100
0001
,
0100
0000
0010
1000
0001
0000
0010
0000
0100
0000
0010
0000
1000
0000
0010
0000
,
0100
1000
0010
0001
0010
0100
0001
0010
,
1000
0000
0000
0010
0000
0000
0001
0000
0000
0001
0000
0000
1000
0000
0001
0000
2000
0000
0100
0000
0000
3001
0000
0000
,
0000
MMMM
0000
0000
1010
0000
0000
0000
0101
0000
0000
0000
0100
0000
0010
0000
,
1000
0001
1000
0100
0001
0000
1100
0000
,
0011
0000
0000
0000
0000
0000
0001
0000
0000
0001
0000
0000
0010
0000
0000
0100
0000
0000
1000
0000
0001
0000
1000
0000
,
0010
0000
0010
0000
0100
0000
0040
0000
0000
0000
0000
0000
1030
0000
0001
1000
,
0001
MMMM
0011
0000
1100
0000
0100
0010
,
0001
1000
0020
1000
1030
0001
0101
0000
,
1010
0000
0000
0000
0000
0000
0020
0000
0000
0000
0000
0000
1030
0000
0000
0001
0000
0000
1000
0000
0100
0000
0010
0000
,
0001
0001
0100
2000
3100
0001
1000
0100
,
0002
0103
4000
0000
3004
0000
0103
0010
,
1001
0110
2002
3MM3
;

//---------------dance-single - I intended it to be a 7, but... oops.----------------
#NOTES:
     dance-single:
     ITG 08 X 12:
     Medium:
     8:
     0.578043,0.611893,0.425154,0.696374,0.238233,552.000000,494.000000,58.000000,95.000000,50.000000,2.000000,0.578043,0.611893,0.425154,0.696374,0.238233,552.000000,494.000000,58.000000,95.000000,50.000000,2.000000:
0000
0000
0000
0000
,
0000
0000
0000
0000
,
0000
0000
0000
0000
,
0000
0000
0000
0000
,
0220
0000
0000
0330
1001
0000
1020
0000
,
0130
0001
0100
0010
4000
0000
0000
0000
,
3001
0100
0010
0000
1010
0000
2100
0000
,
3001
1000
0100
0000
0012
0000
1003
0000
,
0001
0010
0200
0000
1300
0000
0110
0000
,
1000
0001
0100
0010
0000
1020
0000
0130
,
0001
1000
0100
0010
0002
0000
1003
0000
,
0110
0000
0001
1000
0200
0000
0310
0001
,
1000
0010
1001
0021
,
0130
1000
0001
0010
0004
0000
0000
0000
,
1003
0100
0010
0000
0011
0000
0102
0000
,
1003
0001
0100
0000
2010
0000
3001
0000
,
0100
0010
1000
0000
0001
0000
0110
0000
,
0001
1000
0000
1001
0000
1000
0000
0001
,
0010
0100
0010
0100
2000
0000
3001
0000
,
0110
0000
1000
0001
0200
0000
2300
0000
,
3200
0000
0000
0000
0000
0000
0000
0000
0000
0000
0000
0000
0000
0000
0000
0000
0000
0000
0000
0000
0000
0000
0000
0000
0000
0000
0000
0000
0000
0000
0000
0000
0000
0000
0000
0000
0000
0000
0000
0000
0000
0000
0000
0000
0000
0000
0000
0000
0310
0000
0000
0000
0000
0000
0000
0000
0000
0000
0000
0000
0000
0000
0000
0000
0000
0000
0000
0000
0000
0000
0000
0000
0100
0000
0000
0000
0000
0000
0000
0000
0000
0000
0000
0000
0000
0000
0000
0000
0000
0000
0000
0000
0000
0000
0000
0000
M000
0000
0000
0000
0000
0000
0000
0000
0000
0000
0000
0000
0000
0000
0000
0000
000M
0000
0000
0000
0000
0000
0000
0000
M000
0000
0000
0000
0000
0000
0000
0000
000M
0000
0000
0000
0000
0000
0000
0000
M000
0000
0000
0000
0000
0000
0000
0000
000M
0000
0000
0000
0000
0000
M000
0000
0000
0000
0000
0000
000M
0000
0000
0000
0000
0000
M000
0000
0000
0000
0000
0000
000M
0000
0000
0000
0000
0000
M000
0000
0000
0000
0000
0000
000M
0000
0000
0000
0000
0000
M000
0000
0000
0000
0000
0000
,
000M
0M00
000M
0M00
00M0
0M00
M000
0M00
M000
00M0
0M00
00M0
000M
00M0
0M00
00M0
1M01
0000
0000
0000
0000
0000
0000
0000
0021
0000
0000
0000
0000
0000
0000
0000
,
0100
0000
0000
0000
0230
0000
0000
0000
1300
0000
0100
0000
0010
0000
0000
0001
,
0000
1000
0020
0000
0230
0000
0310
0100
,
0010
0000
0000
1000
0000
0000
0001
0000
0000
0000
0001
0000
0010
0000
0000
0100
0000
0000
4000
0000
0000
0000
0000
0000
,
3004
0000
0000
0403
0000
0000
0340
0000
0030
1020
0000
0000
,
0100
0000
0000
0000
0000
0000
0000
0000
0000
0000
0000
0000
0000
0000
0000
0000
0000
0000
0000
0000
0000
0000
0000
0000
0000
0000
0000
0000
0000
0000
0000
0000
0000
0000
0000
0000
0000
0000
0000
0000
0000
0000
0000
0000
0000
0000
0000
0000
0130
0000
0000
0000
0000
0000
0000
0000
0000
0000
0000
0000
0000
0000
0000
0000
0000
0000
0000
0000
0000
0000
0000
0000
0010
0000
0000
0000
0000
0000
0000
0000
0000
0000
0000
0000
0000
0000
0000
0000
0000
0000
0000
0000
0000
0000
0000
0000
1000
0000
0000
0000
0000
0000
0000
0000
0000
0000
0000
0000
0000
0000
0000
0000
0000
0000
0000
0000
0000
0000
0000
0000
0001
0000
0000
0000
0000
0000
0000
0000
0000
0000
0000
0000
0000
0000
0000
0000
0000
0000
0000
0000
0000
0000
0000
0000
1000
0000
0000
0000
0000
0000
0000
0000
0000
0000
0000
0000
0000
0000
0000
0000
0000
0000
0000
0000
0000
0000
0000
0000
0000
0100
0000
0000
0000
0000
0000
0000
0000
0000
0000
0000
0000
0000
0000
0000
0000
0000
0000
0000
0000
0000
0000
0000
,
0000
0000
0000
0000
0000
0000
0000
0000
0000
0000
0000
0000
0000
0000
0000
0000
0000
0000
0000
0000
0000
0000
0000
0000
0000
0100
0000
0000
0000
0000
0000
0000
0000
0000
0000
0000
0000
0000
0000
0000
0000
0000
0000
0000
0000
0000
0000
0000
0002
0000
0000
0000
0000
0000
0000
0000
0000
0000
0000
0000
0000
0000
0000
0000
0000
0000
0000
0000
0000
0000
0000
0000
0000
0000
0000
0000
0000
0000
0000
0000
0000
0000
0000
0000
0000
0000
0000
0000
0000
0000
0000
0000
0000
0000
0000
0000
2003
0000
0000
0000
0000
0000
0000
0000
0000
0000
0000
0000
0000
0000
0000
0000
0000
0000
0000
0000
0000
0000
0000
0000
0000
0000
0000
0000
0000
0000
0000
0000
0000
0000
0000
0000
0000
0000
0000
0000
0000
0000
0000
0000
0000
0000
0000
0000
3100
0000
0000
0000
0000
0000
0000
0000
0000
0000
0000
0000
0000
0000
0000
0000
0000
0000
0000
0000
0000
0000
0000
0000
0000
0000
0000
0000
0000
0000
0000
0000
0000
0000
0000
0000
0000
0000
0000
0000
0000
0000
0000
0000
0000
0000
0000
0000
,
0010
0000
0000
0100
0000
0000
1000
0000
0000
0000
1000
0000
0001
0000
0000
1000
0000
0000
0100
0000
0000
0020
0000
0000
,
0000
0031
2000
0000
3020
0030
1020
0000
,
0100
0000
0000
0000
0230
0000
0000
0000
0301
0000
0100
0000
0010
0000
0000
1000
,
0000
0001
0020
0000
0230
0000
0310
0100
,
0010
0000
0000
0001
0000
0000
1000
0000
0000
0000
1000
0000
0010
0000
0000
0100
0000
0000
0004
0000
0000
0000
0000
0000
,
0043
0000
0000
0000
4030
0000
0000
0000
3040
0000
0000
0030
0021
0000
0000
0000
,
0100
0000
0000
0000
0000
0000
0000
0000
0000
0000
0000
0000
0000
0000
0000
0000
0000
0000
0000
0000
0000
0000
0000
0000
0000
0000
0000
0000
0000
0000
0000
0000
0000
0000
0000
0000
0000
0000
0000
0000
0000
0000
0000
0000
0000
0000
0000
0000
0130
0000
0000
0000
0000
0000
0000
0000
0000
0000
0000
0000
0000
0000
0000
0000
0000
0000
0000
0000
0000
0000
0000
0000
1000
0000
0000
0000
0000
0000
0000
0000
0000
0000
0000
0000
0000
0000
0000
0000
0000
0000
0000
0000
0000
0000
0000
0000
0010
0000
0000
0000
0000
0000
0000
0000
0000
0000
0000
0000
0000
0000
0000
0000
0000
0000
0000
0000
0000
0000
0000
0000
0100
0000
0000
0000
0000
0000
0000
0000
0000
0000
0000
0000
0000
0000
0000
0000
0000
0000
0000
0000
0000
0000
0000
0000
0001
0000
0000
0000
0000
0000
0000
0000
0000
0000
0000
0000
0000
0000
0000
0000
0000
0000
0000
0000
0000
0000
0000
0000
0000
0100
0000
0000
0000
0000
0000
0000
0000
0000
0000
0000
0000
0000
0000
0000
0000
0000
0000
0000
0000
0000
0000
0000
,
0000
0000
0000
0000
0000
0000
0000
0000
0000
0000
0000
0000
0000
0000
0000
0000
0000
0000
0000
0000
0000
0000
0000
0000
0000
0100
0000
0000
0000
0000
0000
0000
0000
0000
0000
0000
0000
0000
0000
0000
0000
0000
0000
0000
0000
0000
0000
0000
2000
0000
0000
0000
0000
0000
0000
0000
0000
0000
0000
0000
0000
0000
0000
0000
0000
0000
0000
0000
0000
0000
0000
0000
0000
0000
0000
0000
0000
0000
0000
0000
0000
0000
0000
0000
0000
0000
0000
0000
0000
0000
0000
0000
0000
0000
0000
0000
3002
0000
0000
0000
0000
0000
0000
0000
0000
0000
0000
0000
0000
0000
0000
0000
0000
0000
0000
0000
0000
0000
0000
0000
0000
0000
0000
0000
0000
0000
0000
0000
0000
0000
0000
0000
0000
0000
0000
0000
0000
0000
0000
0000
0000
0000
0000
0000
0103
0000
0000
0000
0000
0000
0000
0000
0000
0000
0000
0000
0000
0000
0000
0000
0000
0000
0000
0000
0000
0000
0000
0000
0000
0000
0000
0000
0000
0000
0000
0000
0000
0000
0000
0000
0000
0000
0000
0000
0000
0000
0000
0000
0000
0000
0000
0000
,
0010
0000
0000
1000
0000
0000
0001
0000
0000
0000
0001
0000
0010
0000
0000
0100
0000
0000
1000
0000
0000
0020
0000
0000
,
0000
0130
0002
0000
0023
0030
0110
0000
,
0MM0
0000
0000
1000
0000
0000
0002
0000
0000
0000
0000
0000
0203
0000
0000
0000
0000
0000
0310
0000
0000
0000
00M0
0000
,
0010
0000
0100
0000
0001
0000
0000
0000
0001
0000
0010
0000
2000
0000
3000
1000
,
0010
0000
0000
0000
0000
0000
0002
0000
0000
0003
0000
0000
0100
0000
0000
0000
0100
0000
2000
0000
0000
3100
0000
0000
,
0000
0100
0002
1003
0100
0000
0110
0000
,
0MM0
0000
0000
0000
0001
0000
0000
0000
2000
0000
0000
0000
0000
0000
0000
0000
3200
0000
0000
0000
0000
0000
0000
0000
0310
0000
0000
00M0
0000
0000
0010
0000
,
0000
0000
0001
0000
1000
0000
0000
0000
1020
0000
0000
0000
0032
0000
0003
0001
,
0010
0000
0000
0000
0000
0000
2000
0000
0000
3000
0000
0000
0100
0000
0000
0000
0100
0000
0002
0000
0000
0103
0000
0000
,
0000
0000
0100
0000
0000
1000
0000
0000
1001
0000
0000
0000
0110
0000
0000
0000
,
0MM0
0000
0001
0000
2000
0000
0000
0000
3200
0000
0000
0000
0310
0000
0000
0010
,
0001
0000
1000
0000
0001
0000
0000
0001
1000
0000
0010
0000
0002
0000
0003
0001
,
0010
0000
0000
1000
0000
0000
0002
0000
0000
0000
0000
0000
0013
0000
0000
0000
0010
0000
2000
0000
0000
3010
0000
0000
,
0000
0010
0002
0203
0320
0030
0110
0000
,
0MM0
0000
1000
0000
0002
0000
0000
0000
0203
0000
0000
0300
0110
0000
0000
0000
,
0110
0000
0000
0000
1001
0000
1000
0000
0100
0000
0000
0000
0002
0000
0003
0001
,
0100
0000
0000
1000
0000
0000
0002
0000
0000
0000
0000
0000
0103
0000
0000
0000
0100
0000
2000
0000
0000
3100
0000
0000
,
0000
0100
0001
2000
3001
0000
1200
0000
,
0001
0000
0310
0100
0001
0200
0000
1000
,
0000
0000
0000
0000
0340
0000
0000
0000
0034
0000
0000
0003
0201
0000
0000
0000
,
1000
0000
0310
0100
1000
0200
0000
0010
,
0000
0310
0100
0001
1000
0001
0020
0000
,
1000
0000
0031
1000
0100
0002
0000
0100
,
0000
0000
0103
0000
4000
0000
0000
0000
3040
0000
0000
0030
0120
0000
0000
0000
,
0001
0000
1030
0001
0100
2000
0000
0100
,
0000
3100
0002
0000
2000
0000
0010
0000
,
3003
0000
0000
0000
1000
0000
0000
1000
0000
0000
0010
0000
0100
0000
0000
0000
,
0101
0001
1000
0000
0220
0330
0001
1000
,
0010
0000
0000
0000
0010
0000
0200
0000
0000
0301
0000
0000
1000
0000
0000
0100
0000
0000
0010
0000
0000
0000
0010
0000
,
0002
0000
0003
0000
0001
0000
0100
0000
0000
0000
0100
0000
2000
0000
3000
0000
1000
0000
0200
0000
0000
0010
0000
0000
,
0001
0000
0010
0000
M301
MM00
MMM0
0021
0000
0000
0000
0000
0130
0000
0000
0000
,
2100
0000
3001
0100
0010
1000
0001
0100
,
0010
0000
0010
1000
0000
0000
2001
0000
0000
3100
0000
0000
,
0021
0000
0000
0000
0000
0000
0130
0000
0000
1000
0000
0000
0100
0000
0000
1000
0000
0000
0001
0000
0000
0000
0001
0000
,
0100
0000
0100
1000
0000
1000
0200
0000
0000
0301
0000
0000
,
0021
0000
0130
1000
0001
0010
0100
1000
,
0001
1000
0010
0100
0001
1000
0100
0010
,
0100
1000
0010
0100
0010
1000
0001
0010
,
0100
1000
0001
0000
0101
0000
2010
0000
,
0001
0000
3010
0100
0001
1000
0100
0010
,
0100
0000
1100
0000
1020
0000
0130
0001
,
1000
0100
0010
0001
1000
0010
0110
0000
,
0101
0000
1001
0000
0021
0000
1030
0010
,
0001
1000
0010
0100
0001
1000
0100
0010
,
0001
1000
0001
0100
0010
0100
1000
0100
,
0010
0100
0004
0000
4003
0000
3400
0000
,
0304
0000
0000
0000
0000
0000
0103
0000
0000
1000
0000
0000
0001
0000
1000
0000
0001
0000
0MM0
0000
0000
M00M
0000
0000
,
0000
0000
1020
0000
0100
0000
0130
0001
,
1000
0000
0001
0000
0010
0000
0100
0000
0020
0000
0000
0030
0011
0000
0000
0000
,
0101
0000
0000
0000
0000
0000
0110
0000
0000
0000
0000
0000
0010
0000
0000
1000
0000
0000
0001
0000
0000
0000
0001
0000
,
0010
0100
1000
0040
0000
0000
0000
0130
,
0001
0000
0021
0000
0100
0000
0130
1000
,
0001
0000
0000
0000
0000
0000
0000
0000
1000
0000
0000
0000
0000
0000
0000
0000
0010
0000
0000
0000
0000
0000
0000
0000
0000
0100
0000
0000
0000
0000
0000
0000
0000
0000
0000
0000
0000
0000
0000
0000
0000
0100
0000
0000
0000
0000
0000
0000
0010
0000
0000
0000
0000
0000
0000
0000
0000
0000
0000
0000
0000
0000
0000
0000
,
0011
0000
0000
0101
0000
0000
0110
0000
0000
0010
0000
0010
,
1000
0010
0100
0002
0000
1003
0200
0000
,
0302
0000
0000
0000
0000
0000
0103
0000
0000
0000
0100
0000
1000
0000
0000
0000
1000
0000
0001
0000
0000
0100
0000
0000
,
0010
2002
0010
3003
;

//---------------dance-single - ledgam3r1279, so sorry...----------------
#NOTES:
     dance-single:
     ITG 06 X 08:
     Easy:
     6:
     0.433532,0.515408,0.549769,0.454475,0.073302,414.000000,339.000000,75.000000,62.000000,105.000000,0.000000,0.433532,0.515408,0.549769,0.454475,0.073302,414.000000,339.000000,75.000000,62.000000,105.000000,0.000000:
0000
0000
0000
0000
,
0000
0000
0000
0000
,
0000
0000
0000
0000
,
0000
0000
0000
0000
,
0M00
00M0
0000
M00M
0000
0M00
00M0
0000
2001
0000
0000
0000
0010
0000
0000
0000
,
3001
0010
0400
0000
,
1300
0001
0201
0010
,
0301
1000
0200
0001
,
0310
0001
MMMM
2000
,
3001
0000
0100
0010
0000
2000
0000
0000
,
3100
0010
0001
MMMM
,
1000
0010
0001
0010
,
1000
0001
1002
0010
,
1003
0010
0400
0000
,
0301
1000
1200
0010
,
1300
0001
0200
1000
,
0310
1000
MMMM
0001
,
0010
0000
0100
1000
0000
0000
0001
0000
,
0100
0010
1000
MMMM
,
0001
0010
1000
0010
,
0001
0200
0040
0000
,
0000
0000
0330
2001
,
3100
0000
0000
0000
0040
0000
0000
0000
0034
0000
0000
0000
1003
0000
0000
0020
,
0000
1030
0001
0000
0001
0000
1000
0000
,
1010
0001
0011
4000
,
0000
3010
0110
2001
,
3100
0000
0040
0000
0034
0000
1003
0001
,
0000
0001
0100
0000
0100
0000
1010
0000
,
0001
0011
1000
0200
,
0001
0320
0031
1002
,
0103
0000
0000
0000
0040
0000
0000
0000
4030
0000
0000
0000
3001
0000
0000
0010
,
0000
0001
1000
0000
1000
0000
0001
0000
,
0011
1000
1010
0004
,
0000
0013
0110
0002
,
0103
0000
0040
0000
4030
0000
3001
1000
,
0000
1000
0100
0000
0100
0000
0011
0000
,
1000
1010
0001
0020
,
1000
0230
1300
1001
,
MMMM
0110
MMMM
0001
,
0001
0000
0000
0000
0010
0000
0000
0000
0100
0000
0000
0000
2100
0000
0000
3000
,
0000
0000
0000
0000
1020
0000
0000
0030
0000
0000
0000
0000
0012
0000
0000
0003
,
0000
0000
0000
0000
0201
0000
0000
0300
0000
0000
0000
0000
0110
0000
0000
0000
,
MMMM
0000
0000
0000
1001
0000
0000
0000
MMMM
0000
0000
0000
0001
0000
0000
1000
,
0000
0000
0001
0000
0100
0000
0000
0000
1000
0000
0000
0000
0102
0000
0000
0003
,
0000
0000
0000
0000
0021
0000
0000
0030
0000
0000
0000
0000
2010
0000
0000
3000
,
0000
0000
0000
0000
0000
1100
0000
0000
0110
0000
0000
0000
1001
0000
0000
0000
,
0010
MMMM
0100
1001
,
0001
0010
0100
1200
,
1300
2010
3010
0021
,
0031
0000
0001
0100
0001
0000
1001
0000
,
0100
MMMM
0010
2001
,
0001
0010
3001
0201
,
0301
0012
0013
1020
,
1030
0000
1000
0100
1000
0000
1001
0000
,
0001
0000
0100
0000
0020
2000
0000
0000
,
3030
0000
120M
000M
031M
000M
0011
0000
,
0001
0000
0100
0000
2000
0200
0000
0000
,
3300
0000
01M2
M000
1M03
00M0
1100
0000
,
1000
0000
0100
0000
0002
2000
0000
0000
,
3003
0000
0000
0000
0000
0000
011M
0000
M000
0000
000M
0000
10M1
0000
0000
0M00
0000
0000
1010
0000
0000
0000
0000
0000
,
1000
0000
0100
0000
0020
0002
0000
0000
,
0033
0000
0000
0000
M201
M000
M000
M000
M310
0000
000M
0000
MMMM
0000
0000
0000
,
0000
0000
0000
0000
1001
0000
0000
1000
0000
0000
0010
0000
0100
0000
0000
0000
,
0001
0010
0100
0000
1001
0000
2000
0000
,
0100
0000
3001
0010
0001
0000
0100
0000
,
1010
0000
0100
0000
0011
0000
MMMM
MMMM
,
MMMM
0000
MMMM
0000
MMMM
MMMM
MMMM
MMMM
0000
0000
0000
0000
0202
0000
0000
0000
,
0303
0001
0100
1000
,
0100
0000
0000
0000
0000
0000
0000
0000
0000
0000
0000
0000
0000
0000
0000
0000
0000
0000
0000
0000
0000
0000
0000
0000
0001
0000
0000
0000
0000
0000
0000
0000
0000
0000
0000
0000
0000
0000
0000
0000
0000
0000
0000
0000
0000
0000
0000
0000
0000
0010
0000
0000
0000
0000
0000
0000
0000
0000
0000
0000
0000
0000
0000
0000
0000
0000
0000
0000
0000
0000
0000
0000
0000
0000
0000
0000
0000
0000
0000
0000
0000
0000
0000
0000
0000
0000
0000
0000
0000
0000
0000
0000
0000
0000
0000
0000
0000
0010
0000
0000
0000
0000
0000
0000
0000
0000
0000
0000
0000
0000
0000
0000
0000
0000
0000
0000
0000
0000
0000
0000
0000
0000
0000
0000
0000
0000
0000
0000
0000
0000
0000
0000
0000
0000
0000
0000
0000
0000
0000
0000
0000
0000
0000
0000
2000
0000
0000
0000
0000
0000
0000
0000
0000
0000
0000
0000
0000
0000
0000
0000
0000
0000
0000
0000
0000
0000
0000
0000
0000
0000
0000
0000
0000
0000
0000
0000
0000
0000
0000
0000
0000
0000
0000
0000
0000
0000
0000
0000
0000
0000
0000
0000
,
3000
0000
0100
1000
0100
1000
0100
0000
,
0101
0011
1010
2200
,
3300
1000
0100
0001
,
0100
1000
0010
0002
,
1000
0000
0023
0000
0100
0000
1030
0100
,
1000
0100
0010
0000
0011
0000
0202
0000
,
0303
0000
0001
0100
0001
0000
0010
0001
,
1000
0000
0000
0000
0000
0000
0000
0000
0000
0000
0000
0000
0000
0000
0000
0000
0000
0000
0000
0000
0000
0000
0000
0000
0000
0000
0000
0000
0000
0000
0000
0000
0000
0000
0000
0000
0000
0000
0000
0000
0000
0000
0000
0000
0000
0000
0000
0000
0000
0010
0000
0000
0000
0000
0000
0000
0000
0000
0000
0000
0000
0000
0000
0000
0000
0000
0000
0000
0000
0000
0000
0000
0000
0000
0000
0000
0000
0000
0000
0000
0000
0000
0000
0000
0000
0000
0000
0000
0000
0000
0000
0000
0000
0000
0000
0000
0000
0010
0000
0000
0000
0000
0000
0000
0000
0000
0000
0000
0000
0000
0000
0000
0000
0000
0000
0000
0000
0000
0000
0000
0000
0000
0000
0000
0000
0000
0000
0000
0000
0000
0000
0000
0000
0000
0000
0000
0000
0000
0000
0000
0000
0000
0000
0000
0001
0000
0000
0000
0000
0000
0000
0000
0000
0000
0000
0000
0000
0000
0000
0000
0000
0000
0000
0000
0000
0000
0000
0000
0100
0000
0000
0000
0000
0000
0000
0000
0000
0000
0000
0000
0000
0000
0000
0000
0000
0000
0000
0000
0000
0000
0000
0000
,
0001
0000
1000
0010
1000
0000
1100
0000
,
0101
0000
1010
0000
0011
0000
0010
0001
,
1000
0001
0100
1000
,
0100
0001
0010
2000
,
0001
3040
0430
4300
,
3004
0000
0000
0000
0000
0000
0103
0000
0000
0010
0000
0000
0100
0000
0001
0000
0100
0000
M000
0000
0000
0MMM
0000
0000
,
0000
0000
2001
0000
3100
0000
0040
0004
,
0000
0030
0203
0000
2300
0000
3100
0000
,
0101
1000
1100
0010
,
0011
0000
4000
0000
3040
0000
0130
0001
,
0010
0000
1002
0000
0103
0000
0040
4000
,
0000
0030
3100
0001
0000
0001
0100
0000
,
1100
0001
0101
0010
,
1010
1200
0001
2300
,
0010
0000
3004
0000
4003
0000
3100
0010
,
0001
0101
2010
0002
,
0000
0000
0000
3003
;

//---------------dance-single - Not sorry.----------------
#NOTES:
     dance-single:
     ITG 04 X 06:
     Beginner:
     4:
     0.247134,0.416725,0.410494,0.175926,0.212577,236.000000,180.000000,56.000000,24.000000,159.000000,0.000000,0.247134,0.416725,0.410494,0.175926,0.212577,236.000000,180.000000,56.000000,24.000000,159.000000,0.000000:
// measure 0
0000
0000
0000
0000
,  // measure 1
0000
0000
0000
0000
,  // measure 2
0000
0000
0000
0000
,  // measure 3
0000
0000
0000
0000
,  // measure 4
M000
000M
0000
0MM0
0000
000M
M000
0000
0001
0000
0000
0000
0000
0000
0000
0000
,  // measure 5
1000
0000
0040
0000
,  // measure 6
0000
0030
0110
0000
,  // measure 7
1001
0000
0040
0000
,  // measure 8
0000
0030
MMMM
0000
,  // measure 9
1001
0000
0000
1000
0000
1000
0000
0000
,  // measure 10
0100
0100
0100
MMMM
,  // measure 11
1001
0000
0010
0000
,  // measure 12
1001
0000
1000
0000
,  // measure 13
0001
0000
0400
0000
,  // measure 14
0000
0300
0110
0000
,  // measure 15
1001
0000
0400
0000
,  // measure 16
0000
0300
MMMM
0000
,  // measure 17
1001
0000
0000
0110
0000
0000
0000
0000
,  // measure 18
0010
0010
0010
MMMM
,  // measure 19
1001
0000
0100
0100
,  // measure 20
0100
0000
0000
0000
0000
0000
0000
0000
0000
0000
0000
0000
0000
0000
0000
0000
0000
0000
0000
0000
0000
0000
0000
0000
M000
0000
0000
0000
0M00
0000
0000
0000
00M0
0000
0000
0000
000M
0000
0000
0000
M000
0000
0000
0M00
0000
0000
00M0
0000
,  // measure 21
0000
0000
0000
0000
000M
0000
0000
0000
0000
0000
0000
0000
M000
0000
0000
0000
0000
0000
0000
0000
0M00
0000
0000
0000
0000
0000
0000
0000
00M0
0000
0000
0000
0000
0000
0000
0000
000M
0000
0000
0000
0000
0000
0000
0000
M000
0000
0000
0000
0000
0000
0M00
0000
0000
0000
0000
0000
00M0
0000
0000
0000
0000
0000
000M
0000
0000
0000
M000
0000
0000
0000
0M00
0000
0000
0000
00M0
0000
0000
0000
000M
0000
0000
M000
0000
0000
0M00
0000
0000
00M0
0000
0000
000M
0000
0000
0000
0000
0000
MMMM
0000
0000
0000
0000
0000
0000
0000
0000
0000
0000
0000
0000
0000
0000
0000
0000
0000
0000
0000
0000
0000
0000
0000
0000
0000
0000
0000
0000
0000
0000
0000
0000
0000
0000
0000
0000
0000
0000
0000
0000
0000
0000
0000
0000
0000
0000
0000
1001
0000
0000
0000
0000
0000
0000
0000
0000
0000
0000
0000
0000
0000
0000
0000
0000
0000
0000
0000
0000
0000
0000
0000
0000
0000
0000
0000
0000
0000
0000
0000
0000
0000
0000
0000
0000
0000
0000
0000
0000
0000
0000
0000
0000
0000
0000
0000
,  // measure 22
0000
0001
0000
0400
,  // measure 23
0000
0300
0100
0010
,  // measure 24
0000
0000
1000
0000
0000
0000
0004
4000
,  // measure 25
0000
0000
0000
3003
0000
0000
1001
0000
,  // measure 26
0000
1000
0000
0200
,  // measure 27
0000
0310
0010
0010
,  // measure 28
0000
0001
0000
1001
,  // measure 29
0000
0110
0000
1001
,  // measure 30
0000
1000
0000
0400
,  // measure 31
0000
0300
0100
0010
,  // measure 32
0000
0000
0001
0000
0000
0000
4000
0004
,  // measure 33
0000
0000
0000
3003
0000
0000
1001
0000
,  // measure 34
0000
0001
0000
0200
,  // measure 35
0000
0010
0010
0310
,  // measure 36
0000
1000
0000
1001
,  // measure 37
0000
0110
0000
2010
,  // measure 38
0MMM
3001
0000
0100
,  // measure 39
0100
0000
0000
0000
0000
0000
0000
0000
0000
0000
0000
0000
0000
0000
0000
0000
0000
0000
0000
0000
0000
0000
0000
0000
0000
0000
0000
0000
0000
0000
0000
0000
0000
0000
0000
0000
0000
0000
0000
0000
0000
0000
0000
0000
0000
0000
0000
0000
0100
0000
0000
0000
0000
0000
0000
0000
0000
0000
0000
0000
0000
0000
0000
0000
0000
0000
0000
0000
0000
0000
0000
0000
0000
0000
0000
0000
0000
0000
0000
0000
0000
0000
0000
0000
0000
0000
0000
0000
0000
0000
0000
0000
0000
0000
0000
0000
0000
0000
0000
0000
0000
0000
0000
0000
0000
0000
0000
0000
0000
0000
0000
0000
0000
0000
0000
0000
0000
0000
0000
0000
0000
0000
0000
0000
0000
0000
0000
0000
0000
0000
0000
0000
0000
0000
0000
0000
0000
0000
0000
0000
0000
0000
0000
0000
0000
1000
0000
0000
0000
0000
0000
0000
0000
0000
0000
0000
0000
0000
0000
0000
0000
0000
0000
0000
0000
0000
0000
0000
0000
0000
0000
0000
0000
0000
0000
0000
0000
0000
0000
0000
0000
0000
0000
0000
0000
0000
0000
0000
0000
0000
0000
0000
,  // measure 40
0000
0000
0000
0000
0000
0000
0000
0000
0000
0000
0000
0000
0000
0000
0000
0000
0000
0000
0000
0000
0000
0000
0000
0000
0000
0000
0000
0000
0000
0000
0000
0000
0000
0000
0000
0000
0000
0000
0000
0000
0000
0000
0000
0000
0000
0000
0000
0000
0000
1000
0000
0000
0000
0000
0000
0000
0000
0000
0000
0000
0000
0000
0000
0000
0000
0000
0000
0000
0000
0000
0000
0000
0000
0000
0000
0000
0000
0000
0000
0000
0000
0000
0000
0000
0000
0000
0000
0000
0000
0000
0000
0000
0000
0000
0000
0000
0000
0000
0000
0000
0000
0000
0000
0000
0000
0000
0000
0000
0000
0000
0000
0000
0000
0000
0000
0000
0000
0000
0000
0000
0000
0000
0000
0000
0000
0000
0000
0000
0000
0000
0000
0000
0000
0000
0000
0000
0000
0000
0000
0000
0000
0000
0000
0000
0000
0010
0000
0000
0000
0000
0000
0000
0000
0000
0000
0000
0000
0000
0000
0000
0000
0000
0000
0000
0000
0000
0000
0000
0000
0000
0000
0000
0000
0000
0000
0000
0000
0000
0000
0000
0000
0000
0000
0000
0000
0000
0000
0000
0000
0000
0000
0000
,  // measure 41
0000
0000
0000
0000
0000
0000
0000
0000
0000
0000
0000
0000
0000
0000
0000
0000
0000
0000
0000
0000
0000
0000
0000
0000
0000
0000
0000
0000
0000
0000
0000
0000
0000
0000
0000
0000
0000
0000
0000
0000
0000
0000
0000
0000
0000
0000
0000
0000
0000
0010
0000
0000
0000
0000
0000
0000
0000
0000
0000
0000
0000
0000
0000
0000
0000
0000
0000
0000
0000
0000
0000
0000
0000
0000
0000
0000
0000
0000
0000
0000
0000
0000
0000
0000
0000
0000
0000
0000
0000
0000
0000
0000
0000
0000
0000
0000
0000
0000
0000
0000
0000
0000
0000
0000
0000
0000
0000
0000
0000
0000
0000
0000
0000
0000
0000
0000
0000
0000
0000
0000
0000
0000
0000
0000
0000
0000
0000
0000
0000
0000
0000
0000
0000
0000
0000
0000
0000
0000
0000
0000
0000
0000
0000
0000
0012
0000
0000
0000
0000
0000
0000
0000
0000
0000
0000
0000
0000
0000
0000
0000
0000
0000
0000
0000
0000
0000
0000
0000
0000
0000
0000
0000
0000
0000
0000
0000
0000
0000
0000
0000
0000
0000
0000
0000
0000
0000
0000
0000
0000
0000
0000
0000
,  // measure 42
MMM0
1003
0000
0010
,  // measure 43
0010
0000
0000
0000
0000
0000
0000
0000
0000
0000
0000
0000
0000
0000
0000
0000
0000
0000
0000
0000
0000
0000
0000
0000
0000
0000
0000
0000
0000
0000
0000
0000
0000
0000
0000
0000
0000
0000
0000
0000
0000
0000
0000
0000
0000
0000
0000
0000
0010
0000
0000
0000
0000
0000
0000
0000
0000
0000
0000
0000
0000
0000
0000
0000
0000
0000
0000
0000
0000
0000
0000
0000
0000
0000
0000
0000
0000
0000
0000
0000
0000
0000
0000
0000
0000
0000
0000
0000
0000
0000
0000
0000
0000
0000
0000
0000
MM0M
0000
0000
0000
0000
0000
0000
0000
0000
0000
0000
0000
0000
0000
0000
0000
0000
0000
0000
0000
0000
0000
0000
0000
0000
0000
0000
0000
0000
0000
0000
0000
0000
0000
0000
0000
0000
0000
0000
0000
0000
0000
0000
0000
0000
0000
0000
0000
0000
0001
0000
0000
0000
0000
0000
0000
0000
0000
0000
0000
0000
0000
0000
0000
0000
0000
0000
0000
0000
0000
0000
0000
0000
0000
0000
0000
0000
0000
0000
0000
0000
0000
0000
0000
0000
0000
0000
0000
0000
0000
0000
0000
0000
0000
0000
0000
,  // measure 44
0000
0000
0000
0000
0000
0000
0000
0000
0000
0000
0000
0000
0000
0000
0000
0000
0000
0000
0000
0000
0000
0000
0000
0000
0000
0000
0000
0000
0000
0000
0000
0000
0000
0000
0000
0000
0000
0000
0000
0000
0000
0000
0000
0000
0000
0000
0000
0000
0000
0001
0000
0000
0000
0000
0000
0000
0000
0000
0000
0000
0000
0000
0000
0000
0000
0000
0000
0000
0000
0000
0000
0000
0000
0000
0000
0000
0000
0000
0000
0000
0000
0000
0000
0000
0000
0000
0000
0000
0000
0000
0000
0000
0000
0000
0000
0000
0000
0000
0000
0000
0000
0000
0000
0000
0000
0000
0000
0000
0000
0000
0000
0000
0000
0000
0000
0000
0000
0000
0000
0000
0000
0000
0000
0000
0000
0000
0000
0000
0000
0000
0000
0000
0000
0000
0000
0000
0000
0000
0000
0000
0000
0000
0000
0000
0100
0000
0000
0000
0000
0000
0000
0000
0000
0000
0000
0000
0000
0000
0000
0000
0000
0000
0000
0000
0000
0000
0000
0000
0000
0000
0000
0000
0000
0000
0000
0000
0000
0000
0000
0000
0000
0000
0000
0000
0000
0000
0000
0000
0000
0000
0000
0000
,  // measure 45
0000
0000
0000
0000
0000
0MM0
0000
0000
M00M
0000
0000
0000
0102
0000
0000
0000
,  // measure 46
MMM0
2003
0MMM
3100
,  // measure 47
0100
0000
0000
0000
0000
0000
0000
0000
0000
0000
0000
0000
0000
0000
0000
0000
0000
0000
0000
0000
0000
0000
0000
0000
0000
0000
0000
0000
0000
0000
0000
0000
0000
0000
0000
0000
0000
0000
0000
0000
0000
0000
0000
0000
0000
0000
0000
0000
0100
0000
0000
0000
0000
0000
0000
0000
0000
0000
0000
0000
0000
0000
0000
0000
0000
0000
0000
0000
0000
0000
0000
0000
0000
0000
0000
0000
0000
0000
0000
0000
0000
0000
0000
0000
0000
0000
0000
0000
0000
0000
0000
0000
0000
0000
0000
0000
0000
0000
0000
0000
0000
0000
0000
0000
0000
0000
0000
0000
0000
0000
0000
0000
0000
0000
0000
0000
0000
0000
0000
0000
0000
0000
0000
0000
0000
0000
0000
0000
0000
0000
0000
0000
0000
0000
0000
0000
0000
0000
0000
0000
0000
0000
0000
0000
0000
0001
0000
0000
0000
0000
0000
0000
0000
0000
0000
0000
0000
0000
0000
0000
0000
0000
0000
0000
0000
0000
0000
0000
0000
0000
0000
0000
0000
0000
0000
0000
0000
0000
0000
0000
0000
0000
0000
0000
0000
0000
0000
0000
0000
0000
0000
0000
,  // measure 48
0000
0000
0000
0000
0000
0000
0000
0000
0000
0000
0000
0000
0000
0000
0000
0000
0000
0000
0000
0000
0000
0000
0000
0000
0000
0000
0000
0000
0000
0000
0000
0000
0000
0000
0000
0000
0000
0000
0000
0000
0000
0000
0000
0000
0000
0000
0000
0000
0000
0001
0000
0000
0000
0000
0000
0000
0000
0000
0000
0000
0000
0000
0000
0000
0000
0000
0000
0000
0000
0000
0000
0000
0000
0000
0000
0000
0000
0000
0000
0000
0000
0000
0000
0000
0000
0000
0000
0000
0000
0000
0000
0000
0000
0000
0000
0000
0000
0000
0000
0000
0000
0000
0000
0000
0000
0000
0000
0000
0000
0000
0000
0000
0000
0000
0000
0000
0000
0000
0000
0000
0000
0000
0000
0000
0000
0000
0000
0000
0000
0000
0000
0000
0000
0000
0000
0000
0000
0000
0000
0000
0000
0000
0000
0000
0010
0000
0000
0000
0000
0000
0000
0000
0000
0000
0000
0000
0000
0000
0000
0000
0000
0000
0000
0000
0000
0000
0000
0000
0000
0000
0000
0000
0000
0000
0000
0000
0000
0000
0000
0000
0000
0000
0000
0000
0000
0000
0000
0000
0000
0000
0000
0000
,  // measure 49
0000
0100
0100
2100
,  // measure 50
0MMM
3002
MMM0
1003
,  // measure 51
0000
0000
0000
0000
0000
0000
0000
0000
0000
0000
0000
0000
0000
0000
0000
0000
0000
0000
0000
0000
0000
0000
0000
0000
0000
0000
0000
0000
0000
0000
0000
0000
0000
0000
0000
0000
0000
0000
0000
0000
0000
0000
0000
0000
0000
0000
0000
0000
0010
0000
0000
0000
0000
0000
0000
0000
0000
0000
0000
0000
0000
0000
0000
0000
0000
0000
0000
0000
0000
0000
0000
0000
0000
0000
0000
0000
0000
0000
0000
0000
0000
0000
0000
0000
0000
0000
0000
0000
0000
0000
0000
0000
0000
0000
0000
0000
0000
0000
0000
0000
0000
0000
0000
0000
0000
0000
0000
0000
0000
0000
0000
0000
0000
0000
0000
0000
0000
0000
0000
0000
0000
0000
0000
0000
0000
0000
0000
0000
0000
0000
0000
0000
0000
0000
0000
0000
0000
0000
0000
0000
0000
0000
0000
0000
0000
0001
0000
0000
0000
0000
0000
0000
0000
0000
0000
0000
0000
0000
0000
0000
0000
0000
0000
0000
0000
0000
0000
0000
0000
0000
0000
0000
0000
0000
0000
0000
0000
0000
0000
0000
0000
0000
0000
0000
0000
0000
0000
0000
0000
0000
0000
0000
,  // measure 52
0000
0000
0000
0000
0000
0000
0000
0000
0000
0000
0000
0000
0000
0000
0000
0000
0000
0000
0000
0000
0000
0000
0000
0000
0000
0000
0000
0000
0000
0000
0000
0000
0000
0000
0000
0000
0000
0000
0000
0000
0000
0000
0000
0000
0000
0000
0000
0000
0000
0001
0000
0000
0000
0000
0000
0000
0000
0000
0000
0000
0000
0000
0000
0000
0000
0000
0000
0000
0000
0000
0000
0000
0000
0000
0000
0000
0000
0000
0000
0000
0000
0000
0000
0000
0000
0000
0000
0000
0000
0000
0000
0000
0000
0000
0000
0000
0000
0000
0000
0000
0000
0000
0000
0000
0000
0000
0000
0000
0000
0000
0000
0000
0000
0000
0000
0000
0000
0000
0000
0000
0000
0000
0000
0000
0000
0000
0000
0000
0000
0000
0000
0000
0000
0000
0000
0000
0000
0000
0000
0000
0000
0000
0000
0000
0100
0000
0000
0000
0000
0000
0000
0000
0000
0000
0000
0000
0000
0000
0000
0000
0000
0000
0000
0000
0000
0000
0000
0000
0000
0000
0000
0000
0000
0000
0000
0000
0000
0000
0000
0000
0000
0000
0000
0000
0000
0000
0000
0000
0000
0000
0000
0000
,  // measure 53
0000
0000
0000
0MM0
M00M
0000
1001
0000
,  // measure 54
0000
0000
0002
0000
0000
0200
0000
0000
,  // measure 55
0000
0303
0M0M
0000
0000
0000
1001
0000
,  // measure 56
0000
0000
0020
0000
0000
0002
0000
0000
,  // measure 57
0000
0033
00MM
0000
0000
0000
1001
0000
,  // measure 58
0000
0000
0200
0000
0000
2000
0000
0000
,  // measure 59
0000
3300
MM00
0000
0000
0000
1001
0000
,  // measure 60
0000
0000
2000
0000
0000
0020
0000
0000
,  // measure 61
0000
0000
0000
0000
0000
0000
0000
0000
0000
0000
0000
0000
0000
0000
0000
0000
0000
0000
0000
0000
0000
0000
0000
0000
3030
0000
0000
0000
0000
0000
0000
0000
0000
0000
0000
0000
0000
0000
0000
0000
0000
0000
0000
0000
0000
0000
0000
0000
M0M0
0000
0000
0000
0000
0000
0000
0000
0000
0000
0000
0000
0000
0000
0000
0000
0000
0000
0000
0000
0000
0000
0000
0000
0000
0000
0000
0000
0000
0000
0000
0000
0000
0000
0000
0000
0000
0000
0000
0000
0000
0000
0000
0000
0000
0000
0000
0000
0000
0000
0000
0000
0000
0000
0000
0000
0000
0000
0000
0000
0000
0000
0000
0000
0000
0000
0000
0000
0000
0000
0000
0000
0000
0000
0000
0000
0000
0000
0000
0000
0000
0000
0000
0000
0000
0000
0000
0000
0000
0000
0000
0000
0000
0000
0000
0000
1001
0220
0000
0000
0000
0000
0000
0000
0000
0000
0000
0000
0000
0000
0000
0000
0000
0000
0000
0000
0000
0000
0000
0000
0000
0000
0000
0000
0000
0000
0000
0000
0000
0000
0000
0000
0000
0000
0000
0000
0000
0000
0000
0000
0000
0000
0000
0000
,  // measure 62
0000
0000
0000
0000
0330
0000
0000
M00M
0000
0000
0MM0
0000
0001
0000
0000
0000
,  // measure 63
0001
0000
0110
0000
,  // measure 64
1000
1000
1000
0000
,  // measure 65
1001
0000
0110
MMMM
,  // measure 66
0000
0000
0000
0000
0000
0000
0000
0000
0000
0000
0000
0000
0000
0000
0000
0000
0000
0000
0000
0000
0000
0000
0000
0000
0000
0000
0000
0000
0000
0000
0000
0000
0000
0000
0000
0000
0000
0000
0000
0000
0000
0000
0000
0000
0000
0000
0000
0000
0000
0000
0000
0000
0000
0000
0000
0000
0000
0000
0000
0000
0000
0000
0000
0000
0000
0000
0000
0000
0000
0000
0000
0000
0000
0000
0000
0000
0000
0000
0000
0000
0000
0000
0000
0000
0110
2002
0000
0000
0000
0000
0000
0000
0000
0000
0000
0000
0000
0000
0000
0000
0000
0000
0000
0000
0000
0000
0000
0000
0000
0000
0000
0000
0000
0000
0000
0000
0000
0000
0000
0000
0000
0000
0000
0000
0000
0000
0000
0000
0000
0000
0000
0000
0000
0000
0000
0000
0000
0000
0000
0000
0000
0000
0000
0000
3003
0000
0000
0000
0000
0000
0000
0000
0000
0000
0000
0000
0000
0000
0000
0000
0000
0000
0000
0000
0000
0000
0000
0000
0000
0000
0000
0000
0000
0000
0000
0000
0000
0000
0000
0000
0000
0000
0000
0000
0000
0000
0000
0000
0000
0000
0000
0000
,  // measure 67
0000
0004
0000
0000
,  // measure 68
0003
0110
0110
0000
,  // measure 69
0000
4000
0000
3010
,  // measure 70
0010
0010
MMMM
0000
,  // measure 71
0000
4000
0000
0000
,  // measure 72
3000
0100
0000
0001
,  // measure 73
0000
0010
0000
1000
,  // measure 74
0001
1001
1001
MMMM
,  // measure 75
0000
0110
0000
1000
,  // measure 76
0000
1001
1001
MMMM
,  // measure 77
0010
0010
0000
0110
,  // measure 78
0110
0110
MMMM
1001
,  // measure 79
0000
0004
0000
0000
,  // measure 80
0003
0100
0100
1000
,  // measure 81
0000
0040
0000
0034
,  // measure 82
0000
0000
1003
0000
1001
0000
M00M
0MM0
,  // measure 83
0000
1010
0000
1000
,  // measure 84
0000
0001
0001
0011
,  // measure 85
0000
1100
0000
1000
,  // measure 86
1000
0000
4000
0004
0000
0000
0000
3003
,  // measure 87
MMMM
0011
0000
0001
,  // measure 88
0001
0001
0000
0101
,  // measure 89
0000
1010
0000
1001
,  // measure 90
0000
2100
0MMM
3020
,  // measure 91
MM0M
0130
0100
0100
,  // measure 92
0110
0000
0000
0000
0000
0000
0000
0000
0000
0000
0000
0000
0000
0000
0000
0000
0000
0000
0000
0000
0000
0000
0000
0000
0000
0000
0000
0000
0000
0000
0000
0000
0000
0000
0000
0000
0000
0000
0000
0000
0000
0000
0000
0000
0000
0000
0000
0000
MMMM
0000
0000
0000
0000
0000
0000
0000
0000
0000
0000
0000
0000
0000
0000
0000
0000
0000
0000
0000
0000
0000
0000
0000
0000
0000
0000
0000
0000
0000
0000
0000
0000
0000
0000
0000
0000
0000
0000
0000
0000
0000
0000
0000
0000
0000
0000
0000
1001
0220
0000
0000
0000
0000
0000
0000
0000
0000
0000
0000
0000
0000
0000
0000
0000
0000
0000
0000
0000
0000
0000
0000
0000
0000
0000
0000
0000
0000
0000
0000
0000
0000
0000
0000
0000
0000
0000
0000
0000
0000
0000
0000
0000
0000
0000
0000
M330
0000
0000
0000
0000
0000
0000
0000
0000
0000
0000
0000
000M
0000
0000
0000
0000
0000
0000
0000
0000
0000
0000
0000
M000
0000
0000
0000
0000
0000
0000
0000
0000
0000
0000
0000
000M
0000
0000
0000
0000
0000
0000
0000
0000
0000
0000
0000
,  // measure 93
M000
0000
0M00
0000
00M0
0000
000M
0000
0000
0000
0000
0000
0000
0000
0000
0000
00M0
0M00
00M0
0M00
00M0
0M00
00M0
0M00
000M
0000
M000
0000
000M
0000
M000
0000
,  // measure 94
000M
0M00
00M0
M000
0000
0M00
0000
0000
000M
0M00
M000
00M0
0M00
0000
0000
0000
;
