#TITLE:Valanga;
#SUBTITLE:;
#ARTIST:DJ TOTTO;
#TITLETRANSLIT:;
#SUBTITLETRANSLIT:;
#ARTISTTRANSLIT:;
#GENRE:;
#CREDIT:;
#BANNER:Valanga.png;
#BACKGROUND:Valanga-bg.png;
#LYRICSPATH:;
#CDTITLE:;
#MUSIC:Valanga.ogg;
#OFFSET:-1.715002;
#SAMPLESTART:64.072990;
#SAMPLELENGTH:10.000002;
#SELECTABLE:YES;
#BPMS:0.000000=186.000000
;
#STOPS:
;
#BGCHANGES:;
#KEYSOUNDS:;
#ATTACKS:;

//---------------dance-single - ----------------
#NOTES:
     dance-single:
     :
     Easy:
     4:
     0.269379,0.313845,0.000000,0.017221,0.000000,219.000000,219.000000,0.000000,2.000000,0.000000,0.000000,0.269379,0.313845,0.000000,0.017221,0.000000,219.000000,219.000000,0.000000,2.000000,0.000000,0.000000:
// measure 0
0000
0000
0000
0000
,  // measure 1
0000
0000
0000
0000
,  // measure 2
0000
0000
0000
0000
,  // measure 3
0100
0000
0000
0000
,  // measure 4
0010
0000
0000
0000
,  // measure 5
0100
0000
0000
0000
,  // measure 6
0001
0000
0000
0000
,  // measure 7
1000
0000
1000
0000
,  // measure 8
0001
0000
0001
0000
,  // measure 9
0100
0000
0000
0000
,  // measure 10
0010
0000
1000
0000
,  // measure 11
0010
0000
0100
0000
,  // measure 12
0001
0000
1000
0000
,  // measure 13
0001
1000
0001
0000
,  // measure 14
1000
0100
1000
0000
,  // measure 15
0001
0001
0100
0100
,  // measure 16
0010
0000
1000
1000
,  // measure 17
0001
0000
0001
0100
,  // measure 18
0001
0000
1000
0010
,  // measure 19
1000
0000
0001
0010
,  // measure 20
0001
0000
0100
0010
,  // measure 21
0100
0000
0010
0000
,  // measure 22
1000
0100
0010
0001
,  // measure 23
1000
0000
0001
0000
,  // measure 24
0100
0000
0001
0000
,  // measure 25
1000
0010
0001
0000
,  // measure 26
1000
0100
0001
0000
,  // measure 27
0001
1000
0001
0000
,  // measure 28
1000
0010
1000
0000
,  // measure 29
0001
0100
0010
0100
,  // measure 30
0001
0000
1000
0000
,  // measure 31
0001
0001
0000
1000
,  // measure 32
1000
0000
0001
0000
,  // measure 33
0100
0100
0000
0010
,  // measure 34
0010
0000
1000
0000
,  // measure 35
0001
0001
0100
0000
,  // measure 36
0100
0010
0000
0000
,  // measure 37
1000
1000
0000
0001
,  // measure 38
0001
1000
0001
1000
,  // measure 39
0100
0000
0010
0000
,  // measure 40
0001
0000
0100
0010
,  // measure 41
0100
0000
0010
0000
,  // measure 42
1000
0000
0001
0100
,  // measure 43
0001
0000
0100
0000
,  // measure 44
0010
0000
0100
0010
,  // measure 45
1000
0100
0010
0001
,  // measure 46
1000
0001
1000
0001
,  // measure 47
0200
0000
0000
0000
,  // measure 48
0310
0000
0000
0000
,  // measure 49
1000
0001
1000
0001
,  // measure 50
0100
0000
0010
1000
,  // measure 51
0001
1000
0010
0100
,  // measure 52
0001
0000
1000
0001
,  // measure 53
1000
0010
0100
0010
,  // measure 54
1000
0000
0001
0100
,  // measure 55
0020
0000
0130
0001
,  // measure 56
0100
0000
0001
1000
,  // measure 57
0001
1000
0010
0100
,  // measure 58
0010
0000
1000
0001
,  // measure 59
1000
0000
0001
0100
,  // measure 60
0001
0000
0100
0010
,  // measure 61
0100
0100
0010
1000
,  // measure 62
0010
0000
1000
0001
,  // measure 63
1000
0000
0001
0000
,  // measure 64
0100
0000
0001
0000
,  // measure 65
1000
0010
1000
0010
,  // measure 66
0100
0010
0100
0010
,  // measure 67
1000
0001
1000
0001
,  // measure 68
0100
0000
0010
1000
,  // measure 69
0010
0100
0001
1000
,  // measure 70
0001
0000
0100
0010
,  // measure 71
1000
0010
0100
0000
,  // measure 72
0001
1000
0001
0000
,  // measure 73
1000
1000
0010
0010
,  // measure 74
0100
0000
0001
0000
,  // measure 75
1000
0001
1000
0000
,  // measure 76
0001
0010
0001
0000
,  // measure 77
0100
0001
0100
0000
,  // measure 78
0001
1000
0001
0000
,  // measure 79
1000
0010
1000
0000
,  // measure 80
0010
0000
0100
0001
,  // measure 81
0100
0000
0000
0000
;

//---------------dance-single - ----------------
#NOTES:
     dance-single:
     :
     Beginner:
     2:
     0.158675,0.174359,0.000000,0.000000,0.000000,129.000000,129.000000,0.000000,0.000000,0.000000,0.000000,0.158675,0.174359,0.000000,0.000000,0.000000,129.000000,129.000000,0.000000,0.000000,0.000000,0.000000:
// measure 0
0000
0000
0000
0000
,  // measure 1
0000
0000
0000
0000
,  // measure 2
0000
0000
0000
0000
,  // measure 3
1000
0000
0000
0000
,  // measure 4
0001
0000
0000
0000
,  // measure 5
1000
0000
0000
0000
,  // measure 6
0010
0000
0000
0000
,  // measure 7
0100
0000
0000
0000
,  // measure 8
0010
0000
0000
0000
,  // measure 9
1000
0000
0000
0000
,  // measure 10
0001
0000
0000
0000
,  // measure 11
0100
0000
0000
0000
,  // measure 12
0010
0000
0000
0000
,  // measure 13
0100
0000
0100
0000
,  // measure 14
0001
0000
1000
0000
,  // measure 15
0001
0000
0000
0000
,  // measure 16
1000
0000
0010
0000
,  // measure 17
1000
0000
0000
0000
,  // measure 18
0001
0000
0100
0000
,  // measure 19
0001
0000
1000
0000
,  // measure 20
0010
0000
0100
0000
,  // measure 21
0010
0000
0000
0000
,  // measure 22
1000
0000
0001
0000
,  // measure 23
1000
0000
0010
0000
,  // measure 24
0100
0000
0000
0000
,  // measure 25
0010
0000
1000
0000
,  // measure 26
0001
0000
1000
0000
,  // measure 27
0010
0000
0000
0000
,  // measure 28
0100
0000
0001
0000
,  // measure 29
1000
0000
0001
0000
,  // measure 30
0100
0000
0000
0000
,  // measure 31
0010
0000
0010
0000
,  // measure 32
0100
0000
0100
0000
,  // measure 33
0001
0000
0001
0000
,  // measure 34
1000
0000
1000
0000
,  // measure 35
0001
0000
0001
0000
,  // measure 36
0100
0000
0100
0000
,  // measure 37
0010
0000
0010
0000
,  // measure 38
1000
0000
1000
0000
,  // measure 39
0001
0000
0000
0000
,  // measure 40
1000
0000
0001
0000
,  // measure 41
1000
0000
0000
0000
,  // measure 42
0001
0000
0100
0000
,  // measure 43
0001
0000
1000
0000
,  // measure 44
0010
0000
0100
0000
,  // measure 45
0010
0000
0000
0000
,  // measure 46
1000
0000
0001
0000
,  // measure 47
1000
0000
0000
0000
,  // measure 48
0000
0000
0000
0000
,  // measure 49
0001
0000
1000
0000
,  // measure 50
0001
0000
0000
0000
,  // measure 51
0100
0000
0100
0000
,  // measure 52
0010
0000
0000
0000
,  // measure 53
0010
0000
1000
0000
,  // measure 54
1000
0000
0001
0000
,  // measure 55
0001
0000
0000
0000
,  // measure 56
0100
0000
0100
0000
,  // measure 57
0010
0000
0010
0000
,  // measure 58
1000
0000
0001
0000
,  // measure 59
1000
0000
0000
0000
,  // measure 60
0001
0000
0100
0000
,  // measure 61
0001
0000
0000
0000
,  // measure 62
1000
0000
0010
0000
,  // measure 63
1000
0000
0001
0000
,  // measure 64
0100
0000
0000
0000
,  // measure 65
0010
0000
0010
0000
,  // measure 66
0100
0000
0100
0000
,  // measure 67
0001
0000
0001
0000
,  // measure 68
1000
0000
1000
0000
,  // measure 69
0001
0000
0001
0000
,  // measure 70
0010
0000
0010
0000
,  // measure 71
0001
0000
0001
0000
,  // measure 72
0100
0000
0100
0000
,  // measure 73
0010
0000
0010
0000
,  // measure 74
1000
0000
1000
0000
,  // measure 75
0001
0000
0001
0000
,  // measure 76
1000
0000
1000
0000
,  // measure 77
0100
0000
0100
0000
,  // measure 78
0010
0000
0010
0000
,  // measure 79
0001
0000
0001
0000
,  // measure 80
1000
0000
1000
0000
,  // measure 81
0001
0000
0000
0000
;

//---------------dance-single - ----------------
#NOTES:
     dance-single:
     :
     Medium:
     6:
     0.416984,0.456131,0.060272,0.043051,0.000000,339.000000,332.000000,7.000000,5.000000,0.000000,0.000000,0.416984,0.456131,0.060272,0.043051,0.000000,339.000000,332.000000,7.000000,5.000000,0.000000,0.000000:
// measure 0
0000
0000
0000
0000
,  // measure 1
0000
0000
0000
0000
,  // measure 2
0000
0000
0000
0000
,  // measure 3
1000
0001
1000
0010
,  // measure 4
0100
0010
1000
0100
,  // measure 5
1000
0001
0100
0010
,  // measure 6
0100
0001
1000
0100
,  // measure 7
1000
1000
0010
0100
,  // measure 8
0010
1000
0001
0100
,  // measure 9
0010
0100
0001
0010
,  // measure 10
1000
0010
0001
0100
,  // measure 11
1000
0100
0001
1000
,  // measure 12
0010
1000
0010
0100
,  // measure 13
0001
0100
0001
1000
,  // measure 14
0010
1000
0010
0000
0010
0100
0010
0000
,  // measure 15
1000
0001
1000
0000
0010
0000
1000
0000
,  // measure 16
0100
0000
1000
0000
0001
0100
0001
0000
,  // measure 17
0100
0010
1000
0001
,  // measure 18
1000
0100
1000
0010
,  // measure 19
0100
0010
0100
0000
0001
0000
1000
0000
,  // measure 20
0001
1000
0100
0010
,  // measure 21
0001
1000
0001
1000
,  // measure 22
0010
0100
0010
0100
,  // measure 23
1010
0000
1000
0000
0100
1000
0100
0000
,  // measure 24
1000
0001
0100
0010
,  // measure 25
0100
0001
1000
0001
,  // measure 26
1000
0010
0100
0010
,  // measure 27
1100
0100
1000
0001
,  // measure 28
0100
0010
0100
0001
,  // measure 29
1000
0001
1000
0000
0010
0000
1000
0000
,  // measure 30
0100
1000
0010
0000
,  // measure 31
0100
0010
0000
0010
1000
0000
1000
0010
,  // measure 32
0000
0010
1000
0000
1000
0000
0001
0000
,  // measure 33
1000
0001
0000
0001
0100
0000
0100
0010
,  // measure 34
0000
0010
1000
0000
1000
0000
0001
0000
,  // measure 35
0100
0010
0000
0010
1000
0000
1000
0100
,  // measure 36
0000
0100
1000
0000
1000
0000
0001
0000
,  // measure 37
0100
0010
0000
0010
1000
0000
1000
0001
,  // measure 38
0000
0001
0010
0000
0100
0000
0010
0000
,  // measure 39
0001
0100
1000
0100
,  // measure 40
0001
0010
0100
1000
,  // measure 41
0001
0010
0000
0010
0100
0000
0100
0001
,  // measure 42
0000
0001
0100
0000
0100
1000
0001
1000
,  // measure 43
0001
1000
0001
0100
,  // measure 44
0010
0100
0001
1000
,  // measure 45
0100
1000
0100
0000
0010
0000
0001
0000
,  // measure 46
0010
0001
0100
0010
,  // measure 47
0200
0000
0000
0000
,  // measure 48
0300
0000
0000
0010
1000
0010
1000
0000
,  // measure 49
0001
0000
0100
0000
0010
0100
0010
0000
,  // measure 50
1000
0100
1000
0001
,  // measure 51
0010
0001
0100
0010
,  // measure 52
0110
0010
1000
0100
,  // measure 53
1100
1000
0001
0100
,  // measure 54
0010
0100
0001
1000
,  // measure 55
0002
0000
1003
0010
,  // measure 56
0200
0300
0010
1000
,  // measure 57
1100
0100
0010
0001
,  // measure 58
0101
0100
0010
1000
,  // measure 59
1010
0010
0100
0010
,  // measure 60
2000
3000
0001
0100
,  // measure 61
0010
0000
0100
0000
0001
1000
0001
1000
,  // measure 62
0000
0000
0000
0001
0000
0000
0100
0000
,  // measure 63
0010
0000
0000
0100
0000
0000
0000
0000
,  // measure 64
1000
0001
1000
0001
,  // measure 65
0100
0010
0100
0000
0010
0100
0010
0000
,  // measure 66
1000
0100
1000
0100
,  // measure 67
0010
0001
0010
0001
,  // measure 68
0100
0010
0100
0010
,  // measure 69
1000
0100
1000
0100
,  // measure 70
0010
0001
0010
0001
,  // measure 71
1000
0001
1000
0100
,  // measure 72
1000
0100
0001
0100
,  // measure 73
1000
0010
0001
0010
,  // measure 74
1000
0001
1000
0000
0001
0100
0001
0000
,  // measure 75
0100
0010
1000
0010
,  // measure 76
0100
0001
0010
0001
,  // measure 77
1000
0100
1000
0100
,  // measure 78
0010
0100
1000
0100
,  // measure 79
0001
0100
0000
1000
0100
0000
0010
0001
,  // measure 80
0000
1000
0010
0000
0100
0010
0100
0020
,  // measure 81
0000
0000
0030
0000
;

//---------------dance-single - ----------------
#NOTES:
     dance-single:
     :
     Hard:
     8:
     0.624862,0.631565,0.284140,0.146375,0.030136,508.000000,475.000000,33.000000,17.000000,0.000000,0.000000,0.624862,0.631565,0.284140,0.146375,0.030136,508.000000,475.000000,33.000000,17.000000,0.000000,0.000000:
// measure 0
0000
0000
0000
0000
,  // measure 1
0000
0000
0000
0000
,  // measure 2
0000
0000
0000
0000
,  // measure 3
0001
0100
1000
0100
0001
0000
0001
0010
,  // measure 4
1000
0010
0001
1000
0001
1000
0100
0000
,  // measure 5
1000
0010
0001
0010
1000
0000
0010
0100
,  // measure 6
0001
0100
0010
0000
1000
0100
0010
0100
,  // measure 7
1000
0001
1000
0100
0010
0001
0010
0000
,  // measure 8
0001
0100
0000
0100
1000
0000
1000
0100
,  // measure 9
0000
0100
0001
0000
0001
0010
0000
0010
,  // measure 10
0100
0000
0100
1000
0000
1000
0010
0001
,  // measure 11
0010
0000
0100
1000
0000
1000
0001
0000
,  // measure 12
0001
0010
0000
0010
0001
0000
0001
1000
,  // measure 13
0001
0100
0010
1000
0001
0010
0100
0010
,  // measure 14
1000
0010
0001
0100
0010
1000
0010
0000
,  // measure 15
0100
0001
0010
0000
0100
1000
0001
0000
,  // measure 16
0010
1000
0010
0000
0001
1000
0001
0000
,  // measure 17
0100
0010
0100
0000
0010
1000
0010
0000
,  // measure 18
0100
0001
1000
0000
0001
1000
0100
0010
,  // measure 19
0100
1000
0010
0000
0100
0001
0010
0000
,  // measure 20
0100
0010
0001
0000
1000
0010
0100
0001
,  // measure 21
0010
0011
1010
0011
,  // measure 22
0101
1100
0101
1010
,  // measure 23
1000
0001
1000
0000
0010
0100
0010
0000
,  // measure 24
1000
0100
1000
0000
0001
0010
0001
0000
,  // measure 25
0100
0010
0100
0000
0010
1000
0010
0000
,  // measure 26
1000
0001
1000
0000
0001
0100
0001
0100
,  // measure 27
0010
0100
0010
0000
1000
0100
1000
0000
,  // measure 28
0001
1000
0001
0000
0100
0001
0100
0000
,  // measure 29
1010
0000
1001
0000
0001
0100
0001
1000
,  // measure 30
0000
0001
0000
0100
0000
0010
1000
0010
,  // measure 31
0100
0110
0000
0010
1010
0000
1000
1001
,  // measure 32
0000
0001
0101
0000
0100
0010
1000
0010
,  // measure 33
0100
0101
0000
0001
1001
0000
1000
1100
,  // measure 34
0000
0100
0110
0000
0010
0001
1000
0100
,  // measure 35
0010
0011
0000
1000
1001
0000
0001
0101
,  // measure 36
0000
0100
0110
0000
1000
0100
0010
0001
,  // measure 37
0100
0110
0000
0010
1010
0000
1000
1001
,  // measure 38
0000
0001
0101
0000
0100
0010
1000
0001
,  // measure 39
0100
0100
0000
0010
0010
0000
1000
1000
,  // measure 40
0000
0001
0001
0000
0100
0010
1000
0010
,  // measure 41
0100
0100
0000
0001
0001
0000
1000
1000
,  // measure 42
0000
0010
0010
0000
0100
0001
0010
0001
,  // measure 43
1000
1000
0000
0100
0100
0000
0010
0010
,  // measure 44
0000
0001
0001
0000
1000
0010
0001
0010
,  // measure 45
1000
1000
0000
0001
0001
0000
0100
0100
,  // measure 46
0000
0010
0010
0000
0100
0001
0010
0001
,  // measure 47
1000
0000
0000
0000
,  // measure 48
0000
0000
0000
0001
0100
0010
0100
0001
,  // measure 49
1000
0000
1010
0000
0010
0100
0001
0200
,  // measure 50
0000
0320
0000
1030
0001
1000
0010
0100
,  // measure 51
0010
0000
0000
0010
0000
0000
1010
0000
0000
1000
0000
0000
0001
0000
0010
0000
,  // measure 52
0002
0000
0103
0010
1000
0010
0100
0001
,  // measure 53
0020
0000
0032
0000
1003
0100
1000
0010
,  // measure 54
0000
0110
0000
0100
0001
0010
0001
1000
,  // measure 55
0200
0000
0000
0000
0300
0000
0010
0000
0110
0000
0000
0100
0000
0000
1000
0000
,  // measure 56
0002
0000
0003
0010
0100
1000
0001
0010
,  // measure 57
0001
1000
0010
0100
0001
0010
0001
2000
,  // measure 58
0000
3020
0000
0130
0001
0010
0001
1000
,  // measure 59
0010
0000
0000
1000
0000
0000
1010
0000
0000
0010
0000
0000
0100
0000
0001
0000
,  // measure 60
0020
0000
0030
0001
1000
0001
0100
0010
,  // measure 61
0200
0000
0320
0000
1030
0100
1000
0020
,  // measure 62
0000
0130
0001
0010
0001
1000
0200
0000
,  // measure 63
2300
0000
0010
3002
0000
0000
0013
1000
,  // measure 64
0001
0100
0001
1000
0010
1000
0010
0100
,  // measure 65
0010
1000
0100
0000
1000
0001
0010
0000
,  // measure 66
0001
0100
0010
0000
1000
0010
0100
0010
,  // measure 67
1000
0001
0100
0000
0001
1000
0001
1000
,  // measure 68
0010
0100
0010
0000
0100
0001
0010
0001
,  // measure 69
1000
0100
1000
0000
0010
0100
0010
0000
,  // measure 70
0100
0001
0100
0000
0001
1000
0010
1000
,  // measure 71
0100
1100
1001
0011
,  // measure 72
0100
1000
0010
0100
0010
1000
0001
0000
,  // measure 73
0100
0010
1000
0000
0001
0010
0100
0000
,  // measure 74
1000
0001
0100
0000
0100
0010
1000
0000
,  // measure 75
1000
0001
0100
0000
0010
0100
0010
0100
,  // measure 76
0001
0000
0000
0001
0000
0000
1000
0000
0000
1000
0000
0000
0010
0000
0100
0000
,  // measure 77
0001
0100
0010
0000
1000
0100
1000
0000
,  // measure 78
0001
0010
0001
1000
0001
0100
0010
0100
,  // measure 79
0001
0001
0000
1000
1000
0000
0010
0010
,  // measure 80
0000
0100
0100
0000
0001
0010
0100
2000
,  // measure 81
0000
0000
3000
0000
;

//---------------dance-single - ----------------
#NOTES:
     dance-single:
     :
     Challenge:
     9:
     0.800758,0.771913,0.568280,0.103324,0.297055,651.000000,585.000000,66.000000,12.000000,0.000000,0.000000,0.800758,0.771913,0.568280,0.103324,0.297055,651.000000,585.000000,66.000000,12.000000,0.000000,0.000000:
// measure 0
0000
0000
0000
0000
,  // measure 1
0000
0000
0000
0000
,  // measure 2
0000
0000
0000
0000
,  // measure 3
0001
0100
1000
0100
0001
1000
0001
0010
,  // measure 4
1000
0010
0001
0100
0010
1000
0001
1000
,  // measure 5
0010
0100
0001
0100
0010
1000
0100
0010
,  // measure 6
0001
0100
1000
0100
0001
0010
0001
1000
,  // measure 7
0010
0100
0010
1000
0100
0010
0001
0000
,  // measure 8
0010
0100
1000
0100
0010
0000
0001
0010
,  // measure 9
1000
0010
0100
1000
0001
0010
0000
0001
,  // measure 10
0010
0100
0010
0100
0000
1000
0010
0100
,  // measure 11
0001
0010
1000
0010
0001
0100
1000
0100
,  // measure 12
0001
0010
0100
1000
0100
0001
0100
1000
,  // measure 13
0010
0100
0001
0010
0100
1000
0010
0100
,  // measure 14
0001
0100
0001
0100
0010
0000
0100
0000
0001
0000
1000
0000
0001
0000
0000
0000
,  // measure 15
0100
0000
0010
0000
1000
0000
0001
0100
0001
0000
1000
0000
1001
0000
0000
0000
,  // measure 16
0100
0000
0010
0000
1000
0000
0100
0001
0100
0000
0010
0000
0011
0000
0000
0000
,  // measure 17
1000
0000
0001
0000
0100
0000
0010
1000
0010
0000
1000
0000
0001
0000
0100
0000
,  // measure 18
0010
0000
1000
0000
0001
0000
1000
0000
0010
0100
0010
0000
0100
0001
0100
0000
,  // measure 19
0001
0010
1000
0000
0010
0001
0100
0010
,  // measure 20
0100
0000
1000
0000
0100
0000
0000
0000
0001
1000
0001
0000
0100
0000
0010
1000
,  // measure 21
0010
1001
1100
0110
,  // measure 22
0001
0000
0010
0000
0001
0000
0010
0000
0100
0000
1000
0000
0100
1000
0100
1000
,  // measure 23
0001
0000
0100
0000
0110
0000
0000
0000
1000
0000
0001
0000
0011
0000
0000
0010
,  // measure 24
0100
0000
1000
0000
0001
0000
0000
0000
0110
0000
0010
0000
1000
0001
1000
0000
,  // measure 25
0010
0000
0100
0000
0001
0000
0000
0000
1000
0010
1000
0000
0001
0000
1000
0000
,  // measure 26
0100
0000
0010
0000
0001
0000
1000
0000
0100
0000
0010
0000
0100
0010
0100
0000
,  // measure 27
0001
0000
0100
0000
1100
0000
0000
0000
0010
0000
1000
0000
1001
0000
0001
0100
,  // measure 28
0001
0000
1000
0000
0010
0000
0000
0000
0110
0000
0100
0000
0001
1000
0001
0000
,  // measure 29
1001
0000
0110
0000
0101
0001
0010
0001
,  // measure 30
0000
0000
1010
0000
0010
0000
0100
0000
0001
1000
0001
1000
0001
0000
0000
0000
,  // measure 31
0100
0110
0000
0001
0101
0000
1000
1001
,  // measure 32
0000
0000
0010
0000
1010
0000
0000
0000
0100
0001
0100
0001
0100
0000
0010
0000
,  // measure 33
1000
1010
0000
0001
1001
0000
0010
0011
,  // measure 34
0000
0000
0100
0000
1100
0000
0000
0000
0001
1000
0001
1000
0001
0000
1000
0000
,  // measure 35
0010
0110
0000
0100
0101
0000
1000
1010
,  // measure 36
0000
0000
0001
0000
1001
0000
0000
0000
0100
0010
0100
0010
0100
0000
0001
0000
,  // measure 37
1000
1001
0000
0010
1010
0000
0100
0110
,  // measure 38
0000
0000
0001
0000
0101
0000
0000
0000
1000
0010
1000
0010
1000
0000
0001
0000
,  // measure 39
0100
0010
0000
0100
0001
0000
1000
0001
,  // measure 40
0000
0000
1000
0000
0010
0000
0000
0000
0100
0001
0100
0001
0100
0000
0010
0000
,  // measure 41
1000
1100
0000
0100
0110
0000
0010
0011
,  // measure 42
0000
0000
1000
0000
1010
0000
0000
0000
0001
0100
0001
0100
0001
0000
1000
0000
,  // measure 43
0010
0110
0000
1000
1010
0000
0001
1001
,  // measure 44
0000
0000
0100
0000
0101
0000
0000
0000
0010
0100
0010
0100
0010
0000
0100
0000
,  // measure 45
0001
0100
0010
0100
0001
0100
0010
0100
,  // measure 46
0001
0000
1000
0000
0010
0000
1000
0000
0001
0100
0001
0000
0010
0000
0100
0000
,  // measure 47
1000
0000
0000
0000
,  // measure 48
0000
0000
0000
0000
0000
0000
0010
1000
0001
0000
0100
0000
0010
0000
0100
0000
,  // measure 49
1000
0000
0100
0000
0001
0000
0100
0010
0100
0000
0001
0000
0010
0000
0210
0000
,  // measure 50
0000
0000
2300
0000
0000
0000
3001
0100
0001
0000
0010
0000
0100
0000
1000
0000
,  // measure 51
1001
0000
0000
0101
0000
0000
0110
0000
0000
1010
0000
0000
1000
0000
0001
0000
,  // measure 52
0010
0000
0001
0000
0100
0000
0010
1000
0010
0000
1000
0000
1000
0000
0001
0000
,  // measure 53
0201
0000
0320
0000
1030
0100
0001
0100
,  // measure 54
1000
0000
0001
0000
0010
0000
0001
1000
0001
0000
0100
0000
0010
0000
1000
0010
,  // measure 55
2000
0000
0000
0000
3000
0000
0100
0000
0110
0000
0000
0011
0000
0000
0001
0000
,  // measure 56
2001
0000
0000
0000
3010
0000
0100
0001
0100
0001
1000
0000
0100
0000
0010
0000
,  // measure 57
0001
0000
0010
0100
0010
0000
0100
1000
0100
0000
1000
0000
0001
0000
0010
0000
,  // measure 58
0001
0000
0100
0000
0010
0000
1000
0100
1000
0000
0001
0000
0010
0000
0100
0000
,  // measure 59
1100
0000
0000
1010
0000
0000
0110
0000
0000
0101
0000
0000
0001
0010
0001
0000
,  // measure 60
0020
0000
0000
0000
0030
0000
0100
1000
0100
0000
1000
0000
0001
0000
0100
0000
,  // measure 61
0120
0000
0000
0000
0230
0000
0000
0000
0310
1000
0010
0000
0100
0000
0002
0000
,  // measure 62
0000
0000
1003
0000
0010
1000
0010
0000
0100
0000
0001
0000
0010
0000
0000
0000
,  // measure 63
2001
0000
3010
0100
0001
0100
0010
1000
,  // measure 64
0001
0000
0100
0000
0010
0000
0100
0000
0001
1000
0001
1000
0010
1000
0010
0000
,  // measure 65
0100
0001
0101
0000
1000
0010
1010
0000
,  // measure 66
0001
0000
1000
0000
1001
0000
0000
0000
0010
0000
0100
0000
1000
0001
1000
0000
,  // measure 67
0010
0100
0101
0000
0001
1000
0010
0100
,  // measure 68
0001
0000
0000
0001
0000
0000
1000
0000
0000
0010
0000
0000
0100
0000
0010
0000
,  // measure 69
1000
0010
0001
0000
0010
1000
0010
0000
,  // measure 70
1000
0001
0101
0000
1000
0010
0100
0010
,  // measure 71
1010
1100
0101
1100
,  // measure 72
1000
0000
0010
0000
0001
0000
0010
0000
1000
0000
0100
0010
0100
0000
0010
0000
,  // measure 73
0001
1000
0010
0000
1000
0010
0100
0000
,  // measure 74
0100
0001
1000
0000
0001
0100
0010
0000
,  // measure 75
0100
0000
0001
0000
0010
0000
0100
0000
0010
0000
0001
0000
0100
0000
0010
1000
,  // measure 76
0010
0000
1000
0000
0001
0000
0000
0000
0100
0000
0010
1000
0010
0000
1000
0000
,  // measure 77
0001
0000
0010
0000
0001
0000
0100
0000
0010
0000
0100
0000
0001
0000
1000
0001
,  // measure 78
1000
0000
0010
0000
0100
0000
0001
0000
0100
0000
0010
0000
1000
0001
1000
0000
,  // measure 79
0010
0110
0000
0001
0101
0000
1000
1001
,  // measure 80
0000
0000
0001
0000
1000
0000
0010
0100
0010
0100
0010
0100
0010
0100
0020
0000
,  // measure 81
0000
0000
0030
0000
;
