#TITLE:Tsuretette!;
#SUBTITLE:;
#ARTIST:+TEK;
#TITLETRANSLIT:;
#SUBTITLETRANSLIT:;
#ARTISTTRANSLIT:;
#GENRE:;
#CREDIT:;
#BANNER:[Round 1] - Tsuretette!-banner.png;
#BACKGROUND:[Round 1] - Tsuretette!-background.png;
#LYRICSPATH:;
#CDTITLE:cdtitle.png;
#MUSIC:[Round 1] - Tsuretette!.ogg;
#OFFSET:-0.135260;
#SAMPLESTART:42.468594;
#SAMPLELENGTH:14.000000;
#SELECTABLE:YES;
#BPMS:0.000000=180.000000
;
#STOPS:
;
#BGCHANGES:;
#KEYSOUNDS:;
#ATTACKS:;

//---------------dance-single - ----------------
#NOTES:
     dance-single:
     :
     Challenge:
     9:
     0.688228,0.707469,0.698735,0.358561,0.000000,524.000000,448.000000,76.000000,39.000000,0.000000,0.000000,0.688228,0.707469,0.698735,0.358561,0.000000,524.000000,448.000000,76.000000,39.000000,0.000000,0.000000:
// measure 0
0000
0000
0000
0000
,  // measure 1
0000
0000
0000
0000
,  // measure 2
0000
0000
0000
0000
,  // measure 3
0000
0000
0000
0000
,  // measure 4
0001
0000
0000
0001
1000
0000
0000
0010
,  // measure 5
0000
0010
0000
1000
0100
0100
2000
0000
,  // measure 6
0002
0000
0000
3003
,  // measure 7
1010
0000
1000
0010
1000
0010
0200
0000
,  // measure 8
0320
0000
1030
0001
0100
0000
0100
0001
,  // measure 9
0000
0001
0000
1000
0100
0100
2000
0000
,  // measure 10
3002
0000
0103
0010
1000
0000
1000
0001
,  // measure 11
0000
0001
0010
0100
1000
0100
0010
0001
,  // measure 12
2000
0000
3010
0100
0001
0000
1000
0100
,  // measure 13
0000
0100
0000
1000
0001
0100
0001
0100
,  // measure 14
0110
0000
0000
1010
1010
0000
0000
0101
,  // measure 15
0000
0011
0000
1100
1100
0000
1001
0000
,  // measure 16
0001
0100
0001
0100
0001
0000
0001
0000
,  // measure 17
1000
0010
1000
0010
0000
0010
1000
1000
,  // measure 18
1001
0000
0001
0010
0011
0000
1000
1100
,  // measure 19
0000
1100
0000
0001
0100
0010
0100
0001
,  // measure 20
1000
0100
1000
0100
1000
0000
1000
0000
,  // measure 21
0001
0010
0001
0010
0000
0010
0001
0001
,  // measure 22
1001
0000
1000
0010
1010
0000
0001
0101
,  // measure 23
0000
0101
0000
1000
0010
0100
0010
1000
,  // measure 24
0100
0010
0100
0010
0001
0010
0001
0010
,  // measure 25
0001
1000
0001
1000
0010
1000
0010
1000
,  // measure 26
0020
0000
1030
0002
0000
1003
0100
0010
,  // measure 27
0200
0000
1300
0002
0000
1003
0010
1000
,  // measure 28
1010
0001
0101
1000
,  // measure 29
1010
0000
0101
0000
1010
0000
0101
0001
,  // measure 30
1000
0100
0001
1000
0010
0001
1000
0100
,  // measure 31
1000
0010
0100
0001
0100
0010
2010
0000
,  // measure 32
3001
0012
1003
2010
,  // measure 33
3001
0010
1000
0010
0001
0010
0012
0000
,  // measure 34
1003
2010
3001
0012
,  // measure 35
1003
0010
0001
0010
1000
0010
1010
0000
,  // measure 36
0101
0000
0000
0001
1000
0000
0000
0001
,  // measure 37
1001
0000
1100
0000
0011
0011
0000
1100
,  // measure 38
0000
0000
1010
0000
0101
0101
0000
1010
,  // measure 39
0000
0000
1001
0000
0001
0100
0002
0000
,  // measure 40
1003
0010
1000
0010
1000
0000
1000
0000
,  // measure 41
0001
0100
0001
0100
0000
0100
0001
0001
,  // measure 42
1001
0000
1000
0100
1100
0000
0001
0011
,  // measure 43
0000
0011
0000
1000
0010
0100
0002
0000
,  // measure 44
2003
0000
3001
0010
0001
0000
0001
0000
,  // measure 45
1000
0100
1000
0100
0000
0100
1000
1000
,  // measure 46
1001
0000
0001
0100
0101
0000
1000
1010
,  // measure 47
0000
1010
0000
0001
0100
0010
0100
0001
,  // measure 48
0010
0100
0010
0100
1000
0100
1000
0100
,  // measure 49
1000
0001
1000
0001
0100
0001
0100
0001
,  // measure 50
0200
0000
0301
2000
0000
3001
0010
0100
,  // measure 51
0020
0000
0031
2000
0000
3001
0100
0001
,  // measure 52
0101
1000
1010
0001
,  // measure 53
0101
0000
1010
0000
0101
0000
1010
1000
,  // measure 54
0001
0010
1000
0001
0100
1000
0001
0010
,  // measure 55
0001
0100
0010
1000
0010
0100
0102
0000
,  // measure 56
1003
0000
0100
1000
2100
0000
3001
0100
,  // measure 57
0000
0100
0001
0010
0100
1000
2100
0000
,  // measure 58
3001
0000
0100
0001
0102
0000
1003
0010
,  // measure 59
0000
0010
1000
0001
0100
0010
0110
0000
,  // measure 60
1001
0000
1000
0100
1100
0000
0001
0100
,  // measure 61
0101
0000
0101
0000
1000
0010
0000
1010
,  // measure 62
0000
0000
1000
0100
0001
0100
0010
0001
,  // measure 63
0010
0100
1000
0001
0100
0010
0100
0001
,  // measure 64
1000
2100
3001
0012
,  // measure 65
1003
0010
0100
0010
1000
0100
1100
0000
,  // measure 66
0011
0102
1003
2010
,  // measure 67
3001
0010
0100
0010
0001
0100
0101
0000
,  // measure 68
1010
0000
0001
0010
1000
0010
0100
0001
,  // measure 69
0100
1000
0100
0010
0001
1000
0100
0010
,  // measure 70
0001
0000
1000
0010
0001
0010
0100
1000
,  // measure 71
0100
0001
0010
0100
1000
0001
0010
0100
,  // measure 72
1000
0000
0010
0100
0001
0000
1000
0010
,  // measure 73
0000
0010
0000
1000
0100
0100
2000
0000
,  // measure 74
3002
0000
0013
0100
1000
0000
0001
1000
,  // measure 75
0000
1000
0010
0100
0001
0100
0010
1000
,  // measure 76
0002
0000
0013
0100
1000
0000
0001
0100
,  // measure 77
0000
0100
0000
0001
0010
0010
0002
0000
,  // measure 78
2003
0000
3010
0100
0001
0000
1000
0100
,  // measure 79
0000
0100
0000
1000
1010
0000
0101
0000
,  // measure 80
2002
0000
0000
0000
,  // measure 81
3003
0000
0000
0000
;
