#TITLE:Too Many Times, Too Many Changes;
#SUBTITLE:;
#ARTIST:San;
#TITLETRANSLIT:;
#SUBTITLETRANSLIT:;
#ARTISTTRANSLIT:;
#CREDIT:;
#BANNER:Too Many Times, Too Many Changes-banner.png;
#BACKGROUND:Too Many Times, Too Many Changes-bg.png;
#LYRICSPATH:;
#CDTITLE:;
#MUSIC:Too Many Times, Too Many Changes.ogg;
#OFFSET:-0.394;
#SAMPLESTART:65.972;
#SAMPLELENGTH:12.400;
#SELECTABLE:YES;
#BPMS:0.000=131.700;
#STOPS:;
#BGCHANGES:;

//---------------dance-single - ----------------
#NOTES:
     dance-single:
     :
     Hard:
     9:
     0.664,0.727,0.300,0.410,0.310: // measure 1
0000
0000
0000
0000
,  // measure 2
0000
0000
0000
0000
,  // measure 3
0000
0000
0000
0000
,  // measure 4
0000
0000
0000
0000
,  // measure 5
1000
0000
0001
1000
0000
0001
1000
0000
0001
1000
0001
0000
0100
0000
0001
0000
,  // measure 6
1000
0000
0010
1000
0000
0010
1000
0000
0010
1000
0010
0000
0001
0000
0010
0000
,  // measure 7
0100
0000
0001
0100
0000
0001
0100
0001
1000
0001
1000
0000
0001
0000
0100
0000
,  // measure 8
0010
1000
0000
0100
0000
0001
0100
0000
0100
0000
1000
0000
0020
0000
0130
0000
,  // measure 9
0001
0000
0100
0000
1000
0000
0100
0000
0001
0000
1000
0010
0000
0010
0200
0000
,  // measure 10
0301
0000
0010
0000
1000
0000
0010
0000
0001
0000
1000
0010
0000
0010
2000
0000
,  // measure 11
3100
0000
0001
0000
1000
0000
0001
0000
0100
0000
1000
0001
0000
0001
0200
0000
,  // measure 12
0301
1000
0001
0000
1000
0000
0010
0100
0000
0000
0100
0000
0001
1000
0001
0100
,  // measure 13
0010
0000
1000
0000
0100
0000
0010
0000
1000
0000
0010
0001
0000
0001
2000
0000
,  // measure 14
3010
0000
0100
0000
1000
0000
0100
0000
0010
0000
1000
0001
0000
0001
2000
0000
,  // measure 15
3100
0000
0001
0000
1000
0000
0001
0000
0100
0000
1000
0001
0000
0001
0200
0000
,  // measure 16
0301
0100
0001
0000
1000
0000
0100
1000
0001
0000
0100
0000
0010
0000
1000
0000
,  // measure 17
2001
0000
0000
0010
0000
0000
3001
0000
0000
0000
0001
0000
0020
0000
0130
0000
,  // measure 18
2001
0000
0000
0010
0000
0000
3100
0000
0000
0000
0100
0000
2000
0000
3001
0000
,  // measure 19
0012
1003
2010
3100
1200
0310
0120
0031
,  // measure 20
1002
0000
0000
0010
0000
0000
0103
0000
0000
0000
0100
0000
0020
0000
1030
0000
,  // measure 21
1002
0000
0000
0010
0000
0000
1003
0000
0000
0000
1000
0000
0020
0000
0130
0000
,  // measure 22
2001
0000
0000
0010
0000
0000
3100
0000
0000
0000
0100
0000
2000
0000
3010
0000
,  // measure 23
2010
3001
0012
0103
0120
1030
2100
3001
,  // measure 24
1002
0000
0000
0010
0000
0000
0103
0000
0000
0000
0001
0000
0100
0000
0001
0000
,  // measure 25
1000
0100
0001
0100
1000
0010
0100
0002
,  // measure 26
0000
1003
0100
0010
0000
0010
0001
0100
,  // measure 27
0010
1000
0001
1000
0010
0100
0001
0010
,  // measure 28
1000
0010
0100
2000
0001
0001
0010
3001
,  // measure 29
0100
0010
1000
0002
0000
0013
0100
1000
,  // measure 30
0000
1000
0010
0100
0000
0100
1000
0100
,  // measure 31
0001
0100
1000
0100
0001
2000
0000
3001
,  // measure 32
1000
0000
0010
0000
0100
0000
0001
1000
0001
1000
0001
1000
0001
0000
0000
0000
,  // measure 33
1000
0100
1000
0001
0010
0100
1000
0010
,  // measure 34
0001
1000
0001
0010
1000
0100
0010
0000
,  // measure 35
0001
0100
0001
1000
0100
0001
0100
0010
,  // measure 36
2000
3200
0302
0023
,  // measure 37
0031
0010
1000
0002
0000
1003
0010
0001
,  // measure 38
1000
0010
0001
2000
0000
3100
0010
0000
,  // measure 39
0100
0001
1000
0100
0010
0001
0000
1000
,  // measure 40
0001
0100
1000
0001
1000
0100
0010
0000
,  // measure 41
1000
0100
0001
2000
0000
3001
0100
1000
,  // measure 42
0001
0100
1000
0002
0000
1003
0100
0000
,  // measure 43
0010
1000
0100
0010
0002
0000
0103
0001
,  // measure 44
0010
0001
0100
0001
0010
0100
1000
0000
,  // measure 45
0001
0100
0000
0100
0010
0000
0010
1000
0000
1000
0001
0000
1000
0001
1000
0000
,  // measure 46
0010
0100
0000
0100
0001
0000
0001
1000
0000
1000
0100
0000
1000
0001
1000
0000
,  // measure 47
0001
0000
0100
0010
0000
1000
0010
0000
1000
0001
1000
0000
0001
0000
0100
0000
,  // measure 48
0001
0000
0010
0001
0000
0010
0100
0000
1000
0001
1000
0000
0010
0000
0100
0000
,  // measure 49
0001
0000
0100
0001
0000
0100
0010
0000
0100
0010
0100
0000
0010
0000
1000
0000
,  // measure 50
0001
0000
0010
1000
0000
0010
0100
0000
0010
0100
0010
0000
0001
0000
1000
0000
,  // measure 51
1100
0001
0101
0000
0100
0110
1001
0000
,  // measure 52
0101
1000
1100
0000
0100
0110
1001
0000
,  // measure 53
1010
0001
0011
0000
1000
1001
0110
0000
,  // measure 54
0011
1000
1010
0000
0001
1001
0220
0330
;

//---------------dance-single - ----------------
#NOTES:
     dance-single:
     :
     Medium:
     6:
     0.493,0.539,0.180,0.360,0.050:
0000
0000
0000
0000
,
0000
0000
0000
0000
,
0000
0000
0000
0000
,
0000
0000
0000
0000
,
1000
0000
0100
0000
0001
0000
0100
1000
,
0001
0000
0100
0000
1000
0000
0100
0010
,
1000
0000
0100
0000
0001
0000
0100
0010
,
0001
0000
1000
0000
1001
0000
1000
0010
,
0100
0001
0100
0010
0100
0000
0101
0001
,
1000
0100
0010
0100
1000
0000
1100
0001
,
0100
0001
0010
0001
0100
0000
0101
0001
,
1000
0010
0100
0001
1000
0000
1000
0001
,
0100
0001
0010
0001
1000
0000
1100
0001
,
0010
0001
0100
0001
1000
0000
1100
1000
,
0001
0100
1000
0100
0010
0000
1010
0001
,
1000
0010
0100
0010
1000
0000
0001
0001
,
2000
0000
0000
3010
0000
0000
0100
0000
0000
0000
0100
0000
0002
0000
0103
0000
,
0002
0000
0000
0013
0000
0000
0100
0000
0000
0000
0100
0000
1000
0000
0001
0000
,
0002
0013
0020
0130
0200
1300
2000
3100
,
0020
0000
0000
0031
0000
0000
0100
0000
0000
0000
0100
0000
0001
0000
0100
0000
,
0020
0000
0000
1030
0000
0000
0001
0000
0000
0000
0001
0000
1000
0000
0001
0000
,
0020
0000
0000
0031
0000
0000
0100
0000
0000
0000
0100
0000
0001
0000
1000
0000
,
2000
3010
0020
0130
0200
0301
0002
0103
,
0020
0000
0000
1030
0000
0000
0001
0000
0000
0000
0000
0000
1001
0000
0000
0000
,
1000
0100
1000
0000
0001
0100
0001
0000
,
1000
0100
0010
0001
0000
0000
1001
0000
,
0001
0000
0010
0100
0000
0100
1000
0001
,
0000
0100
1000
0001
0000
1000
0100
0010
,
1000
0001
1000
0010
0000
0100
0000
0101
,
0000
0001
0100
0010
0000
0000
1000
0100
,
0010
0000
0100
1000
0000
0001
0000
0102
,
0000
1003
0000
2010
0000
3001
0000
0000
,
1000
0200
0000
0302
0000
0203
0000
2300
,
0000
3020
0000
0032
0000
0203
0000
2300
,
0000
3200
0000
0302
0000
0013
0000
0000
,
2000
0000
0000
0002
0000
0000
0000
3003
,
1000
0100
0010
0001
0000
0000
1001
0000
,
0001
0100
0010
2000
0000
3001
0000
0000
,
1000
0100
0000
0001
0000
0100
0000
0010
,
0000
0001
0100
1000
0200
0000
0301
0000
,
1000
0010
0100
0001
0000
0000
1001
0000
,
0001
0010
0100
2000
0000
3001
0000
0000
,
1000
0100
0001
1000
2000
0000
0000
3010
,
0001
0100
1000
0200
0000
0301
0000
0000
,
1000
0000
0000
1000
0000
0000
1000
0000
0000
1000
0000
0000
0100
0000
0010
0000
,
0001
0000
0000
0001
0000
0000
0001
0000
0000
0001
0000
0000
0100
0000
0010
0000
,
1000
0100
0001
0100
1000
0100
1000
0100
,
0010
0001
0100
0010
1000
0010
1000
0010
,
0100
0001
0010
0100
0001
0100
0001
0100
,
0010
0001
0100
0010
0001
0010
0001
0010
,
1000
1000
1000
0000
0100
1000
1001
0000
,
0001
0001
0001
0000
0100
0001
1001
0000
,
0100
0100
0100
0000
0010
0100
1001
0000
,
0010
0010
0010
0000
0100
0010
2002
3003
;

//---------------dance-single - ----------------
#NOTES:
     dance-single:
     :
     Easy:
     5:
     0.323,0.376,0.250,0.240,0.020:
0000
0000
0000
0000
,
0000
0000
0000
0000
,
0000
0000
0000
0000
,
0000
0000
0000
0000
,
1000
0100
1000
1000
,
0001
0010
0001
0001
,
0100
0010
1000
1000
,
0010
0100
0001
1000
,
2100
0001
0100
3001
,
0020
1000
0001
1000
,
0032
0100
1000
0010
,
0103
0001
1000
0000
,
2000
0010
0001
0100
,
3002
0010
1000
0100
,
0023
1000
0001
1000
,
0031
0100
0010
1000
,
0002
0000
0000
0100
0000
0000
1003
0000
0000
0000
0000
0000
1001
0000
0000
0000
,
2000
0000
0000
0100
0000
0000
3001
0000
0000
0000
0000
0000
1001
0000
0000
0000
,
0101
0101
1100
1100
,
2002
0000
0000
0003
0000
0000
3000
0000
0000
0000
0000
0000
1000
0000
0000
0000
,
0002
0000
0000
0010
0000
0000
1003
0000
0000
0000
0000
0000
1001
0000
0000
0000
,
2000
0000
0000
0010
0000
0000
3001
0000
0000
0000
0000
0000
1001
0000
0000
0000
,
0011
0011
1010
1010
,
2002
0000
0000
3000
0000
0000
0003
0000
0000
0000
0000
0000
0000
0000
0000
0000
,
1000
0100
0001
0100
,
0020
0000
0000
0030
0000
0000
0001
0000
,
0100
1000
0100
0010
,
2000
0100
0002
3003
,
0001
0100
1000
0100
,
0002
0000
0000
0003
0000
0000
0001
0000
,
1000
0010
0001
0010
,
1000
0100
0010
0001
,
0100
1000
0000
0100
0000
0001
0000
0010
,
0000
1000
0000
0010
0000
0001
0000
0100
,
0000
0010
0000
1000
0000
0001
0000
0000
,
2002
0000
0000
0003
0000
0000
0000
3000
,
1100
0001
0100
0000
,
0100
0010
1000
0000
,
1000
0100
0001
0010
,
0001
0100
1000
0010
,
0110
0001
1000
0000
,
1001
0100
0010
0000
,
0010
0001
0100
0000
,
1000
0100
0001
1000
,
0100
0010
0100
0110
,
1000
0001
1000
1001
,
0001
0001
0200
0300
,
1000
1000
0200
0300
,
0001
0001
0020
0030
,
1000
1000
0020
0030
,
0001
0001
0001
0000
0000
0000
0101
0000
,
1000
1000
1000
0000
0000
0000
1100
0000
,
0001
0001
0001
0000
0000
0000
0011
0000
,
1000
1000
1000
0000
0000
0000
1010
0000
;

//---------------dance-single - ----------------
#NOTES:
     dance-single:
     :
     Beginner:
     2:
     0.183,0.266,0.210,0.060,0.000:
0000
0000
0000
0000
,
0000
0000
0000
0000
,
0000
0000
0000
0000
,
0000
0000
0000
0000
,
1000
1000
1000
0000
,
0001
0001
0001
0000
,
0100
0100
0100
0000
,
0010
0010
0010
0000
,
1001
0000
1001
0000
,
0110
0000
0110
0000
,
1001
0000
1001
0000
,
1000
1000
0001
0000
,
1001
0000
1001
0000
,
0110
0000
0110
0000
,
1001
0000
1001
0000
,
0001
0001
1000
0000
,
2000
0000
0000
3000
0000
0000
0000
0000
,
0002
0000
0000
0003
0000
0000
0000
0000
,
1000
1000
1000
1000
,
2000
0000
0000
3000
0000
0000
0000
0000
,
0002
0000
0000
0003
0000
0000
0000
0000
,
2000
0000
0000
3000
0000
0000
0000
0000
,
0001
0001
0001
0001
,
0002
0000
0000
0003
0000
0000
0000
0000
,
1000
0000
0100
0000
,
0010
0000
0000
0000
,
0001
0000
0100
0000
,
0010
0000
1000
1000
,
1000
0000
0001
0000
,
1000
0000
0000
0000
,
0100
0000
0010
0000
,
0001
0001
0001
0000
,
1000
0000
0100
0000
,
0001
0000
0100
0000
,
1000
0000
0010
0000
,
0001
0001
0001
0001
,
0001
0000
0000
0000
,
0010
0000
0000
0000
,
1000
0000
1000
0000
,
0001
0001
1001
0000
,
1000
0000
0000
0000
,
0100
0000
0000
0000
,
0001
0000
0100
0000
,
0010
0000
0001
0000
,
1000
0000
0000
0000
,
1000
0000
0000
0000
,
0001
0000
0001
0000
,
1000
0000
1000
0000
,
0100
0000
0100
0000
,
1000
0000
1000
0000
,
1001
1001
0000
0000
,
1001
1001
0000
0000
,
1001
1001
0000
0000
,
1001
1001
0000
0000
;
