#VERSION:0.83;
#TITLE:Party in the HOLLOWood;
#SUBTITLE:;
#ARTIST:t+pazolite feat. ななひら;
#TITLETRANSLIT:;
#SUBTITLETRANSLIT:;
#ARTISTTRANSLIT:t+pazolite feat. nanahira;
#GENRE:;
#ORIGIN:;
#CREDIT:;
#BANNER:partyinthehollowood_bn.png;
#BACKGROUND:partyinthehollowood_bg.png;
#PREVIEWVID:;
#JACKET:partyinthehollowood_jacket.png;
#CDIMAGE:;
#DISCIMAGE:;
#LYRICSPATH:;
#CDTITLE:;
#MUSIC:partyinthehollowood.ogg;
#OFFSET:0.000000;
#SAMPLESTART:53.952583;
#SAMPLELENGTH:10.786518;
#SELECTABLE:YES;
#BPMS:0.000=178.000;
#STOPS:;
#DELAYS:;
#WARPS:;
#TIMESIGNATURES:0.000=4=4;
#TICKCOUNTS:0.000=4;
#COMBOS:0.000=1;
#SPEEDS:0.000=1.000=0.000=0;
#SCROLLS:0.000=1.000;
#FAKES:;
#LABELS:0.000=Song Start;
#BGCHANGES:;
#KEYSOUNDS:;
#ATTACKS:
;

//---------------dance-single - ----------------
#NOTEDATA:;
#CHARTNAME:;
#STEPSTYPE:dance-single;
#DESCRIPTION:;
#CHARTSTYLE:;
#DIFFICULTY:Hard;
#METER:9;
#RADARVALUES:0.591090,0.696609,0.190549,0.156522,0.115690,608.000000,580.000000,28.000000,23.000000,0.000000,0.000000,0.000000,0.000000,0.000000,0.591090,0.696609,0.190549,0.156522,0.115690,608.000000,580.000000,28.000000,23.000000,0.000000,0.000000,0.000000,0.000000,0.000000;
#CREDIT:;
#NOTES:
0000
0000
0000
0000
,
0000
0000
0000
0000
,
0000
0000
0000
0000
,
0000
0000
0000
0000
,
0000
0000
0000
0000
,
0000
0000
0000
0000
,
0000
0000
0000
0000
,
1000
0100
1000
0100
0010
0001
0100
0010
,
0100
0000
0001
1000
0001
0000
0010
0000
0100
0000
1000
0000
0001
0000
0010
0000
,
0001
1000
0010
0100
0001
0100
0010
0100
,
0001
0000
1000
0001
1000
0000
0010
0000
0100
0000
0001
0000
0100
0000
0010
0000
,
1000
0100
0010
0001
0011
0000
1100
0000
,
0100
0000
1000
0001
1000
0000
0010
0000
0100
0000
0001
0000
1000
0000
0010
0000
,
1000
0001
0010
0100
1000
0100
0010
0100
,
1000
0000
0001
1000
0001
0000
0010
0000
0100
0000
1000
0000
0100
0000
0010
0000
,
0001
0100
0010
1000
0010
0100
0001
0010
,
0001
1000
0100
1000
0001
1000
0000
0010
,
0100
0110
0001
1001
,
1000
0001
0100
0001
0010
0001
0000
0001
,
0100
0000
0100
0010
1000
0100
0010
0000
,
0001
0100
0010
0100
0010
1000
0000
0010
,
0100
0101
1000
1100
,
0001
0100
0000
0100
0010
1000
0010
0100
,
0001
0000
0010
0100
1000
0100
0010
0000
,
0001
0100
1000
0100
0010
1000
0000
0100
,
0001
0000
0001
0100
1000
0000
1010
0000
,
1000
0010
0100
1000
0100
0010
0000
0100
,
0001
0000
1000
0010
0001
0010
0100
0000
,
0001
0010
0100
0001
0100
1000
0000
1000
,
0010
0000
0110
0000
1010
0000
0001
0100
,
2000
0100
0100
0100
,
3100
0002
0203
0320
,
2030
0100
0001
0010
,
3010
0100
1000
0100
0001
0000
0010
0000
,
0002
0010
1000
0100
,
0103
1000
0100
0001
1000
0000
0000
0000
,
2000
0010
0001
0100
,
3100
0001
0100
1000
0001
0000
1000
0000
,
0002
0100
1000
0010
,
0013
0000
0100
0110
,
1000
0000
0000
0100
0000
0000
0010
0000
0100
0000
0000
0000
1000
0000
0000
0000
,
0010
0000
0000
0100
0000
0000
0010
0000
1000
0000
0000
0000
0101
0000
0000
0000
,
0001
0000
0000
0000
0100
0000
0010
0000
0100
0000
0000
0001
0000
0000
1000
0000
,
0100
0000
0000
0010
0000
0000
0001
0000
1000
0000
0100
0000
0010
0000
0001
0000
,
0100
0000
0000
0001
0000
0000
1000
0000
0100
0000
0000
0000
0100
0000
1000
0000
,
0001
0000
0000
0100
0000
0000
0010
0000
0100
0000
0000
0000
1010
0000
0000
0000
,
1000
0000
0100
0000
0110
0000
0010
0001
,
0100
1000
0010
0001
0100
0000
1100
0000
,
0001
0000
0000
0100
0000
0000
0010
0000
0100
0000
0000
0000
0001
0000
0000
0000
,
0010
0000
0000
0100
0000
0000
0010
0000
0001
0000
0000
0000
1100
0000
0000
0000
,
1000
0000
0100
0010
0100
0000
1000
0001
,
0100
0100
0010
1000
0001
0100
0010
1000
,
0100
0000
0000
1000
0000
0000
0001
0000
0100
0000
0010
0000
1000
0000
0000
0000
,
1000
0000
0000
0100
0000
0000
0010
0000
0100
0000
0000
0000
0011
0000
0000
0000
,
0001
0000
0100
0010
0100
0000
0010
0000
,
0000
0110
0000
0100
0001
0000
1000
0000
,
0100
1000
0001
1000
,
1000
0100
0010
0001
1000
0000
0001
0000
,
0001
0100
0010
0100
,
0001
0100
0010
1000
0001
0000
0000
0000
,
0001
0010
0100
0010
,
0001
1000
0010
0100
0001
0000
1000
0000
,
1000
0010
0100
0010
,
1000
0001
0010
0100
1000
0000
0001
0100
,
2000
0000
0000
0000
,
3002
0000
0203
0000
,
2300
0000
0000
0000
,
3010
0000
0000
0010
0100
0000
0100
0001
,
0020
0000
0000
0230
,
0302
0000
0023
0000
,
2030
0000
3000
0000
,
2000
3200
0320
0032
,
1003
0000
0100
0000
1000
0000
0010
0000
1000
0000
0000
1000
0000
0000
0001
0000
,
0000
0000
0001
0000
0100
0000
0001
0000
0010
0000
0000
0010
0000
0000
0001
0000
,
0100
0000
0010
0000
0100
0000
0001
0000
1000
0000
0000
1000
0000
0000
0100
0000
,
1000
0000
0010
0000
0100
0000
0001
0000
0100
0000
0000
0010
0000
0000
0000
0000
,
0010
0000
1000
0000
0100
0000
1000
0000
0001
0000
0100
0001
0000
0000
1000
0000
,
0100
0000
0010
0000
0001
0000
0100
0000
0001
0000
1000
0010
0000
0000
0000
0000
,
1000
0100
0001
1000
0010
0000
0011
0000
,
0001
0100
1000
0100
0010
1000
0001
0000
,
1000
0000
0000
0100
0000
0000
0010
0000
0100
0000
0000
0000
1000
0000
0000
0000
,
0010
0000
0000
0100
0000
0000
0010
0000
1000
0000
0000
0000
0101
0000
0000
0000
,
0001
0000
0000
0000
0100
0000
0010
0000
0100
0000
0001
0100
0000
0000
0001
0000
,
1000
0000
0000
0100
0000
0000
0010
0000
0001
0000
0100
0000
0010
0000
1000
0000
,
0001
0000
0000
0100
0000
0000
0010
0000
0100
0000
0000
0000
0100
0000
0001
0000
,
1000
0000
0000
0100
0000
0000
0010
0000
0100
0000
0000
0000
0011
0000
0000
0000
,
0001
0000
0100
0000
0110
0000
0010
1000
,
0100
0001
0010
1000
0100
0000
0101
0000
,
0001
0000
0000
0100
0000
0000
0010
0000
0100
0000
0000
0000
0001
0000
0000
0000
,
0010
0000
0000
0100
0000
0000
0010
0000
0001
0000
0000
0000
1100
0000
0000
0000
,
1000
0000
0100
0010
0100
0000
1000
0001
,
0100
0100
0010
1000
0001
0100
0010
1000
,
0100
0000
0000
1000
0000
0000
0001
0000
0100
0000
0010
0000
1000
0000
0000
0000
,
1000
0000
0000
0100
0000
0000
0010
0000
0100
0000
0000
0000
0011
0000
0000
0000
,
0001
0000
0100
0010
0100
0000
0010
0000
,
0000
0110
0000
0100
0001
0000
1000
0000
,
0200
0000
0000
0000
0300
0100
1000
0010
,
0200
0000
0001
0301
,
0100
0000
0001
1000
0001
0000
0010
0000
0100
0000
1000
0000
0001
0000
0010
0000
,
0001
1000
0010
0100
0001
0100
0010
0100
,
0001
0000
1000
0001
1000
0000
0010
0000
0100
0000
0001
0000
0100
0000
0010
0000
,
1000
0100
0010
0001
0011
0000
1100
0000
,
0100
0000
1000
0001
1000
0000
0010
0000
0100
0000
0001
0000
1000
0000
0010
0000
,
1000
0001
0010
0100
1000
0100
0010
0100
,
1000
0000
0001
1000
0001
0000
0010
0000
0100
0000
1000
0000
0100
0000
0010
0000
,
0001
0100
0010
1000
0010
0100
0001
0010
,
0100
0000
0001
0100
1000
0010
0001
1000
,
0100
0001
0100
0001
0101
0000
0010
0000
;

//---------------dance-single - ----------------
#NOTEDATA:;
#CHARTNAME:;
#STEPSTYPE:dance-single;
#DESCRIPTION:;
#CHARTSTYLE:;
#DIFFICULTY:Easy;
#METER:6;
#RADARVALUES:0.420957,0.513291,0.034027,0.129301,0.020416,433.000000,428.000000,5.000000,19.000000,3.000000,0.000000,0.000000,0.000000,0.000000,0.420957,0.513291,0.034027,0.129301,0.020416,433.000000,428.000000,5.000000,19.000000,3.000000,0.000000,0.000000,0.000000,0.000000;
#CREDIT:;
#NOTES:
0000
0000
0000
0000
,
0000
0000
0000
0000
,
0000
0000
0000
0000
,
0000
0000
0000
0000
,
0000
0000
0000
0000
,
0000
0000
0000
0000
,
0000
0000
0000
0000
,
1000
1000
0001
0001
,
0010
0100
0010
0000
0001
0100
0010
0000
,
1000
0010
0100
0000
0001
0000
1000
0000
,
0100
0010
0100
0000
1000
0010
0100
0000
,
0010
0100
0001
0000
0101
0000
0101
0000
,
0100
0001
0100
0000
0010
1000
0100
0000
,
0010
0100
1000
0000
0001
0000
1000
0000
,
0100
1000
0100
0000
0010
0100
1000
0000
,
0010
0100
0001
0000
0010
0100
0010
0100
,
0010
0000
0100
0000
0010
0000
0000
0010
,
0100
1000
0001
0100
,
0001
0000
0100
0000
0010
0000
0000
0010
,
0100
0000
0100
0010
1000
0000
0001
0000
,
0001
0000
1000
0000
0010
0000
0000
0100
,
0001
0010
0100
1000
,
0001
0100
0000
0100
0001
0000
0001
0000
,
1000
0000
0100
0000
1000
0100
1000
0000
,
0001
0000
0100
0000
1000
0000
0000
0100
,
0001
0000
0001
0100
0001
0000
1000
0000
,
1000
0000
0100
0000
0001
0000
0000
0100
,
1000
0000
1000
0000
0001
0010
0001
0000
,
0001
0000
0100
0000
0010
0000
0000
1000
,
0010
0000
0100
0000
1000
0000
0100
0010
,
0200
0000
0000
0000
,
0300
0001
0010
0100
,
1000
0100
0001
0100
,
0010
0010
0001
1000
,
0001
0100
1000
0100
,
0010
0000
0100
0001
0100
0000
0000
0000
,
0001
0010
1000
0010
,
0100
1000
1000
0100
,
1000
0010
0001
0010
,
0200
0000
0310
0MM0
,
1000
0000
0001
1000
0001
0000
0100
0000
,
0010
0000
0100
0010
1000
0000
0001
0000
,
0001
0000
1000
0001
1000
0000
0001
0000
,
0010
0000
0001
1000
0001
0000
0000
0000
,
0001
0000
0100
0010
0100
0000
0100
0000
,
0001
0000
0100
0010
1000
0000
0001
0000
,
1000
0100
0010
0001
,
0001
1000
0001
1000
0001
0000
0010
0000
,
0001
0000
1000
0001
1000
0000
0100
0000
,
0010
0000
0100
0010
0001
0000
1000
0000
,
1000
0000
0001
1000
0001
0000
1000
0000
,
0010
0000
1000
0001
1000
0000
0000
0000
,
1000
0000
0100
0010
0100
0000
0100
0000
,
1000
0000
0100
0010
0001
0000
1000
0000
,
0001
0000
0100
0010
0100
0000
0010
0000
,
0000
1000
0000
0001
0010
0000
0100
0000
,
2000
0000
0000
0000
,
3001
0001
0010
0100
,
2000
0000
0000
0000
,
3001
0001
0100
0000
,
0002
0000
0000
0000
,
1003
1000
0010
0100
,
0002
0000
0000
0000
,
1003
0000
1000
0000
0010
0000
0100
0010
,
2000
0000
0000
0000
,
3200
0000
0320
0000
,
0032
0000
0000
0000
,
0000
0000
0003
0000
0000
0000
0001
0100
,
0002
0000
0000
0203
,
0320
0000
2030
0000
,
3002
0000
0000
0003
,
1001
0000
0000
0000
,
1000
0000
0000
0000
1000
0000
0000
0000
1000
0000
0000
0010
0000
0000
0100
0000
,
0000
0000
0000
0000
0001
0000
0000
0000
0001
0000
0000
0010
0000
0000
0100
0000
,
0010
0000
0000
0000
0010
0000
0000
0000
0010
0000
0000
0001
0000
0000
0100
0000
,
0010
0000
0000
0000
0100
0000
0000
0000
0010
0000
0000
1000
0000
0000
0000
0000
,
1000
0000
0000
0000
0100
0000
0000
0000
0010
0000
0000
0001
0000
0000
0001
0000
,
1000
0000
0000
0000
0010
0000
0000
0000
0100
0000
0000
0001
0000
0000
0000
0000
,
0001
0100
1000
0010
,
0001
0000
1000
0000
0010
0100
0010
0000
,
1000
0000
0001
1000
0001
0000
0100
0000
,
0010
0000
0100
0010
1000
0000
0001
0000
,
0001
0000
1000
0001
1000
0000
0001
0000
,
0010
0000
0001
1000
0001
0000
0000
0000
,
0001
0000
0100
0010
0100
0000
0100
0000
,
0001
0000
0100
0010
1000
0000
0001
0000
,
1000
0100
0010
0001
,
0001
1000
0001
1000
0001
0000
0010
0000
,
0001
0000
1000
0001
1000
0000
0100
0000
,
0010
0000
0100
0010
0001
0000
1000
0000
,
1000
0000
0001
1000
0001
0000
1000
0000
,
0010
0000
1000
0001
1000
0000
0000
0000
,
1000
0000
0100
0010
0100
0000
0100
0000
,
1000
0000
0100
0010
0001
0000
1000
0000
,
0001
0000
0100
0010
0100
0000
0010
0000
,
0000
1000
0000
0001
0010
0000
1000
0000
,
0020
0000
0000
0031
,
0002
0000
2003
3002
,
0013
0100
0010
0000
0001
0100
0010
0000
,
1000
0010
0100
0000
0001
0000
1000
0000
,
0100
0010
0100
0000
1000
0010
0100
0000
,
0010
0100
0001
0000
0101
0000
0101
0000
,
0100
0001
0100
0000
0010
1000
0100
0000
,
0010
0100
1000
0000
0001
0000
1000
0000
,
0100
1000
0100
0000
0010
0100
1000
0000
,
0010
0100
0001
0000
0010
0100
0010
0100
,
0010
0001
0100
1000
,
1000
0100
0001
0100
1000
0000
00M0
0000
;

//---------------dance-single - ----------------
#NOTEDATA:;
#CHARTNAME:;
#STEPSTYPE:dance-single;
#DESCRIPTION:;
#CHARTSTYLE:;
#DIFFICULTY:Beginner;
#METER:4;
#RADARVALUES:0.227492,0.329207,0.006805,0.129301,0.000000,234.000000,233.000000,1.000000,19.000000,0.000000,0.000000,0.000000,0.000000,0.000000,0.227492,0.329207,0.006805,0.129301,0.000000,234.000000,233.000000,1.000000,19.000000,0.000000,0.000000,0.000000,0.000000,0.000000;
#CREDIT:;
#NOTES:
0000
0000
0000
0000
,
0000
0000
0000
0000
,
0000
0000
0000
0000
,
0000
0000
0000
0000
,
0000
0000
0000
0000
,
0000
0000
0000
0000
,
0000
0000
0000
0000
,
0000
0000
0000
0000
,
1000
0000
0001
0000
,
0100
0010
0100
0001
,
0100
0000
0010
0000
,
1000
0000
0010
0010
,
0100
0000
0001
0000
,
1000
0001
1000
0100
,
1000
0000
0001
0000
,
0010
0000
0100
0010
,
0001
0000
0001
0000
,
0100
0000
0100
0000
,
0010
0000
0010
0000
,
1000
0000
1000
0000
,
0001
0000
0001
0000
,
0010
0000
0010
0000
,
0100
0000
0100
0000
,
1000
0000
1000
0000
,
0001
0001
0001
0000
,
0100
0000
0001
0000
,
1000
1000
1000
0000
,
0100
0000
1000
0001
,
1000
1000
1000
0000
,
0010
0000
0100
0000
,
0002
0000
0000
0000
,
0003
0000
0000
0000
,
1000
0000
1000
0000
,
0001
0100
0001
0000
,
0001
0000
0001
0000
,
1000
0010
1000
0000
,
0001
0000
0001
0000
,
0001
0010
0001
0000
,
1000
0000
1000
0000
,
1000
0100
1000
0000
,
0001
0000
0100
0000
,
0001
0000
1000
0010
,
1000
0000
0100
0000
,
0010
0100
0010
0000
,
0001
0000
1000
0000
,
0010
0000
0100
0001
,
0100
0000
0001
0000
,
1000
0100
0010
0001
,
1000
0000
0100
0000
,
1000
0000
0001
0010
,
0001
0000
0100
0000
,
0010
0100
0010
0000
,
1000
0000
0001
0000
,
0010
0000
0100
1000
,
0100
0000
1000
0000
,
0001
0000
0100
0010
,
2000
0000
0000
3000
,
0002
0000
0000
0003
,
0200
0000
0000
0300
,
0020
0000
0000
0030
,
2000
0000
0000
3000
,
0200
0000
0000
0300
,
0020
0000
0000
0030
,
0002
0000
0000
0003
,
0200
0000
0000
0300
,
0020
0000
0000
0030
,
0002
0000
0000
0003
,
2000
0000
0000
3000
,
0200
0000
0000
0300
,
0002
0000
0000
0003
,
2000
0000
0000
0000
,
3001
0000
0000
0000
,
0001
0001
0001
0001
,
0100
0100
0100
0100
,
1000
1000
1000
1000
,
0010
0010
0010
0010
,
0001
0001
0100
0100
,
1000
1000
0010
0010
,
0001
0100
1000
0010
,
0001
0100
1000
0010
,
0001
0000
0010
0000
,
0001
0000
1000
0100
,
1000
0000
0010
0000
,
0100
0010
0100
0000
,
0001
0000
1000
0000
,
0100
0000
0010
0001
,
0010
0000
0001
0000
,
1000
0010
0100
0001
,
1000
0000
0010
0000
,
1000
0000
0001
0100
,
0001
0000
0010
0000
,
0100
0010
0100
0000
,
1000
0000
0001
0000
,
0100
0000
0010
1000
,
0010
0000
1000
0000
,
0001
0000
0010
0100
,
0020
0000
0000
0030
,
0200
0000
0000
0300
,
1000
0000
0001
0000
,
0100
0010
0100
0001
,
0100
0000
0010
0000
,
1000
0000
0010
0010
,
0100
0000
0001
0000
,
1000
0001
1000
0100
,
1000
0000
0001
0000
,
0010
0000
0100
0010
,
0200
0000
0000
0300
,
0100
0010
0110
0000
;

//---------------dance-single - ----------------
#NOTEDATA:;
#CHARTNAME:;
#STEPSTYPE:dance-single;
#DESCRIPTION:;
#CHARTSTYLE:;
#DIFFICULTY:Medium;
#METER:8;
#RADARVALUES:0.568730,0.623282,0.068053,0.224575,0.081664,585.000000,575.000000,10.000000,33.000000,0.000000,0.000000,0.000000,0.000000,0.000000,0.568730,0.623282,0.068053,0.224575,0.081664,585.000000,575.000000,10.000000,33.000000,0.000000,0.000000,0.000000,0.000000,0.000000;
#CREDIT:;
#NOTES:
// measure 0
0000
0000
0000
0000
,  // measure 1
0000
0000
0000
0000
,  // measure 2
0000
0000
0000
0000
,  // measure 3
0000
0000
0000
0000
,  // measure 4
0000
0000
0000
0000
,  // measure 5
0000
0000
0000
0000
,  // measure 6
0000
0000
0000
0000
,  // measure 7
0001
0100
0001
1000
0001
0100
0001
1000
,  // measure 8
0001
0010
0001
0010
0100
1000
0100
1000
,  // measure 9
0001
0010
0001
0010
0001
1000
0100
0010
,  // measure 10
0100
1000
0100
1000
0010
1000
0010
1000
,  // measure 11
0100
1000
0100
1000
0020
0000
0230
0000
,  // measure 12
0301
0100
0001
0100
0010
1000
0010
1000
,  // measure 13
0001
0100
0001
0100
0001
1000
0010
0100
,  // measure 14
0001
0010
0001
0010
0001
0100
0001
0100
,  // measure 15
0001
0010
0001
0010
0001
1000
0100
0010
,  // measure 16
0001
0100
0010
1000
0100
0010
0000
0100
,  // measure 17
1000
0000
0010
0000
0100
0010
1000
0000
,  // measure 18
0010
0100
0001
0100
0010
1000
0000
0100
,  // measure 19
1000
0000
1000
0100
0010
0100
0100
0000
,  // measure 20
1000
0100
0010
0001
0010
0001
0000
0100
,  // measure 21
0010
0000
1000
0000
0001
0010
0100
0000
,  // measure 22
0100
1000
0000
1000
0100
0010
0100
0010
,  // measure 23
0001
0000
0001
0100
0010
1000
0010
0000
,  // measure 24
0100
0001
1000
0001
0010
0100
0000
0100
,  // measure 25
0010
0000
0001
1000
0010
0000
0100
0000
,  // measure 26
0010
0100
0001
0100
0010
1000
0000
0100
,  // measure 27
0010
0000
0001
0010
0100
1000
0100
0000
,  // measure 28
1000
0010
0100
0010
1000
0001
0000
0001
,  // measure 29
0010
0000
0100
0000
1000
0000
0001
0100
,  // measure 30
0020
0000
0000
0000
,  // measure 31
0030
0110
0101
1001
,  // measure 32
2000
3200
0302
0203
,  // measure 33
0310
0100
0010
0100
0020
0000
0032
0000
,  // measure 34
0203
2300
3200
0302
,  // measure 35
0013
0100
0010
0100
2000
0000
0000
0000
,  // measure 36
3002
0203
2300
3200
,  // measure 37
0310
0100
0010
0100
0020
0000
2030
0000
,  // measure 38
3200
0302
0203
2300
,  // measure 39
3020
0000
0130
0110
,  // measure 40
0001
0000
0000
0100
0000
0000
0001
0000
1000
0000
0000
0000
0001
0000
0000
0000
,  // measure 41
1000
0000
0000
0100
0000
0000
1000
0000
0001
0000
0000
0000
0010
0000
0000
0000
,  // measure 42
0100
0000
0000
0000
1000
0000
0100
0000
0010
0000
0000
0001
0000
0000
0010
0000
,  // measure 43
0100
0000
0000
0010
0000
0000
0001
0000
1000
0000
0000
0000
0000
0000
0000
0000
,  // measure 44
0001
0000
0000
0010
0000
0000
1000
0000
0010
0000
0000
0000
0100
0000
1000
0000
,  // measure 45
0001
0000
0000
0010
0000
0000
0001
0000
1000
0000
0000
0000
0001
0000
0000
0000
,  // measure 46
1000
0000
0100
0000
0010
0000
0001
1000
,  // measure 47
0100
0010
0001
0010
0100
0000
1000
0000
,  // measure 48
1000
0000
0000
0100
0000
0000
1000
0000
0001
0000
0000
0000
1000
0000
0000
0000
,  // measure 49
0001
0000
0000
0100
0000
0000
0001
0000
1000
0000
0000
0000
0010
0000
0000
0000
,  // measure 50
0100
0000
0001
0100
0010
0000
1000
0010
,  // measure 51
0100
0010
1000
0010
0100
0000
0001
0000
,  // measure 52
1000
0000
0000
0010
0000
0000
0001
0000
0010
0000
0100
0000
0001
0000
0000
0000
,  // measure 53
1000
0000
0000
0010
0000
0000
1000
0000
0001
0000
0000
0000
1000
0000
0000
0000
,  // measure 54
0001
0000
0100
0010
1000
0000
1000
0000
,  // measure 55
0000
0001
0000
0100
0010
0000
1000
0000
,  // measure 56
0002
0100
1000
0013
,  // measure 57
0001
0010
0100
0010
0001
0000
1000
0000
,  // measure 58
0020
1000
0100
0031
,  // measure 59
0100
0010
1000
0010
0100
0000
0000
0000
,  // measure 60
0002
0010
1000
0103
,  // measure 61
0001
0100
0010
0100
0001
0000
1000
0000
,  // measure 62
0200
1000
0010
0301
,  // measure 63
0100
1000
0100
0010
0001
0000
0100
0010
,  // measure 64
0100
0000
0000
0100
0010
0000
1000
0000
,  // measure 65
1000
0000
0000
1000
0100
0000
0000
0000
,  // measure 66
0010
0000
0000
0010
0001
0000
1000
0000
,  // measure 67
0100
0000
0000
0100
0010
0000
0001
0100
,  // measure 68
0010
0000
0000
0010
1000
0000
0010
0000
,  // measure 69
0100
0000
0000
0100
0001
0000
0000
0000
,  // measure 70
1000
0000
0000
1000
0100
0000
0010
0000
,  // measure 71
0011
0110
1100
1001
,  // measure 72
0001
0000
0100
0000
0001
0000
0100
0000
0001
0000
0000
0100
0000
0000
0010
0000
,  // measure 73
0000
0000
0010
0000
0100
0000
0010
0000
0100
0000
0000
0010
0000
0000
1000
0000
,  // measure 74
0010
0000
1000
0000
0010
0000
1000
0000
0010
0000
0000
1000
0000
0000
0100
0000
,  // measure 75
0010
0000
0100
0000
0010
0000
0100
0000
0010
0000
0000
0100
0000
0000
0000
0000
,  // measure 76
1000
0100
1000
0100
0010
0100
1000
0100
,  // measure 77
0010
0001
0010
0100
0010
0001
0010
0001
,  // measure 78
0100
1000
0100
0001
0100
0010
1000
0100
,  // measure 79
0001
0100
1000
0001
0010
1000
0010
0000
,  // measure 80
0001
0000
0000
0010
0000
0000
0001
0000
1000
0000
0000
0000
0001
0000
0000
0000
,  // measure 81
1000
0000
0000
0010
0000
0000
1000
0000
0001
0000
0000
0000
0100
0000
0000
0000
,  // measure 82
0010
0000
0000
0000
1000
0000
0010
0000
0100
0000
0000
0001
0000
0000
0100
0000
,  // measure 83
0010
0000
0000
0100
0000
0000
0001
0000
1000
0000
0000
0000
0000
0000
0000
0000
,  // measure 84
0001
0000
0000
0100
0000
0000
1000
0000
0100
0000
0000
0000
0010
0000
1000
0000
,  // measure 85
0001
0000
0000
0100
0000
0000
0001
0000
1000
0000
0000
0000
0001
0000
0000
0000
,  // measure 86
1000
0000
0010
0000
0100
0000
0001
1000
,  // measure 87
0010
0100
0001
0100
0010
0000
1000
0000
,  // measure 88
1000
0000
0000
0010
0000
0000
1000
0000
0001
0000
0000
0000
1000
0000
0000
0000
,  // measure 89
0001
0000
0000
0010
0000
0000
0001
0000
1000
0000
0000
0000
0100
0000
0000
0000
,  // measure 90
0010
0000
0001
0010
0100
0000
1000
0100
,  // measure 91
0010
0100
1000
0100
0010
0000
0001
0000
,  // measure 92
1000
0000
0000
0100
0000
0000
0001
0000
0100
0000
0010
0000
0001
0000
0000
0000
,  // measure 93
1000
0000
0000
0100
0000
0000
1000
0000
0001
0000
0000
0000
1000
0000
0000
0000
,  // measure 94
0001
0000
0010
0100
1000
0000
1000
0000
,  // measure 95
0000
0001
0000
0010
0100
0000
0100
0000
,  // measure 96
0020
0000
0000
0000
0000
0031
0010
0001
,  // measure 97
0200
0000
0010
0301
,  // measure 98
0001
0100
0001
0100
0010
1000
0010
1000
,  // measure 99
0001
0100
0001
0100
0001
1000
0010
0100
,  // measure 100
0010
1000
0010
1000
0100
1000
0100
1000
,  // measure 101
0010
1000
0010
1000
0200
0000
0320
0000
,  // measure 102
0031
0010
0001
0010
0100
1000
0100
1000
,  // measure 103
0001
0010
0001
0010
0001
1000
0100
0010
,  // measure 104
0001
0100
0001
0100
0001
0010
0001
0010
,  // measure 105
0001
0100
0001
0100
0001
1000
0010
0100
,  // measure 106
0010
0000
0010
1000
0001
0100
0010
1000
,  // measure 107
0100
0010
0100
0010
0110
0000
1001
0000
;
