#TITLE:Party Vinyl;
#SUBTITLE:;
#ARTIST:モリモリあつし;
#TITLETRANSLIT:;
#SUBTITLETRANSLIT:;
#ARTISTTRANSLIT:Morimori Atsushi;
#GENRE:;
#CREDIT:;
#BANNER:Party Vinyl.png;
#BACKGROUND:Party Vinyl-bg.png;
#LYRICSPATH:;
#CDTITLE:;
#MUSIC:Party Vinyl.ogg;
#OFFSET:-1.476200;
#SAMPLESTART:16.039919;
#SAMPLELENGTH:15.000000;
#SELECTABLE:YES;
#DISPLAYBPM:132.000000;
#BPMS:0.000000=132.000000
,3.000000=264.000000
,3.500000=132.000000
,3.750000=66.000000
,4.000000=132.000000
,7.000000=264.000000
,7.500000=132.000000
,7.750000=66.000000
,8.000000=132.000000
,11.000000=264.000000
,11.500000=132.000000
,11.750000=66.000000
,12.000000=132.000000
,17.000000=264.000000
,17.500000=132.000000
,17.750000=66.000000
,18.000000=132.000000
,19.000000=264.000000
,19.500000=132.000000
,19.750000=66.000000
,20.000000=132.000000
,21.000000=264.000000
,21.500000=132.000000
,21.750000=66.000000
,22.000000=132.000000
,23.000000=264.000000
,23.500000=132.000000
,23.750000=66.000000
,24.000000=132.000000
,32.000000=264.000000
,32.500000=132.000000
,32.750000=66.000000
,33.000000=132.000000
,48.000000=66.000000
,48.250000=132.000000
,48.500000=264.000000
,49.000000=132.000000
,64.000000=264.000000
,64.500000=132.000000
,64.750000=66.000000
,65.000000=132.000000
,80.000000=66.000000
,80.250000=132.000000
,80.500000=264.000000
,81.000000=132.000000
,111.000000=264.000000
,111.500000=132.000000
,111.750000=66.000000
,112.250000=132.000000
,112.500000=264.000000
,113.000000=132.000000
,143.000000=264.000000
,143.500000=132.000000
,143.750000=66.000000
,144.000000=132.000000
,159.000000=66.000000
,159.250000=132.000000
,159.500000=264.000000
,160.000000=132.000000
,161.000000=264.000000
,161.500000=132.000000
,161.750000=66.000000
,162.000000=132.000000
,163.000000=264.000000
,163.500000=132.000000
,163.750000=66.000000
,164.000000=132.000000
,165.000000=264.000000
,165.500000=132.000000
,165.750000=66.000000
,166.000000=132.000000
,167.000000=264.000000
,167.500000=132.000000
,167.750000=66.000000
,168.000000=132.000000
,176.000000=264.000000
,176.500000=132.000000
,176.750000=66.000000
,177.000000=132.000000
,192.000000=66.000000
,192.250000=132.000000
,192.500000=264.000000
,193.000000=132.000000
,208.000000=264.000000
,208.500000=132.000000
,208.750000=66.000000
,209.000000=132.000000
,224.000000=66.000000
,224.250000=132.000000
,224.500000=264.000000
,225.000000=132.000000
;
#STOPS:
;
#BGCHANGES:;
#KEYSOUNDS:;
#ATTACKS:;

//---------------dance-single - ----------------
#NOTES:
     dance-single:
     :
     Hard:
     8:
     0.558815,0.558918,0.186695,0.755670,0.071122,334.000000,21.000000,85.000000,0.000000,0.000000,0.000000,0.558815,0.558918,0.186695,0.755670,0.071122,334.000000,21.000000,85.000000,0.000000,0.000000,0.000000:
// measure 0
0000
0000
0000
0000
,  // measure 1
0000
0000
0000
0000
,  // measure 2
0000
0000
0000
0000
,  // measure 3
0000
0000
0000
0000
,  // measure 4
1000
1000
0020
0000
0130
0100
0002
0000
,  // measure 5
0013
0010
0200
0000
1300
1000
0002
0000
,  // measure 6
1003
0200
1300
0002
1003
0020
1030
0002
,  // measure 7
0103
0100
0010
0010
1000
1000
0001
0010
,  // measure 8
0200
0300
0100
1000
0001
0100
0010
1000
,  // measure 9
0001
0000
0000
0001
0000
0000
1000
0000
0002
0000
0000
0000
0003
0000
1000
0000
,  // measure 10
0100
0100
0010
0001
1000
0001
1000
0010
,  // measure 11
2000
0000
3200
0000
2300
0001
0001
0001
,  // measure 12
3002
0003
1000
0010
0100
0001
0010
0100
,  // measure 13
1000
0000
0000
1000
0000
0000
0001
0000
2000
0000
0000
0000
3000
0000
0001
0000
,  // measure 14
0100
0100
0010
1000
0100
1000
0001
0100
,  // measure 15
0020
0000
0100
0000
1030
0001
1000
0001
,  // measure 16
2002
3003
1000
0010
0100
0001
0100
0010
,  // measure 17
1000
0000
0000
1000
0000
0000
0001
0000
2000
0000
0000
0000
3000
0000
0001
0000
,  // measure 18
0010
0010
0100
1000
0100
0010
0001
0010
,  // measure 19
0200
0000
0320
0000
0032
1000
1000
1000
,  // measure 20
2003
3000
0100
0010
0100
1000
0010
0100
,  // measure 21
0001
0000
0000
0001
0000
0000
1000
0000
0002
0000
0000
0000
0003
0000
1000
0000
,  // measure 22
0100
0200
0300
0001
0100
0200
0300
1000
,  // measure 23
0100
0100
0010
0010
0010
0010
0001
1000
,  // measure 24
0002
0000
0000
0000
0000
0000
0000
0000
1003
0000
0000
0100
1000
0000
0000
0100
,  // measure 25
0010
1100
0010
0101
,  // measure 26
2000
0000
0000
0000
0000
0000
0000
0000
3001
0000
0000
0100
0010
0000
0000
0100
,  // measure 27
0001
1010
0100
0011
,  // measure 28
0100
0000
0200
0000
1300
0001
1000
0001
,  // measure 29
0100
0010
1000
0000
0100
0010
0001
0000
,  // measure 30
0002
0000
0000
0000
2003
0000
0000
0000
3001
0000
0000
0010
0200
0000
0000
0000
,  // measure 31
1300
0000
0000
0000
1100
0000
0000
0000
1001
0000
0000
0000
0001
0100
0001
0100
,  // measure 32
0020
0000
0000
0000
,  // measure 33
0000
0000
0000
0000
0000
0000
0030
0020
,  // measure 34
2030
3002
0203
0302
0023
0230
2300
3200
,  // measure 35
0320
1000
0100
0031
,  // measure 36
0001
0100
0101
0000
0000
1001
0000
1010
,  // measure 37
0010
0000
0100
0000
0110
0000
0000
0000
0010
0100
0010
0000
1001
0000
0000
0000
,  // measure 38
0220
0330
2002
3003
,  // measure 39
0022
0033
2200
3300
0202
0003
0310
0000
,  // measure 40
0001
0001
0020
0000
0130
0100
2000
0000
,  // measure 41
3010
0010
0200
0000
0301
0001
2000
0000
,  // measure 42
3001
0020
0031
2000
3001
0200
0301
2000
,  // measure 43
3100
0100
0010
0010
0001
0001
1000
0010
,  // measure 44
0200
0300
0100
0001
1000
0100
0010
0001
,  // measure 45
1000
0000
0000
1000
0000
0000
0001
0000
2000
0000
0000
0000
3000
0000
0001
0000
,  // measure 46
0100
0100
0010
1000
0001
1000
0001
0010
,  // measure 47
0002
0000
0203
0000
0302
1000
1000
1000
,  // measure 48
2003
3000
0001
0010
0100
1000
0010
0100
,  // measure 49
0001
0000
0000
0001
0000
0000
1000
0000
0002
0000
0000
0000
0003
0000
1000
0000
,  // measure 50
0100
0100
0010
0001
0100
0001
1000
0100
,  // measure 51
0020
0000
0000
0000
0031
1000
0001
1000
,  // measure 52
0220
0330
1000
0100
0010
0001
0100
0010
,  // measure 53
1000
0000
0000
0001
0000
0000
1000
0000
0002
0000
0000
0000
0003
0000
0010
0000
,  // measure 54
0100
0100
0010
0001
1000
0001
1000
0010
,  // measure 55
0200
0000
0320
0000
2030
0001
0001
0001
,  // measure 56
3002
0003
0202
0303
2020
3030
0010
1000
,  // measure 57
0001
0000
0000
1000
0000
0000
0001
0000
2000
0000
0000
0000
3000
0000
0001
0000
,  // measure 58
0100
0200
0300
1000
0100
0200
0300
0001
,  // measure 59
0100
0100
0010
0010
0010
0010
2002
3003
;

//---------------dance-single - ----------------
#NOTES:
     dance-single:
     :
     Beginner:
     2:
     0.140974,0.132798,0.044451,0.000000,0.000000,106.000000,5.000000,0.000000,0.000000,0.000000,0.000000,0.140974,0.132798,0.044451,0.000000,0.000000,106.000000,5.000000,0.000000,0.000000,0.000000,0.000000:
0000
0000
0000
0000
,
0000
0000
0000
0000
,
0000
0000
0000
0000
,
0000
0000
0000
0000
,
1000
0000
0001
0000
,
1000
0000
0001
0000
,
1000
1000
1000
1000
,
0001
0000
0000
0000
,
0000
0100
0000
0100
,
0100
0000
0010
0000
,
0000
0100
0000
0100
,
0010
0000
1000
0001
,
0000
0100
0000
0100
,
0100
0000
0010
0000
,
0000
0100
0000
0100
,
0000
0000
0000
0000
,
0000
1000
0000
0001
,
0001
0000
1000
0000
,
0000
0001
0000
1000
,
1000
0000
0000
0000
,
0000
1000
0000
0001
,
0001
0000
1000
0000
,
0100
0000
0100
0000
,
0100
0000
0000
0000
,
1001
0000
0000
0000
,
0001
0000
0001
0000
,
1001
0000
0000
0000
,
1000
0000
1000
0000
,
1001
0000
0000
0000
,
0001
0000
0001
0000
,
1001
0000
0000
0000
,
1000
0000
1000
1000
,
0010
0000
0000
0000
,
0000
0000
0000
0000
,
0000
0000
0000
0000
,
0000
0000
0000
0000
,
0000
1000
0000
0100
,
0000
0010
0000
0001
,
0001
0000
1000
0000
,
0001
0001
0001
0000
,
1000
0000
0001
0000
,
1000
0000
0001
0000
,
1000
1000
1000
1000
,
0001
0000
0000
0000
,
0000
0010
0000
0010
,
0010
0000
0100
0000
,
0000
0010
0000
0010
,
0100
0000
0001
1000
,
0000
0010
0000
0010
,
0010
0000
0100
0000
,
0000
0010
0000
0010
,
0100
0100
0100
0000
,
0000
1000
0000
0001
,
0001
0000
1000
0000
,
0000
0001
0000
1000
,
1000
0000
0001
1000
,
0000
0100
0000
0010
,
0010
0000
0010
0100
,
0010
0000
0100
0000
,
0010
0000
0000
1001
;

//---------------dance-single - ----------------
#NOTES:
     dance-single:
     :
     Easy:
     3:
     0.208285,0.292155,0.044451,0.168914,0.000000,140.000000,5.000000,19.000000,0.000000,0.000000,0.000000,0.208285,0.292155,0.044451,0.168914,0.000000,140.000000,5.000000,19.000000,0.000000,0.000000,0.000000:
0000
0000
0000
0000
,
0000
0000
0000
0000
,
0000
0000
0000
0000
,
0000
0000
0000
0000
,
1000
1000
0001
0001
,
1000
1000
0001
0001
,
1000
0001
1000
0001
,
0200
0000
0000
0000
,
0300
0001
0100
0001
,
0010
0000
0010
0000
,
0100
1000
0010
1000
,
0200
0000
0000
0000
,
0300
0010
0001
1000
,
0010
0000
0010
0000
,
0100
0001
0010
0001
,
0200
0000
0000
0000
,
0300
0001
0010
0001
,
0100
0000
0100
0100
,
0010
1000
0100
1000
,
0020
0000
0000
0000
,
0030
0100
0001
1000
,
0100
0000
0100
0000
,
2000
3000
0000
0000
0002
0003
0000
0000
,
2000
3000
0200
0300
0020
0030
0001
0000
,
1001
0000
0000
0000
,
0001
0100
0001
0100
,
1001
0000
0000
0000
,
1000
0100
1000
0100
,
0110
0000
0000
0000
,
0001
0100
0010
1000
,
1001
0000
0000
0000
,
1000
1000
0001
0010
,
0200
0300
0000
0000
0000
0000
0000
0000
,
0000
0000
0000
0000
,
0000
0000
0000
0000
,
0000
0000
0000
0000
,
1000
1000
0100
0000
,
0100
0100
0010
0000
,
0010
0010
0001
0000
,
0001
1000
0020
0030
,
1000
1000
0001
0001
,
1000
1000
0001
0001
,
1000
0001
1000
0001
,
0200
0000
0000
0000
,
0300
0001
1000
0100
,
0010
0000
0010
0000
,
0100
1000
0001
1000
,
0020
0000
0000
0000
,
0030
0010
1000
0001
,
0010
0000
0010
0000
,
0100
1000
0001
0010
,
0200
0000
0000
0000
,
0300
1000
0010
1000
,
0100
0000
0100
0100
,
0010
0001
1000
0010
,
0200
0000
0000
0000
,
0300
0100
0001
1000
,
0100
0000
0100
0000
,
2000
3000
0000
0000
0002
0003
0000
0000
,
2002
0000
0000
3003
;

//---------------dance-single - ----------------
#NOTES:
     dance-single:
     :
     Medium:
     5:
     0.365770,0.372612,0.168914,0.595646,0.035561,202.000000,19.000000,67.000000,0.000000,0.000000,0.000000,0.365770,0.372612,0.168914,0.595646,0.035561,202.000000,19.000000,67.000000,0.000000,0.000000,0.000000:
0000
0000
0000
0000
,
0000
0000
0000
0000
,
0000
0000
0000
0000
,
0000
0000
0000
0000
,
1000
0002
1003
0020
,
1030
0002
1003
0200
,
1300
1100
0011
1100
,
2002
0000
0000
0000
,
3003
2000
3002
2003
,
3100
0000
0000
0100
0000
0000
0010
0000
0200
0000
0000
0000
0300
0000
0000
0000
,
1000
1000
0002
0000
0203
0000
0310
0010
,
1000
0000
2000
0000
0000
0001
0000
0001
,
3000
0002
2003
3002
,
0103
0000
0000
0100
0000
0000
0010
0000
0200
0000
0000
0000
0300
0000
0000
0000
,
0001
0001
2000
0000
3200
0000
0310
0010
,
0002
0000
0000
0003
,
0110
0000
2001
0000
3020
0000
1030
0001
,
0100
0000
0000
0100
0000
0000
0001
0000
0200
0000
0000
0000
0300
0000
0000
0000
,
0010
0010
2000
0000
3002
0000
0013
0010
,
0002
0000
0000
0000
0000
1000
0000
1000
,
0003
0000
2000
0000
3002
0000
0103
0100
,
0100
0000
0000
0010
0000
0000
0100
0000
0010
0000
0000
0000
0200
0000
0000
0000
,
0301
0001
0000
0000
1000
1000
0000
0000
,
0002
0003
0200
0300
0020
0030
1000
0000
,
2002
0000
3000
0003
,
1000
0010
0100
0010
,
2002
0000
0003
3000
,
0001
0010
0100
0010
,
0011
0001
0100
0010
,
1000
0001
0010
0010
,
0001
1000
0100
1000
,
0010
0010
0100
0200
,
0300
0000
0000
0000
,
0000
0000
0000
0000
,
0000
0000
0000
0000
,
0000
0000
0000
0002
,
1003
0001
0100
0000
,
0001
0100
0010
1000
0010
0000
0000
0000
,
0100
0010
1000
0001
,
0010
0010
0010
0200
,
1300
0002
0103
0020
,
1030
0200
0310
2000
,
3001
0101
1010
0101
,
2002
0000
0000
0000
,
3003
0002
2003
3002
,
0103
0000
0000
0100
0000
0000
0010
0000
0200
0000
0000
0000
0300
0000
0000
0000
,
0001
0001
2000
0000
3200
0000
0310
0010
,
0001
0000
0002
0000
0000
1000
0000
1000
,
0003
2000
3002
2003
,
3100
0000
0000
0100
0000
0000
0010
0000
0200
0000
0000
0000
0300
0000
0000
0000
,
1000
1000
0002
0000
0203
0000
0310
0010
,
2000
0000
0000
3000
,
0110
0000
1002
0000
0023
0000
0031
1000
,
0100
0000
0000
0100
0000
0000
1000
0000
0020
0000
0000
0000
0030
0000
0000
0000
,
0100
0100
0002
0000
2003
0000
3010
0010
,
2000
0000
0000
0000
0000
0001
0000
0001
,
3000
0101
1100
1010
,
0011
0000
0000
0010
0000
0000
0100
0000
0010
0000
0000
0000
0000
0000
0100
0000
,
1000
1000
0000
0001
0100
0100
0000
0001
,
0010
0010
0000
0000
0002
0000
2003
3000
;

//---------------dance-single - ----------------
#NOTES:
     dance-single:
     :
     Challenge:
     9:
     0.693438,0.718609,0.764560,0.488963,0.320048,405.000000,86.000000,55.000000,0.000000,0.000000,0.000000,0.693438,0.718609,0.764560,0.488963,0.320048,405.000000,86.000000,55.000000,0.000000,0.000000,0.000000:
0000
0000
0000
0000
,
0000
0000
0000
0000
,
0000
0000
0000
0000
,
0000
0000
0000
0000
,
1010
1000
0002
0003
0101
0100
0020
0030
,
1010
1000
0002
0003
0101
0100
0020
0030
,
0110
0001
1001
0100
0110
0001
1001
0100
,
0010
0000
0010
0000
1000
0000
1000
0000
0001
0000
0001
0000
0100
0001
0100
0001
,
2000
0000
3000
0000
1001
0000
0100
0000
0011
0000
0100
0000
1001
0000
0001
0100
,
0010
0000
0000
1010
0000
0000
0100
0000
1000
0000
0000
0000
0001
0000
0010
0000
,
0100
0000
0100
0000
1100
0000
0001
0000
0110
0000
0001
0000
1000
0000
1000
1000
,
0001
0020
0000
0000
0000
0100
0000
0031
0000
0000
0101
0000
1001
0000
2200
0000
,
3300
0000
0000
0000
1001
0000
0100
0000
1010
0000
0100
0000
1001
0000
1000
0100
,
0010
0000
0000
0011
0000
0000
0100
0000
0001
0000
0000
0000
1000
0000
0010
0000
,
0100
0000
0100
0000
0110
0000
0001
0000
1001
0000
0100
0000
0110
0000
0001
0001
,
2000
0000
0000
0000
3100
0000
0100
0000
0010
0000
0010
0000
0001
1000
0001
1000
,
0020
0000
0030
0000
1010
0000
0001
0000
0110
0000
0001
0000
1100
0000
0001
0010
,
0100
0000
0000
0011
0000
0000
1000
0000
0001
0000
0000
0000
0010
0000
0001
0000
,
0100
0000
0100
0000
0110
0000
0010
0000
1010
0000
1000
0000
1001
0000
0001
0001
,
1000
0020
0000
0000
0000
0100
0000
1030
0000
0000
1010
0000
0110
0000
0202
0000
,
0303
0000
0000
0000
1001
0000
1000
0000
0110
0000
0001
0000
1001
0000
1000
0010
,
0100
0000
0000
0001
0000
0000
0010
0000
0200
0000
0000
0000
1300
0000
0001
0000
,
0100
0200
0300
1000
0100
0200
0300
0001
,
0100
0200
0010
0010
0010
0010
0301
1000
,
0001
0000
0000
0001
0000
0001
0001
0000
1000
0000
0001
0100
0001
0000
1000
0100
,
1000
1200
0001
0310
,
1000
0000
0000
1000
0000
1000
1000
0000
0001
0000
1000
0100
1000
0000
0001
0100
,
0001
0201
1000
0302
,
0203
0000
0300
0000
0000
0100
0010
0000
1000
0000
0001
1000
0100
0000
1000
0001
,
0010
0000
0000
0100
0000
0010
0100
0000
1000
0000
1001
0000
0001
0000
1001
0000
,
1000
0000
0000
0001
0000
0100
0010
0000
1000
0000
0001
0010
0200
0000
0000
0000
,
0310
0000
0000
0001
0000
0001
1000
0000
0010
0000
0010
0000
1000
0100
1000
0100
,
0020
0000
0000
0000
,
0000
0000
0000
0000
0000
0000
0030
0020
,
0032
0010
2003
0100
3020
1000
0230
0001
,
0302
0000
0020
0030
0200
0300
2003
0000
,
3001
0000
0001
0000
0100
0000
0001
0000
0001
0000
1000
0020
0000
0000
0130
0000
,
0001
0000
1000
0000
0100
0000
1000
0000
1000
0000
0001
0020
0000
0000
0130
0000
,
1000
1010
0010
0100
0001
0011
0010
0100
,
0020
0000
0001
0000
1000
0000
0230
0300
,
0011
0001
2000
3000
1100
0100
0020
0030
,
0011
0001
2000
3000
1100
0100
0020
0030
,
0110
1000
1001
0100
0110
1000
1001
0100
,
0010
0000
0010
0000
0001
0000
0001
0000
1000
0000
1000
0000
0100
1000
0100
1000
,
0002
0000
0003
0000
1001
0000
0100
0000
1010
0000
0100
0000
1001
0000
1000
0010
,
0100
0000
0000
0101
0000
0000
0010
0000
1000
0000
0000
0000
1000
0000
0010
0000
,
0100
0000
0100
0000
0101
0000
1000
0000
0110
0000
1000
0000
0001
0000
1000
1000
,
0001
0020
0000
0000
0000
0001
0000
0130
0000
0000
1100
0000
1001
0000
0202
0000
,
0303
0000
0000
0000
1001
0000
0010
0000
1100
0000
0001
0000
0110
0000
0001
0010
,
0100
0000
0000
1100
0000
0000
0010
0000
0001
0000
0000
0000
1000
0000
0010
0000
,
0100
0000
0100
0000
0110
0000
0001
0000
1001
0000
0010
0000
0110
0000
1000
1000
,
0002
0000
0000
0000
0103
0000
0100
0000
0010
0000
0010
0000
1000
0001
1000
0001
,
0020
0000
0030
0000
0011
0000
1001
0000
1010
0000
1001
0000
0101
0000
1000
0010
,
0100
0000
0000
1010
0000
0000
0001
0000
1000
0000
0000
0000
0010
0000
1000
0000
,
0100
0000
0100
0000
0110
0000
0011
0000
0110
0000
1100
0000
1001
0000
0001
0001
,
1000
0020
0000
0000
0000
1000
0000
0130
0000
0000
0101
0000
0110
0000
2020
0000
,
3030
0000
0000
0000
1001
0000
1001
0000
0220
0000
0330
0000
1001
0000
0001
0100
,
0010
0000
0000
1000
0000
0000
0001
0000
0020
0000
0000
0000
0031
0000
1000
0000
,
0001
0100
0001
1000
0100
1000
0001
0010
0001
1000
0010
1000
,
0100
0200
0010
0010
0010
0310
0022
0033
;
