#TITLE:Out of the Circus;
#SUBTITLE:(Halloween Edit);
#ARTIST:Killer Clowns;
#TITLETRANSLIT:;
#SUBTITLETRANSLIT:;
#ARTISTTRANSLIT:;
#GENRE:;
#CREDIT:;
#BANNER:;
#BACKGROUND:;
#LYRICSPATH:;
#CDTITLE:;
#MUSIC:Out of the Circus.ogg;
#OFFSET:-0.346000;
#SAMPLESTART:59.500000;
#SAMPLELENGTH:15.000000;
#SELECTABLE:YES;
#BPMS:0.000000=110.000000
,68.000000=110.070000
,68.500000=110.210999
,69.000000=110.351997
,69.500000=110.491997
,70.000000=110.633003
,70.500000=110.773003
,71.000000=110.914001
,71.500000=111.055000
,72.000000=111.195000
,72.500000=111.335999
,73.000000=111.476997
,73.500000=111.616997
,74.000000=111.758003
,74.500000=111.898003
,75.000000=112.039001
,75.500000=112.180000
,76.000000=112.365997
,76.500000=112.598999
,77.000000=112.831001
,77.500000=113.064003
,78.000000=113.295998
,78.500000=113.528999
,79.000000=113.761002
,79.500000=113.994003
,80.000000=114.225998
,80.500000=114.459000
,81.000000=114.691002
,81.500000=114.924004
,82.000000=115.155998
,82.500000=115.389000
,83.000000=115.621002
,83.500000=115.853996
,84.000000=116.116997
,84.500000=116.411003
,85.000000=116.706001
,85.500000=117.000000
,86.000000=117.294998
,86.500000=117.588997
,87.000000=117.883003
,87.500000=118.178001
,88.000000=118.472000
,88.500000=118.766998
,89.000000=119.060997
,89.500000=119.355003
,90.000000=119.650002
,90.500000=119.944000
,91.000000=120.237991
,91.500000=120.532997
,92.000000=120.904999
,92.500000=121.355995
,93.000000=121.806007
,93.500000=122.257004
,94.000000=122.708000
,94.500000=123.157997
,95.000000=123.608994
,95.500000=124.059990
,96.000000=124.510002
,96.500000=124.960999
,97.000000=125.411011
,97.500000=125.861992
,98.000000=126.313004
,98.500000=126.763000
,99.000000=127.213997
,99.500000=127.664993
,100.000000=128.000000
;
#STOPS:
;
#BGCHANGES:;
#KEYSOUNDS:;
#ATTACKS:;

//---------------dance-single - ----------------
#NOTES:
     dance-single:
     :
     Challenge:
     8:
     0.325161,0.344552,0.167055,0.619497,0.271465,327.000000,303.000000,24.000000,89.000000,88.000000,0.000000,0.325161,0.344552,0.167055,0.619497,0.271465,327.000000,303.000000,24.000000,89.000000,88.000000,0.000000:
// measure 0
0000
0000
0000
0000
,  // measure 1
00M0
0000
0M00
00M0
0000
M000
000M
0000
0000
00M0
0000
0000
,  // measure 2
0M00
0000
0000
0000
0000
0000
000M
0000
0000
0000
0000
0000
M000
0000
0000
0000
0000
0000
022M
0000
0000
M000
0330
0000
,  // measure 3
20M2
0000
3M03
M000
0000
000M
00M0
0000
0M00
000M
0000
0000
,  // measure 4
M202
0000
0303
22M0
0000
3300
202M
0000
3030
M022
0000
0M33
,  // measure 5
20M2
0000
3M03
000M
0000
0000
M000
0000
0000
00M0
0000
0M00
,  // measure 6
000M
0000
0000
M000
0000
0000
0M00
0000
0000
02M2
0000
0303
,  // measure 7
202M
0000
3M30
00M0
0000
M000
000M
0000
00M0
0M00
0000
M000
,  // measure 8
0M11
11MM
MMMM
0000
,  // measure 9
0001
0001
0100
0010
1000
1000
0001
0010
,  // measure 10
0100
0100
1000
0001
0100
0010
1000
0001
,  // measure 11
0010
0010
0100
1000
0010
0010
0100
0001
,  // measure 12
1000
1000
0001
0001
0100
0100
0010
0010
,  // measure 13
1010
1100
0011
0101
,  // measure 14
1001
0000
0110
0000
1000
0100
0010
0001
,  // measure 15
1010
0101
0011
1100
,  // measure 16
0001
0010
1000
0010
0100
0000
0000
0000
,  // measure 17
2000
3020
0230
0302
2003
3200
0320
0032
,  // measure 18
2003
3020
0230
0320
2030
3200
0320
0230
,  // measure 19
2300
3002
0023
0230
2300
3002
0203
0320
,  // measure 20
2030
3020
0032
0023
2030
3200
0302
0203
,  // measure 21
2300
3002
0203
0320
2030
3002
0023
0230
,  // measure 22
0320
0032
0203
0302
0023
0230
2300
3200
,  // measure 23
0320
0032
2003
3020
0230
0302
2003
3200
,  // measure 24
0320
2030
3002
0203
0320
0032
0203
0320
,  // measure 25
1000
1000
1000
2030
0001
0001
0001
3002
,  // measure 26
0010
0010
0013
0020
0100
0100
0100
0130
,  // measure 27
1000
0000
1000
0010
0000
0010
0001
0000
1000
0000
1000
0100
0000
0100
0001
0000
,  // measure 28
M0MM
MMM0
0MMM
MM0M
MMMM
0000
1001
0000
,  // measure 29
0220
0000
0330
0001
0000
0001
0010
0001
1000
0000
0010
0100
0001
0000
1000
0000
,  // measure 30
0000
0000
0001
1000
0000
1000
0010
1000
0001
0000
1000
0100
0010
0000
0001
0000
,  // measure 31
MMMM
0000
0000
0100
0000
0100
0001
0100
0010
0000
1000
0001
0010
0000
0100
0000
,  // measure 32
0000
0000
1000
0010
0000
0010
0100
0010
1000
0000
0100
0010
0001
0000
1000
0000
,  // measure 33
MMMM
0000
0000
0100
0000
0100
1000
0100
0010
0000
0001
1000
0010
0000
0100
0000
,  // measure 34
0000
0000
0001
0010
0000
0010
0100
0010
0001
0000
0100
0010
1000
0000
0001
0000
,  // measure 35
MMMM
0000
0000
1000
0000
1000
0010
1000
0001
0000
0010
0100
1000
0000
0001
0000
,  // measure 36
0200
0000
0000
0000
0000
0000
0000
0000
0010
0000
0000
0000
0000
0000
0300
0010
0100
0000
0001
0000
0000
0000
0001
0000
1000
0000
0000
0000
0000
0000
0000
0000
,  // measure 37
0001
0000
1000
0010
0000
0010
0001
1000
0100
0000
1000
0010
0100
0000
0001
0000
,  // measure 38
0000
0000
1000
0100
0000
0100
0001
1000
0010
0000
0100
0010
1000
0000
0001
0000
,  // measure 39
MMMM
0000
0000
1000
0000
1000
0010
0100
0001
0000
1000
0100
0010
0000
0100
0000
,  // measure 40
0000
0000
1000
0001
0000
0001
1000
0010
0100
0000
1000
0100
0001
0000
1000
0000
,  // measure 41
MMMM
0000
0000
0010
0000
0010
1000
0001
0100
0000
0001
0010
0100
0000
1000
0000
,  // measure 42
0000
0000
0001
0010
0000
0010
1000
0001
0100
0000
0010
0100
0001
0000
1000
0000
,  // measure 43
MMMM
0000
0000
0100
0000
0100
0010
0100
1000
0000
0010
0100
0001
0000
1000
0000
,  // measure 44
0000
0000
0000
0000
0000
0000
0100
0000
0000
0010
0000
0000
0000
0000
0000
0001
0000
0000
0000
0000
0000
0100
0000
0000
0010
0000
0000
0000
0000
0000
0100
0000
0000
0000
0000
0000
2000
0000
0000
0000
0000
0000
0000
0000
3000
0000
0000
0000
,  // measure 45
0110
0000
0000
0000
;
