#TITLE:オニギリック・リヴァイヴァー;
#SUBTITLE:;
#ARTIST:The Idol Formerly Known as LADYBABY;
#TITLETRANSLIT:Onigirick Riviver;
#SUBTITLETRANSLIT:;
#ARTISTTRANSLIT:;
#GENRE:;
#CREDIT:;
#BANNER:;
#BACKGROUND:[Round 1] - Onigirick Riviver-jacket.jpg;
#LYRICSPATH:;
#CDTITLE:;
#MUSIC:[Round 1] - Onigirick Riviver.ogg;
#OFFSET:-0.473523;
#SAMPLESTART:59.700001;
#SAMPLELENGTH:15.000000;
#SELECTABLE:YES;
#BPMS:0.000000=90.000000
,12.000000=180.000000
,108.000000=90.000000
,112.000000=180.000000
,120.000000=90.000000
,124.000000=180.000000
,140.000000=90.000000
,144.000000=180.000000
,350.000000=90.000000
,351.000000=180.000000
;
#STOPS:
;
#BGCHANGES:;
#KEYSOUNDS:;
#ATTACKS:;

//---------------dance-single - ----------------
#NOTES:
     dance-single:
     :
     Medium:
     7:
     0.445637,0.554273,0.127188,0.247682,0.016735,466.000000,447.000000,19.000000,37.000000,0.000000,0.000000,0.445637,0.554273,0.127188,0.247682,0.016735,466.000000,447.000000,19.000000,37.000000,0.000000,0.000000:
0000
0000
0000
0000
,
0000
0000
0000
0000
,
0000
0000
0000
0000
,
0000
0000
0000
0000
,
0000
0000
0000
0000
0000
0000
0000
1000
,
0000
0001
0010
0100
1000
0000
0000
0001
,
0000
1000
0100
0010
0001
0000
0000
1000
,
0000
0001
0100
0001
1000
0001
1000
0001
,
1000
0000
0010
0000
1000
0001
0000
0010
,
0000
0001
0010
0100
1000
0000
0000
0010
,
0000
1000
0010
0100
0001
0000
0000
0000
,
0011
0110
1100
1001
,
1000
0010
1000
0010
1000
0000
0001
1000
,
0001
0000
0000
1000
0100
0000
0000
1000
,
0010
0100
0001
1000
,
1001
0000
0000
0001
0010
0000
0000
0001
,
0100
0010
1000
0001
,
1001
0100
0000
0100
,
0000
0100
0000
0100
,
0001
0001
0000
1000
1000
0000
0100
0200
,
0000
0000
0310
0001
,
1001
0010
0000
0010
,
0000
0010
0000
0010
,
1000
1000
0000
0001
0001
0000
0010
0020
,
0000
0000
0130
0000
,
1000
0100
0010
0001
,
0100
0000
0010
0000
1000
0001
1000
0000
,
0002
0013
0200
1300
,
1001
0001
0100
0001
,
1000
0000
0010
0000
0100
0001
1000
0000
,
0200
0310
0002
1003
,
1001
0000
1000
0000
0010
0000
0100
0001
,
0000
0001
1000
0000
0100
0000
0010
0000
,
0001
0010
0001
0010
0001
0000
0010
0000
,
0002
0103
2000
3100
,
1002
0000
0103
0000
0010
1000
0001
0000
,
1000
0100
0000
0010
0001
0000
2000
0002
,
0000
0000
0000
0000
,
3003
0000
0110
1001
,
0001
0010
0001
0000
0010
0000
0100
0000
,
1000
0001
1000
0010
0000
0100
0010
0000
,
1000
0000
0001
0010
0000
0100
0000
2000
,
0000
0000
0000
3001
0000
0010
0000
0001
,
1000
0100
1000
0000
0100
0000
0010
0000
,
0001
1000
0001
0100
0000
0010
1000
0000
,
0002
0000
0010
0000
1000
0000
0103
0010
,
2000
0000
3001
1000
0002
0000
0103
0000
,
0000
0000
0001
1000
0001
1000
0000
0200
,
0000
0000
0000
1300
0000
0000
0001
0000
,
1000
0000
0100
0000
0010
0001
0100
0020
,
0000
0000
0000
0030
,
1000
0010
1000
0010
1000
0001
0000
0000
,
0001
0010
0001
0010
0001
1000
0000
0000
,
0001
0000
0000
0010
0000
0000
0100
0000
1000
0000
0000
0000
0001
0000
0000
0000
,
0100
0110
2002
3003
,
1000
0000
0010
0100
0000
0010
1000
0000
,
0001
0000
0010
0100
0000
1000
0001
0000
,
0100
0000
0010
0000
1000
0100
1000
0001
,
0000
0000
0000
0000
,
0010
0001
0010
0100
0000
1000
0001
0000
,
0100
0000
0010
1000
0000
0010
0100
0000
,
0001
0000
0010
0000
0100
1000
0001
0100
,
0000
0000
0000
0000
0001
1000
0001
0000
,
0010
0000
0100
0000
1000
0001
0100
0000
,
0001
1000
0100
0000
0010
0000
0001
0000
,
1000
0000
0010
0000
0100
0001
1000
0000
,
0001
0010
0100
0010
0001
0000
1000
0000
,
0001
0100
0001
0000
1000
0100
1000
0000
,
0001
0010
0100
1000
0002
0000
0000
0000
,
1003
0000
0000
0010
0000
0000
0100
0000
0001
0000
0000
1000
0000
0000
0001
0000
,
0010
0000
0100
2000
0002
0000
0000
0000
,
3003
0000
0000
0001
0100
0000
1001
0000
,
1000
0010
1000
0000
0010
0000
0100
0000
,
0001
1000
0001
0010
0000
0100
0010
0000
,
0001
0000
1000
0010
0000
0100
0000
0002
,
0000
0000
0000
1003
0000
0010
0000
1000
,
0001
0100
0001
0000
0100
0000
0010
0000
,
1000
0001
1000
0100
0000
0010
0001
0000
,
2000
0000
0010
0000
0001
0000
3100
0010
,
0002
0000
1003
0001
2000
0000
3100
0000
,
0000
0000
1000
0000
0001
1000
0000
0001
,
0010
0000
0100
0010
0000
0001
1000
0000
,
0001
0000
0100
0000
0010
1000
0100
0020
,
0000
0000
0000
0030
,
0001
0010
0001
0010
0001
1000
0000
0000
,
1000
0010
1000
0010
1000
0001
0000
0000
,
1000
0000
0000
0010
0000
0000
0100
0000
0001
0000
0000
0000
1000
0000
0000
0000
,
0100
0000
0110
0000
2002
3003
0001
0100
,
0001
1000
0010
0000
0100
0000
0010
1000
,
0001
0100
0000
0001
1000
0000
0100
0000
,
1000
0010
0000
0100
0000
0002
0000
0000
,
0000
1003
0000
0001
0000
0001
0010
0001
,
1000
0100
1000
0000
0100
0000
0010
0001
,
0010
0100
0000
1000
0001
0000
0200
0000
,
0010
0000
1000
0000
0301
1000
0002
0000
,
0013
0100
2000
0000
3001
0000
0000
0000
,
1000
0001
1000
0100
0000
0020
0000
0000
,
0000
0031
0000
1000
0001
0000
1000
0000
,
0010
0000
0100
0001
1000
0200
0000
0000
,
0000
0000
0000
0000
0300
0000
0010
0001
,
0010
0100
1000
0001
0000
0000
0010
1000
,
0010
0000
0100
0000
0001
0000
1000
0000
0000
0000
0000
0000
0010
0000
0000
0100
,
0000
0010
0001
0000
1000
0000
0100
0000
,
0110
2002
3003
0000
;

//---------------dance-single - ----------------
#NOTES:
     dance-single:
     :
     Hard:
     8:
     0.634984,0.692841,0.408341,0.240988,0.093718,664.000000,603.000000,61.000000,36.000000,0.000000,0.000000,0.634984,0.692841,0.408341,0.240988,0.093718,664.000000,603.000000,61.000000,36.000000,0.000000,0.000000:
0000
0000
0000
0000
,
0000
0000
0000
0000
,
0000
0000
0000
0000
,
0011
0000
0000
0110
0000
0000
1000
0000
0001
0000
0000
0000
0100
0000
0000
0000
,
0010
1010
0101
0000
,
1000
0001
0010
0001
0100
0001
0100
0001
,
1000
0001
0010
0001
0100
0001
0100
0001
,
1000
0001
0010
0001
0100
0010
1000
0100
,
0010
0000
0000
0000
0001
0000
0000
0000
1000
0001
1000
0000
0000
0000
1000
0000
,
0010
1000
0001
1000
0100
1000
0100
1000
,
0010
1000
0001
1000
0100
1000
0100
1000
,
1100
0000
1100
0000
0010
0001
0100
0000
,
0001
0100
1000
0100
0001
0000
1000
0000
,
1001
0000
0000
1000
0100
0000
0000
1000
,
0001
1000
0010
1000
0100
0000
1000
0000
,
1001
0000
0000
0001
0100
0000
0000
0001
,
1000
0001
0010
0001
0100
0000
0010
0000
,
1001
0000
1000
0000
0001
0010
0001
1000
,
0000
1000
0010
0000
0100
0001
1000
0000
,
0001
0011
0000
1000
1010
0000
0001
0102
,
0000
0103
0010
1000
0100
0010
0001
1000
,
1001
0000
0001
0000
1000
0010
1000
0001
,
0000
0001
0010
0000
0100
1000
0001
0000
,
1000
1010
0000
0001
0101
0000
1000
2100
,
0000
0000
3001
0000
0010
0000
0001
0000
0100
0000
0010
1000
0001
0000
0000
0000
,
0200
0000
0310
0000
1000
0001
0010
0100
,
0000
1000
0100
0001
0100
1000
0001
0100
,
0201
0000
0000
0310
1000
0000
0001
0000
1200
0000
0000
0310
0001
0000
1000
0000
,
1002
0000
0103
0000
0010
1000
0100
0010
,
0000
0010
0001
0100
0010
0001
0010
1000
,
2001
0000
0000
3001
0010
0000
0100
0000
1200
0000
0000
1300
0001
0000
0100
0000
,
0110
0000
0010
0000
1000
0001
0010
0100
,
0000
0100
1000
0000
0001
0100
0010
0000
,
1000
0010
0100
0001
1000
0001
0010
0000
,
0021
0130
2100
3001
,
1002
0000
0000
0000
0103
0010
1000
0001
0000
0100
1000
0000
0100
0001
1000
0000
,
0001
0011
0000
1000
1010
0000
0001
0201
,
0000
0000
0000
0300
,
0001
1000
0001
1000
0001
0000
0000
0000
0010
0000
0000
0000
1001
0000
0000
0000
,
0001
0100
0001
1000
0010
0100
0001
1000
,
0001
0010
0100
1000
0000
1000
0010
1000
,
0100
0000
0010
0001
0000
0011
0000
2100
,
0000
0000
3000
0010
1000
0001
0000
0001
,
1000
0001
0010
0100
1000
0001
1000
0010
,
0100
0001
1000
0100
0000
0100
0010
0100
,
2000
0000
3001
0000
0010
0000
0001
0100
,
0020
0000
1030
0001
2000
0000
3001
0000
,
0000
0000
1010
0010
0001
0010
0000
2000
,
0000
3001
0010
0100
0000
1000
0010
1000
,
0001
1000
0100
1000
0010
0100
0001
2000
,
0000
0000
3000
0000
,
0001
0000
0010
0000
0100
0000
1000
0000
0001
1000
0001
0000
0000
0000
0001
0000
,
1000
0000
0010
0000
0100
0000
0001
0000
1000
0001
1000
0000
0000
0000
1000
0000
,
1001
0000
0000
0011
0000
0000
0010
0000
0100
0000
0000
0000
1000
0000
0001
0000
,
0100
1010
0102
2003
,
3001
0010
0001
0100
0000
0010
1000
0001
,
0100
0000
1000
0100
0000
0001
1000
0000
,
0001
0000
0010
0100
0001
0100
0010
0001
,
1000
0000
0000
1000
0000
0000
0001
0000
0101
0000
0000
0000
0110
0000
0000
0000
,
1000
0001
0010
0100
0000
0001
0100
1000
,
0010
0000
0100
0001
0000
1000
0010
0100
,
0001
0000
0010
0100
1000
0010
0100
0001
,
0000
0000
0000
1000
0001
0010
0100
1000
,
0001
0000
1000
0010
0000
0010
0100
0000
,
0100
0001
0000
1000
0001
0000
1001
0000
,
0001
0000
0001
0010
0000
0010
0100
0000
,
0010
0000
0001
0000
1000
0000
0001
0000
0100
0000
0000
0010
0000
0000
1000
0000
,
0001
0010
0001
0010
1000
0010
1000
0010
,
0001
0100
0010
1000
0002
0000
0003
0000
,
1001
0000
0000
1000
0000
0000
0010
0000
0100
0000
0000
1000
0000
0000
0100
0000
,
0001
0010
0100
1000
0020
0000
0000
0000
,
1030
0001
1000
0001
1000
0000
0010
0000
0110
0000
0000
0000
1001
0000
0000
0000
,
1000
0100
1000
0001
0010
0100
1000
0001
,
1000
0010
0100
0001
0000
0001
0010
0001
,
0100
0000
0010
1000
0000
1010
0000
0102
,
0000
0000
0003
0010
0001
1000
0000
1000
,
0001
1000
0010
0100
0001
1000
0001
0010
,
0100
1000
0001
0100
0000
0100
0010
0100
,
0002
0000
0013
0000
0100
0000
1000
0010
,
0200
0000
0301
1000
0002
0000
1003
0000
,
0000
0000
1010
0000
0001
0010
0000
0100
,
2000
0000
3001
0100
0000
0001
0010
0001
,
1000
0001
0100
0001
0010
0100
1000
0002
,
0000
0000
0003
0000
,
1000
0000
0010
0000
0100
0000
0001
0000
1000
0001
1000
0000
0000
0000
1000
0000
,
0001
0000
0010
0000
0100
0000
1000
0000
0001
1000
0001
0000
0000
0000
1000
0000
,
1001
0000
0000
0011
0000
0000
0010
0000
0100
0000
0000
0000
1000
0000
0001
0000
,
0100
0000
1010
0000
0102
0010
1003
0100
,
1000
0010
0100
0100
0001
0010
0100
0010
,
0001
0100
0000
1000
0100
0001
0010
0000
,
0100
0010
0000
1100
0000
0201
0000
0000
,
0000
0310
1000
0001
0000
1001
0001
0100
,
0001
0010
0100
0100
1000
0010
0100
0001
,
1000
0100
0000
0001
0100
1000
1010
0000
,
0101
0000
0011
0000
0010
0100
2000
0000
,
3001
0010
2000
0000
3010
0000
0000
0000
,
0011
0001
0100
0010
0000
2000
0000
0001
,
3001
1000
0000
0100
0010
0001
0100
1000
,
0100
0001
0010
0100
1000
0002
0000
0000
,
0000
0000
0000
0000
0000
0000
0000
0000
0003
0000
0000
0000
1000
0100
0010
0000
,
0001
0000
1000
0000
0001
0000
1000
0000
0000
0000
1000
0000
0001
0100
0010
0000
,
1000
0000
0001
0000
0010
0000
0100
0000
0000
0000
1000
0000
1001
0000
0000
0011
,
0000
0010
0100
0000
1000
0001
0101
0000
,
1010
0220
0330
0000
;

//---------------dance-single - ----------------
#NOTES:
     dance-single:
     :
     Challenge:
     10:
     0.778430,0.900693,0.602470,0.321317,0.301235,814.000000,724.000000,90.000000,48.000000,0.000000,0.000000,0.778430,0.900693,0.602470,0.321317,0.301235,814.000000,724.000000,90.000000,48.000000,0.000000,0.000000:
// measure 0
0000
0000
0000
0000
,  // measure 1
0000
0000
0000
0000
,  // measure 2
0000
0000
0000
0000
,  // measure 3
0101
0000
0000
0110
0000
0000
1010
0000
1001
0000
0000
0000
1000
0000
0001
0000
,  // measure 4
0011
0000
0110
0000
1001
0002
0000
2003
,  // measure 5
0000
3001
0010
0001
0100
0001
0010
2000
,  // measure 6
0000
3010
0001
0100
0010
0001
0010
2000
,  // measure 7
0000
3100
0010
1000
0010
0001
0100
0010
,  // measure 8
1010
0000
0000
0000
0101
0000
0000
0000
1000
0001
0100
0000
0000
0000
0020
0000
,  // measure 9
0000
0031
0010
1000
0100
0001
0100
0020
,  // measure 10
0000
0031
0100
1000
0100
0001
0010
0100
,  // measure 11
1000
0000
0001
0100
0001
0000
0100
0010
0100
0010
0100
0000
0001
0000
1000
0000
,  // measure 12
0100
1000
0100
0000
0010
0100
0010
0100
0010
0000
0001
0000
1001
0000
0100
0000
,  // measure 13
0101
0000
0000
1000
1100
0000
0000
0001
,  // measure 14
0011
0100
1000
0100
0001
0100
0100
0010
,  // measure 15
1001
0000
0000
1000
1010
0000
0000
0001
,  // measure 16
0101
0010
1000
0010
0001
0010
0010
0100
,  // measure 17
1001
0000
1000
0000
0001
0000
0000
0010
0000
0001
0010
0000
0100
0000
1000
0000
,  // measure 18
0000
0000
1000
0000
0010
0000
0000
0100
0000
0001
0010
0000
0100
0000
1000
0100
,  // measure 19
1000
1100
0000
1001
1001
0000
0101
0201
,  // measure 20
0000
0000
0310
0000
1000
0000
0001
0000
1000
0000
0001
1000
0001
0000
0010
0000
,  // measure 21
0011
0000
0010
0000
0100
0000
0000
1000
0000
0001
1000
0000
0100
0000
0010
0000
,  // measure 22
0000
0000
0010
0000
0001
0000
0000
0100
0000
0001
0100
0000
1000
0000
0100
0010
,  // measure 23
0100
0101
0000
1001
1001
0000
1100
1200
,  // measure 24
0000
0000
0310
0000
0001
0000
1000
0000
0010
0000
1000
0001
1000
0000
0000
0000
,  // measure 25
0001
0010
0001
0100
0010
1000
0100
0010
,  // measure 26
0100
0000
1000
0000
0100
0000
0001
0000
0100
0000
1000
0000
0001
0000
0100
0010
,  // measure 27
2000
0000
0000
0000
0000
0000
3001
0000
0011
0000
0000
0000
0100
0000
0000
0000
0020
0000
0000
0100
0000
0000
0031
0000
1000
0001
1000
0001
1000
0000
0000
0000
,  // measure 28
1000
0010
1000
0100
0010
0100
1000
0001
,  // measure 29
0010
0000
1000
0000
0010
0000
0001
0000
0100
0000
0010
0000
1000
0000
0001
0100
,  // measure 30
0020
0000
0000
0000
0000
0000
1030
0000
1001
0000
0000
0000
1000
0000
0000
0000
0200
0000
0000
0010
0000
0000
0310
0000
0001
1000
0001
1000
0001
0000
0000
0000
,  // measure 31
1000
0010
0100
0010
1000
0001
0010
0100
,  // measure 32
0000
0100
1000
0100
0001
0100
1000
0001
,  // measure 33
0010
0010
0100
0100
0010
0010
0001
1000
,  // measure 34
0001
0000
0001
0000
0100
0000
0100
0000
0010
0000
0010
0000
1000
0000
0001
0010
,  // measure 35
0200
0000
0000
0000
0000
0000
1300
0001
0200
0000
0000
0000
0310
0000
0000
0000
1020
0000
0000
0100
0000
0000
0130
0001
0020
0000
0000
0000
0130
0000
0000
0000
,  // measure 36
1100
1001
0000
0101
1001
0000
1010
2002
,  // measure 37
0000
0000
0000
3003
,  // measure 38
1000
0001
0100
0001
1000
0000
0000
0000
0110
0000
0000
0000
1001
0000
0000
0000
,  // measure 39
1000
0000
0001
1000
0001
1000
0001
1000
0010
0000
0100
0010
0100
0000
0100
0000
,  // measure 40
0001
0010
0100
1000
0000
0010
0100
0001
,  // measure 41
0010
0000
1000
0020
0000
0001
0000
0230
,  // measure 42
0000
1000
1000
2300
0000
0001
0001
3001
,  // measure 43
0100
0010
0100
0010
0100
0010
0100
0000
0001
0000
0001
0000
1000
0000
1000
0000
,  // measure 44
0001
0010
0100
1000
0000
1000
0010
1000
,  // measure 45
1001
0000
0011
0000
0110
0000
1000
0001
,  // measure 46
0020
1000
1030
0010
0002
1000
1003
0010
,  // measure 47
0000
0000
1001
0001
1000
0100
0010
0200
,  // measure 48
0000
1300
0010
0001
0000
0010
0100
0001
,  // measure 49
0010
0100
0010
1000
0010
0001
0100
0020
,  // measure 50
0000
0001
0000
0230
0000
1000
0000
0310
,  // measure 51
1000
0000
0010
1000
0010
1000
0001
1000
0010
1000
0100
0010
0000
0000
0100
0000
,  // measure 52
0010
0001
0010
0000
0001
0010
0001
0000
0100
0010
1000
0001
0000
0000
1000
0000
,  // measure 53
0011
0000
0000
0110
0000
0000
1100
0000
1001
0000
0000
0000
1000
0000
0001
0000
,  // measure 54
0101
0000
0000
0000
1010
0000
0000
0000
0110
0000
1000
0001
0200
0000
0000
0000
,  // measure 55
1300
0100
0001
0010
0000
1000
0010
0001
,  // measure 56
0100
0000
1000
0100
0000
0001
0010
0000
,  // measure 57
0100
0000
0001
0100
1000
0010
0001
1000
,  // measure 58
0100
0000
0000
0001
0000
0000
0010
0000
1100
0000
0000
0000
0101
0000
0000
0000
,  // measure 59
0010
1000
0100
0001
0000
1000
0010
0100
,  // measure 60
1000
0000
0010
0001
0000
1000
0100
0001
,  // measure 61
0010
0000
0010
1000
0001
0100
1000
0001
,  // measure 62
0010
0000
0000
0100
0000
0000
1100
0000
0010
0000
0001
0000
0100
0000
0010
0000
,  // measure 63
1000
0000
1010
0001
0100
0001
0010
0000
,  // measure 64
1000
0010
0001
0010
0110
0000
1001
0000
,  // measure 65
0101
0000
0110
0010
1000
0010
0001
0000
,  // measure 66
1000
0000
0100
0000
0001
0000
0010
0000
0100
0000
0000
1000
0000
0000
0001
0000
,  // measure 67
1000
0000
1000
0000
0010
0000
0010
0000
0001
0010
0001
0000
0010
0000
0010
0000
,  // measure 68
0100
0001
0010
0001
2000
0001
0000
3000
,  // measure 69
0011
0000
0000
0110
0000
0000
1100
0000
1010
0000
0000
0110
0000
0000
0101
0000
,  // measure 70
1000
0001
0010
0100
2002
0000
0000
3003
,  // measure 71
0001
1000
0100
1000
0001
0000
1000
0000
0110
0000
0000
0000
1001
0000
0000
0000
,  // measure 72
0001
1000
0001
1000
0001
1000
0001
0000
0010
0000
0010
0000
0100
0000
0100
0000
,  // measure 73
1000
0010
0100
0001
0000
0010
0100
1000
,  // measure 74
0010
0000
0001
0020
0000
1000
0000
0230
,  // measure 75
0000
0001
0001
0302
0000
1000
1000
1003
,  // measure 76
0100
0010
0100
0010
0100
0010
0100
0000
1000
0000
1000
0000
0001
0000
0001
0000
,  // measure 77
1000
0010
0100
0001
0000
0001
0010
0001
,  // measure 78
1001
0000
1010
0000
0110
0000
0001
1000
,  // measure 79
0020
0001
0031
0010
2000
0001
3001
0010
,  // measure 80
0000
0000
1001
0000
1000
0100
0010
0100
,  // measure 81
1000
0000
0001
0010
0000
0100
0010
0001
,  // measure 82
0100
0010
0100
1000
0100
0001
0010
0200
,  // measure 83
0000
0010
0010
0320
0000
0001
0001
0031
,  // measure 84
1000
0000
1000
0000
0010
1000
0100
0000
1000
0000
0001
0000
0000
0000
0010
0000
,  // measure 85
0001
0000
0010
0001
0100
0000
0100
0000
0001
0000
1000
0000
0000
0000
0001
0000
,  // measure 86
0011
0000
0000
0110
0000
0000
1100
0000
1001
0000
0000
0000
1000
0000
0001
0000
,  // measure 87
0101
0000
0000
0000
1010
0000
0000
0000
0210
0000
1000
0000
0301
0000
0001
1000
,  // measure 88
0001
1000
0001
1000
0100
1000
0100
1000
0100
0000
1000
0000
0001
0000
0010
0000
,  // measure 89
0100
1000
0000
0010
0010
0010
0001
0000
,  // measure 90
1000
0200
0000
0001
0000
0302
0000
0010
,  // measure 91
0013
0000
0200
0000
0000
0000
0010
0000
0310
0000
0001
0000
0100
0001
0100
0001
,  // measure 92
0100
0000
0010
0000
1000
0001
1000
0001
1000
0000
0001
0000
0001
0000
0010
0000
,  // measure 93
0100
1000
0000
0010
1000
0001
0011
0000
,  // measure 94
0110
0000
1001
0000
1000
0010
0200
0001
,  // measure 95
0301
0010
0200
0001
0301
0100
0000
0000
,  // measure 96
0110
0010
0001
1000
0000
0020
0000
0130
,  // measure 97
0001
0101
0000
0010
1000
0100
0010
0100
,  // measure 98
0001
0100
1000
0010
0001
0020
0000
1000
,  // measure 99
0000
0000
0230
0000
0000
0000
1000
0000
0000
0000
0301
0000
0010
0001
0100
0000
,  // measure 100
0010
0000
0100
0000
0100
0000
0010
0000
0000
0000
0100
0000
0010
1000
0100
0000
,  // measure 101
0010
0100
1000
0000
0010
0000
0100
0000
0000
0000
0010
0000
1001
0000
0000
0101
,  // measure 102
0000
0110
1001
0000
1000
0001
0011
0000
,  // measure 103
1100
0220
0330
0000
;

//---------------dance-single - ----------------
#NOTES:
     dance-single:
     :
     Easy:
     5:
     0.294541,0.415704,0.113800,0.194129,0.000000,308.000000,291.000000,17.000000,29.000000,0.000000,0.000000,0.294541,0.415704,0.113800,0.194129,0.000000,308.000000,291.000000,17.000000,29.000000,0.000000,0.000000:
0000
0000
0000
0000
,
0000
0000
0000
0000
,
0000
0000
0000
0000
,
0000
0000
0000
0000
,
0000
0000
0000
0000
,
1000
0100
1000
0000
,
0001
0100
0001
0000
,
1000
0010
1000
0010
,
0100
0100
0100
0000
,
0001
1000
0001
0000
,
0010
0001
0010
0000
,
0100
0100
1000
1000
,
0001
1000
1001
0000
,
0001
0000
0100
0000
,
0001
0100
0001
0000
,
1000
0000
0100
0000
,
1000
0100
1000
0000
,
2002
0000
0000
0000
,
0000
0000
3003
0000
,
0001
0000
0000
0100
0000
0000
0020
0000
,
0000
0000
0000
0030
,
2002
0000
0000
0000
,
0000
0000
3003
0000
,
1000
0000
0000
0100
0000
0000
0020
0000
,
0000
0000
0000
0030
,
0002
0000
0103
0001
,
1000
0001
1000
0000
,
0200
0000
0320
0000
,
0032
0000
1003
0001
,
0100
0010
1000
0001
,
2000
0000
3200
0000
,
0320
0000
0031
0000
,
1000
0001
0100
0000
,
0010
0100
0010
0100
,
0001
1000
0001
0000
,
2000
0000
3200
0000
,
0310
0000
0000
0001
0000
0000
2000
0000
,
0000
0000
0000
0000
,
3001
0000
0100
0100
,
0001
0100
0010
1000
,
0001
1000
0001
0000
,
1000
0001
0010
0001
,
2000
0000
0000
3000
,
0001
0100
0001
1000
,
0100
0010
0100
1000
,
0001
0001
1000
1000
,
0001
0100
0110
0000
,
0010
1000
0100
1000
,
0001
0010
0001
0000
,
0100
0100
0010
1000
,
0002
0000
0003
0000
,
1000
0100
1100
0000
,
0001
0100
0101
0000
,
1000
0001
1000
0001
,
0010
0010
0010
0000
,
0100
0000
1000
0000
,
0001
1000
0010
0000
,
0100
0001
1000
0001
,
0100
0000
0110
0110
,
0001
0000
1000
0000
,
0100
0010
0001
0000
,
1000
0001
0100
0001
,
1000
0000
0100
0100
,
1000
0001
1000
0001
,
0010
0100
0010
0000
,
0001
1000
0001
1000
,
0010
0010
0100
0000
,
0001
0001
0100
0100
,
0010
0010
2000
3000
,
0002
0003
0020
0030
,
0100
1000
0002
0000
,
2000
3003
0100
0100
,
1000
0100
0010
0001
,
1000
0001
1000
0000
,
0001
1000
0010
1000
,
0002
0000
0000
0003
,
1000
0100
1000
0001
,
0100
0010
0100
0001
,
1000
1000
0001
0001
,
1000
0100
0110
0000
,
0010
0001
0100
0001
,
1000
0010
1000
0000
,
0100
0100
0010
0001
,
2000
0000
3000
0000
,
0001
0100
0101
0000
,
1000
0100
1100
0000
,
0001
1000
0001
1000
,
0010
0010
0010
1000
,
0100
0010
0001
0100
,
0010
1000
0000
0001
,
0100
0001
1000
0200
,
0000
0310
0000
0001
,
0010
0100
1000
0010
,
0100
0001
0000
1000
,
1000
0001
0001
0010
,
0100
0110
0000
0010
,
0001
0100
0010
1000
,
0001
0100
0001
1000
,
1000
0100
0100
0020
,
0000
0000
0030
0001
,
0100
0101
0000
1000
,
0100
1100
0000
0001
,
0010
0100
1000
1001
,
0110
2002
3003
0000
;
