#TITLE:Nemesis;
#SUBTITLE:Draft Mix;
#ARTIST:D.J.SETUP (Remixed by DJ BETMAX);
#TITLETRANSLIT:;
#SUBTITLETRANSLIT:;
#ARTISTTRANSLIT:;
#GENRE:;
#CREDIT:;
#BANNER:;
#BACKGROUND:;
#LYRICSPATH:;
#CDTITLE:;
#MUSIC:Nemesis Draft Mix.ogg;
#OFFSET:0.000000;
#SAMPLESTART:19.200001;
#SAMPLELENGTH:15.000000;
#SELECTABLE:YES;
#BPMS:0.000000=200.000000
;
#STOPS:
;
#BGCHANGES:;
#KEYSOUNDS:;
#ATTACKS:;

//---------------dance-single - ----------------
#NOTES:
     dance-single:
     :
     Challenge:
     10:
     0.743157,0.768420,0.166531,0.364781,0.095160,656.000000,635.000000,21.000000,46.000000,0.000000,0.000000,0.743157,0.768420,0.166531,0.364781,0.095160,656.000000,635.000000,21.000000,46.000000,0.000000,0.000000:
2000
0000
3000
2000
0000
0000
0000
0000
,
0000
3000
0200
0000
0320
0000
0032
0000
,
0203
0000
0300
0200
0000
0000
0000
0000
,
0000
0000
0000
0300
0020
0000
0032
0000
,
0023
0000
0030
0020
0000
0000
0000
0000
,
0000
0000
0000
0030
0002
0000
2003
0000
,
3200
0000
0300
0200
0000
0000
0000
0000
,
0000
0300
0020
0000
0032
0000
0203
0300
,
1000
1000
0100
0100
,
0010
0010
0001
0001
,
0100
0100
0010
0010
,
1000
1000
0001
0001
,
0100
0001
1000
0010
,
0100
0001
0010
1000
,
0100
1000
0010
0100
,
0101
0110
1010
1001
,
1000
0000
0100
0000
0010
0000
0100
0000
0001
0100
0001
0000
0010
0000
0100
0000
,
1000
0000
0001
0000
0100
0000
0001
0000
1000
0010
1000
0000
0100
0000
0010
0000
,
0001
0000
1000
0000
0100
0000
0010
0000
0001
0010
0001
0000
0100
0000
1000
0000
,
0010
0000
0100
0000
0001
0000
1000
0000
0100
1000
0100
0000
1000
0000
0010
0000
,
1000
0000
0100
0000
0001
0000
1000
0000
0001
1000
0001
0000
0100
0000
0010
0000
,
1000
0000
0010
0000
0100
0000
0001
0000
0010
0001
0010
0000
0100
0000
1000
0000
,
0010
0000
0100
0000
0001
0000
0100
0000
0010
1000
0010
0000
1000
0000
0100
0000
,
0001
0000
0100
0000
0010
0000
1000
0000
0001
1000
0001
0000
0100
0000
0010
0000
,
0001
0100
0001
1000
0010
1000
0010
0100
,
0001
0010
0001
1000
0100
1000
0100
0010
,
0001
1000
0001
0010
0100
1000
0100
0010
,
0001
0010
0001
1000
0100
0010
0100
1000
,
0010
0100
0010
1000
0001
0010
0001
0100
,
0010
1000
0010
0100
0001
0010
0001
0100
,
1000
0100
1000
0010
0001
0010
0001
0100
,
0010
1000
0010
0100
0001
1000
0001
1000
,
0001
0100
1000
0100
0001
0100
1000
0100
,
0001
0010
0100
0010
0001
0010
0100
0010
,
1000
0010
0001
0010
1000
0010
0001
0010
,
0100
0001
1000
0001
0100
0001
1000
0001
,
0100
0010
1000
0010
0100
0010
1000
0010
,
0001
1000
0100
1000
0001
1000
0100
1000
,
0010
0100
0001
0100
0010
0100
0001
0100
,
0001
1000
0100
0100
1000
0010
0100
0001
,
1000
0000
1000
0010
0001
0010
1000
0000
,
0001
0100
1000
0100
0001
0000
1000
0010
,
0100
0010
1000
0000
0100
0001
0010
0001
,
0100
0000
0001
0100
1000
0100
0001
0000
,
0010
1000
0100
1000
0010
0000
1000
0001
,
0100
0001
1000
0000
0100
0010
0001
0010
,
0100
0000
0010
1000
0100
1000
0010
0000
,
0100
0001
1000
0001
0100
0001
0100
0001
,
1000
0001
1001
0000
0010
0100
0110
0000
,
0001
0100
0101
0000
1000
0010
1010
0000
,
0010
0001
0011
0000
0010
0100
0110
0000
,
0001
1000
1001
0000
0010
0001
0011
0000
,
0001
0100
0110
0000
1000
0010
0110
0000
,
1000
0001
0101
0000
0001
1000
1010
0000
,
0100
0010
1010
0000
0001
0100
0101
0000
,
1001
0000
0010
1010
0000
0101
0001
0001
,
1000
0001
1000
0000
0010
0100
0010
0000
,
0100
0001
0100
0000
0010
1000
0010
0000
,
0001
1000
0001
0000
0100
0010
0100
0000
,
0001
0010
0001
0000
1000
0100
1000
0000
,
0001
0100
1000
0000
0001
0010
1000
0000
,
0001
0010
0100
0000
1000
0100
0010
0000
,
0010
1000
0100
0000
0010
0001
0100
0000
,
0001
1000
0010
0000
0100
0001
1000
0000
,
0010
0100
0001
0010
0100
1000
0010
0100
,
0001
0100
0001
1000
0010
1000
0100
0001
,
0100
0010
1000
0100
1000
0001
0100
0010
,
0001
0100
0010
1000
0100
0010
0100
0001
,
0010
1000
0100
1000
0010
0100
0001
0010
,
0100
1000
0001
0100
0010
1000
0010
0100
,
0001
0100
0010
1000
0100
0010
1000
0001
,
1000
1000
0100
0100
0010
0010
0001
0001
,
1000
0000
0010
0000
0100
0000
0001
0000
1000
0001
1000
0000
0010
0000
0100
0000
,
0001
0000
0010
0000
0100
0000
0010
0000
0001
0010
0001
0000
0100
0000
0010
0000
,
1000
0000
0100
0000
0001
0000
1000
0000
0010
0100
0010
0000
1000
0000
0010
0000
,
0100
0000
0001
0000
0010
0000
0100
0000
0001
0100
0001
0000
0010
0000
0100
0000
,
0010
0000
1000
0000
0001
0000
0100
0000
0010
1000
0010
0000
0100
0000
0001
0000
,
0010
0000
0001
0000
0100
0000
0010
0000
0100
0010
0100
0000
0010
0000
1000
0000
,
0100
0000
0001
0000
0010
0000
1000
0000
0001
0100
0001
0000
1000
0000
0010
0000
,
0100
0000
0001
0000
0010
0000
0001
0000
1000
0001
1000
0000
0010
0000
0100
0000
,
0001
0000
0100
0000
0010
0000
1000
0000
0001
0100
0010
0000
1000
0000
0010
0000
,
0100
0000
0001
0000
0010
0000
0001
0000
0100
0001
0010
0000
0001
0000
0100
0000
,
0010
0000
1000
0000
0100
0000
1000
0000
0010
1000
0001
0000
0100
0000
0001
0000
,
0010
0000
0100
0000
1000
0000
0001
0000
1000
0001
0010
0000
0100
0000
0001
0000
,
1000
0000
0001
0000
0100
0000
0010
0000
0100
0010
1000
0000
0100
0000
0001
0000
,
0010
0000
0100
0000
1000
0000
0001
0000
0100
0001
1000
0000
0010
0000
0100
0000
,
0001
0000
1000
0000
0100
0000
0010
0000
0001
1000
0100
0000
0010
0000
0100
0000
,
0010
0000
0000
0000
1000
0000
1000
0000
0010
0000
0100
0000
0100
0000
0001
1000
,
0002
0000
0003
0002
0000
0000
0000
0000
,
0000
0003
0200
0000
0320
0000
2030
0000
,
3200
0000
0300
0200
0000
0000
0000
0000
,
0000
0300
0020
2030
,
3020
0000
0030
0020
0000
0000
0000
0000
,
0000
0030
2000
3002
,
2003
0000
3000
2000
0000
0000
0000
0000
,
0000
3020
0230
0302
,
2003
0000
3000
2000
0000
0000
0000
0000
,
0000
3000
0200
0000
0320
0000
0032
0000
,
0203
0000
0300
0200
0000
0000
0000
0000
,
0000
0300
0020
2030
,
0002
0000
0000
0000
,
0000
0000
0000
0000
,
3003
0000
0000
0000
;

//---------------dance-single - ----------------
#NOTES:
     dance-single:
     :
     Hard:
     10:
     0.600416,0.647090,0.095160,0.364781,0.003965,530.000000,518.000000,12.000000,46.000000,0.000000,0.000000,0.600416,0.647090,0.095160,0.364781,0.003965,530.000000,518.000000,12.000000,46.000000,0.000000,0.000000:
2000
0000
3000
2000
0000
0000
0000
0000
,
3000
0200
0320
0032
,
0203
0000
0300
0200
0000
0000
0000
0000
,
0300
0000
0020
0032
,
0023
0000
0030
0020
0000
0000
0000
0000
,
0030
0000
0002
2003
,
3002
0000
0003
0002
0000
0000
0000
0003
,
0000
0000
2000
0000
3200
0000
0320
0030
,
0001
0001
0100
0100
,
0010
0010
1000
1000
,
0100
0100
0001
0001
,
1000
1000
0010
0010
,
1000
0010
1000
0010
,
0001
0100
0001
0100
,
0001
1000
0001
1000
,
1001
1001
1001
1001
,
0001
0000
0100
0001
1000
0010
0100
0001
,
0100
0000
0001
0010
0100
0010
0001
1000
,
0100
0000
0001
0100
0010
1000
0010
1000
,
0001
0000
0100
0010
0100
0001
1000
0100
,
0001
0000
1000
0001
0100
0001
1000
0010
,
0100
0000
0001
0010
0100
0010
0001
0100
,
0001
0000
1000
0001
0100
0010
1000
0001
,
1000
0000
0100
0010
0001
0100
0010
1000
,
0001
0100
0001
0000
1000
0010
1000
0000
,
0001
0010
0001
0000
1000
0100
1000
0000
,
0010
0100
0010
0000
0100
0010
0100
0000
,
0001
1000
0001
0000
1000
0001
1000
0000
,
0100
0001
0100
0000
0010
1000
0010
0000
,
1000
0100
1000
0000
0001
0010
0001
0000
,
1000
0001
1000
0000
0001
1000
0001
0000
,
0010
0100
0010
0000
0100
0010
0100
0000
,
0001
0000
0100
0000
0001
0100
0001
0000
,
1000
0000
0010
0000
1000
0010
1000
0000
,
0001
0000
0010
0000
0001
0010
0001
0000
,
1000
0000
0100
0000
1000
0100
1000
0000
,
0001
0000
0100
0000
0010
0010
1000
0000
,
0100
0000
0001
0000
1000
1000
0010
0000
,
0100
0001
0100
0010
1000
0100
1000
0000
,
1001
0000
0001
0001
0000
1000
1000
1000
,
0010
0000
1000
0010
0000
0100
0001
0000
,
0001
0010
0000
0100
1000
0000
0001
1000
,
0000
0001
1000
0000
0010
0100
0000
0010
,
0100
0000
0001
1000
0000
0001
1000
0000
,
0001
0100
0000
0010
1000
0000
0100
1000
,
0000
0001
0010
0000
1000
0010
0000
0010
,
0100
0000
0100
0001
0000
0001
0010
0000
,
0010
0001
0000
0001
1000
0001
1000
0001
,
0100
0000
0110
0000
0010
1000
0001
0000
,
0100
0000
0101
0000
0001
1000
0100
0000
,
0010
0000
1010
0000
1000
0010
0100
0000
,
0001
0000
1001
0000
1000
0001
0100
0000
,
0010
0000
1010
0000
0100
0001
0010
0000
,
0001
0000
1001
0000
0001
0100
0010
0000
,
0100
0000
1100
0000
0100
1000
0001
0000
,
0100
0000
0001
0100
0000
0001
1000
0001
,
1000
0001
1000
0000
0010
0100
0010
0000
,
0100
0010
0100
0000
0001
1000
0001
0000
,
1000
0010
1000
0000
0001
0100
0001
0000
,
1000
0100
1000
0000
0001
0010
0001
0000
,
1000
0001
1000
0000
0001
1000
0001
0000
,
1000
0010
1000
0000
0001
0010
0001
0000
,
1000
0100
1000
0000
0001
0100
0001
0000
,
1000
0001
1000
0000
0001
1000
0001
0000
,
0100
0000
0001
1000
0010
1000
0001
0000
,
0010
0000
0001
0100
0010
1000
0100
0000
,
1000
0000
0001
0100
0010
1000
0001
0000
,
0010
0000
0001
0100
0001
1000
0100
0000
,
0001
0100
0001
0010
1000
0100
1000
0000
,
0100
0010
0001
0100
0010
1000
0001
0000
,
0100
0001
0010
0001
1000
0100
1000
0000
,
0001
1000
0001
1000
0001
1000
0001
1000
,
0001
0000
0100
0001
0100
0001
0100
0000
,
0010
1000
0010
1000
0010
0000
0001
1000
,
0001
1000
0001
0000
0100
0010
0100
0010
,
0100
0000
0001
0010
0001
0010
0001
0000
,
1000
0100
1000
0100
1000
0000
0001
1000
,
0001
1000
0001
0000
0100
0010
0100
0010
,
0100
0000
0001
0010
0001
0010
0001
0000
,
1000
0001
1000
0001
1000
0001
1000
0001
,
1000
0000
0001
0100
0010
0100
0001
0000
,
1000
0010
0100
0010
1000
0000
0100
0010
,
0001
0010
0100
0000
1000
0001
0100
0001
,
1000
0000
0100
1000
0010
1000
0100
0000
,
0001
0100
0001
1000
0001
0000
1000
0010
,
0100
0010
1000
0000
0100
0001
0100
0010
,
0100
0000
1000
0010
1000
0001
1000
0000
,
0100
0000
0000
0000
0001
0000
0010
0000
0000
0000
1000
0000
0001
0000
1000
0001
,
2000
0000
3000
2000
0000
0000
0000
0000
,
3000
0200
0320
0032
,
0203
0000
0300
0200
0000
0000
0000
0000
,
0000
0300
0000
0000
0020
0000
0032
0000
,
0023
0000
0030
0020
0000
0000
0000
0000
,
0000
0030
0000
0000
0002
0000
2003
0000
,
3002
0000
0003
0002
0000
0000
0000
0000
,
0003
0200
0320
2030
,
3002
0000
0003
0002
0000
0000
0000
0000
,
0003
0200
0320
2030
,
3002
0000
0003
2000
0000
0000
0000
0000
,
0000
3000
0000
0000
0020
0000
2030
0000
,
0002
0000
0000
0000
,
0000
0000
0000
0000
,
3003
0000
0000
0000
;

//---------------dance-single - ----------------
#NOTES:
     dance-single:
     :
     Medium:
     8:
     0.523382,0.603673,0.087230,0.364781,0.000000,462.000000,451.000000,11.000000,46.000000,0.000000,0.000000,0.523382,0.603673,0.087230,0.364781,0.000000,462.000000,451.000000,11.000000,46.000000,0.000000,0.000000:
2000
0000
0000
0020
0000
0000
0000
3030
,
0000
0200
0302
0203
,
0302
0000
0000
2000
0000
0000
0000
0000
,
3003
0000
2000
3020
,
2030
0000
0000
0200
0000
0000
0000
0000
,
3300
0000
0020
0230
,
0302
0000
0000
0020
0000
0000
0000
0000
,
0033
0000
2000
0000
3002
0000
2000
3003
,
0100
0100
0010
0010
,
1000
1000
0001
0001
,
0100
0100
0001
0001
,
0010
0010
1000
1000
,
0001
0100
0001
0100
,
0010
1000
0010
1000
,
0001
1000
0001
1000
,
1001
1001
1001
1001
,
0001
0000
0100
0000
0001
0100
0001
0000
,
1000
0000
0100
0000
1000
0100
1000
0000
,
0001
0000
0010
0000
0001
0010
0001
0000
,
1000
0000
0010
0000
1000
0010
1000
0000
,
0001
0000
1000
0000
0001
1000
0001
0000
,
1000
0000
0100
0000
1000
0100
1000
0000
,
0001
0000
0010
0000
0001
0010
0001
0000
,
1000
0000
0001
0000
0001
1000
0001
1000
,
0001
0000
0100
0001
0000
1000
0001
0000
,
0100
0000
0001
0010
0000
0001
1000
0000
,
0100
0000
1000
0010
0000
1000
0001
0000
,
0100
0000
0010
1000
0000
0010
0100
0000
,
0001
0000
0010
0100
0000
0010
0001
0000
,
1000
0000
0001
0100
0000
0001
1000
0000
,
0001
0000
1000
0100
0000
1000
0001
0000
,
0100
0000
0100
0001
0000
0001
1000
0001
,
0100
0000
0010
0000
1000
0010
1000
0000
,
0100
0000
0001
0000
1000
0001
1000
0000
,
0100
0000
0001
0000
0010
0001
0010
0000
,
1000
0000
0001
0000
1000
0001
1000
0000
,
0100
0000
0010
0000
1000
0010
0100
0000
,
0001
0000
1000
0000
0100
0001
0010
0000
,
0001
0000
0100
0000
0010
1000
0010
0000
,
0100
0000
0001
0100
0000
0010
1000
0010
,
1000
0000
0001
1000
0000
0001
1000
0000
,
0010
0100
0000
0010
0100
0000
0001
0010
,
0000
0001
0010
0000
1000
0100
0000
1000
,
0100
0000
1000
0001
0000
1000
0001
0000
,
0100
0001
0000
1000
0001
0000
0010
1000
,
0000
0010
0100
0000
0100
0001
0000
0100
,
0010
0000
1000
0100
0000
1000
0001
0000
,
0100
0001
0000
0100
0010
0100
0010
0100
,
0010
0000
1000
0000
0001
1000
0001
0000
,
0100
0000
0010
0000
1000
0100
1000
0000
,
0001
0000
1000
0000
0001
0010
0001
0000
,
0100
0000
0010
0000
0100
0010
0100
0000
,
0001
0000
1000
0000
0100
0010
0100
0000
,
0001
0000
0010
0000
1000
0100
1000
0000
,
0010
0000
0100
0000
0001
0100
0001
0000
,
0100
0000
0001
0100
0000
1000
0010
1000
,
0001
0100
0001
0000
1000
0000
0001
0000
,
0100
0010
0100
0000
0010
0000
1000
0000
,
0100
1000
0100
0000
0001
0000
0010
0000
,
0001
0100
0001
0000
1000
0000
0010
0000
,
0100
0001
1000
0000
0010
0000
0100
0000
,
0001
0100
0010
0000
1000
0000
0100
0000
,
0010
0001
1000
0000
0100
0000
0001
0000
,
0010
1000
0100
0000
0001
0000
1000
0000
,
0001
0000
0101
0000
0001
0100
0001
0000
,
1000
0000
1010
0000
1000
0010
1000
0000
,
1000
0000
1001
0000
1000
0001
1000
0000
,
0010
0000
0110
0000
0010
0100
0010
0000
,
0100
0000
0101
0000
0001
1000
0001
0000
,
1000
0000
1010
0000
1000
0001
1000
0000
,
0100
0000
0110
0000
0001
1000
0001
0000
,
1000
0001
1000
0001
1000
0001
1000
0001
,
1000
0000
0001
0000
0100
0010
1000
0000
,
0100
0000
0001
0000
0010
0001
0100
0000
,
1000
0000
0001
0000
0100
0001
1000
0000
,
0010
0000
0100
0000
0010
1000
0001
0000
,
0100
0000
0001
0000
0100
1000
0001
0000
,
0100
0000
1000
0000
0010
1000
0001
0000
,
0100
0000
0001
0000
0100
1000
0010
0000
,
0100
0000
0010
0000
1000
0001
0100
0001
,
1000
0000
0100
0000
0010
0001
0100
0000
,
0010
0000
1000
0000
0001
0100
0010
0000
,
0100
0000
0001
0000
1000
0100
0010
0000
,
0100
0000
0001
0000
1000
0010
0100
0000
,
0001
0000
0100
0000
0010
1000
0001
0000
,
0100
0000
0010
0000
1000
0001
0100
0000
,
0010
0000
0001
0000
0100
0010
1000
0000
,
0100
0000
0001
0100
0000
0001
1000
0001
,
2000
0000
3000
2000
0000
0000
0000
0000
,
3000
0200
0320
0032
,
0203
0000
0300
0200
0000
0000
0000
0000
,
0000
0300
0000
0000
0020
0000
0032
0000
,
0023
0000
0030
0020
0000
0000
0000
0000
,
0000
0030
0000
0000
0002
0000
2003
0000
,
3002
0000
0003
0002
0000
0000
0000
0000
,
0003
0200
0320
2030
,
3002
0000
0003
0002
0000
0000
0000
0000
,
0003
0200
0320
2030
,
3200
0000
0300
0200
0000
0000
0000
0000
,
0300
0000
0002
2003
,
0002
0000
0000
0000
,
0000
0000
3003
0000
;

//---------------dance-single - ----------------
#NOTES:
     dance-single:
     :
     Easy:
     6:
     0.389704,0.427428,0.000000,0.547172,0.000000,344.000000,344.000000,0.000000,69.000000,0.000000,0.000000,0.389704,0.427428,0.000000,0.547172,0.000000,344.000000,344.000000,0.000000,69.000000,0.000000,0.000000:
2000
0000
3000
2000
0000
0000
0000
0000
,
3000
0200
0320
0230
,
0320
0000
0030
0020
0000
0000
0000
0000
,
0030
0000
0002
2003
,
3002
0000
0003
0002
0000
0000
0000
0000
,
0003
0000
2000
3020
,
2030
0000
3000
2000
0000
0000
0000
0000
,
3000
0002
2003
3002
,
1003
0001
1000
0001
,
0100
0010
0100
0010
,
1000
0100
1000
0100
,
0001
0010
0001
0010
,
1000
0010
0100
0001
,
0010
0001
1000
0100
,
1000
0100
0010
0001
,
2000
3002
2003
3002
,
1003
0010
1000
0010
,
0001
0100
0001
0100
,
0010
1000
0010
0001
,
0100
0001
0100
1000
,
0010
1000
0100
1000
,
0010
0100
0001
0100
,
0001
0010
0001
0100
,
0001
1000
0010
0100
,
0002
0103
0010
1000
,
0200
1300
0010
0100
,
0020
1030
0100
0001
,
2000
3100
0010
0100
,
0002
0013
0100
1000
,
0020
0130
0001
1000
,
0200
0310
0001
0100
,
2000
3010
0100
0001
,
1000
0010
0100
1000
,
0001
0100
0001
0100
,
0010
1000
0100
0001
,
0100
0010
1000
0010
,
0100
0001
0010
0001
,
0100
0001
1000
0100
,
1000
0010
0100
0001
,
0100
0000
0001
0100
0000
0001
1000
0000
,
0001
0000
1000
0000
0000
1000
0100
0000
,
0010
0000
0000
0010
0001
0000
0100
0000
,
0000
0100
0001
0000
1000
0000
0000
1000
,
0001
0000
0100
0000
0000
0100
0001
0000
,
0010
0000
0000
0010
0100
0000
1000
0000
,
0000
1000
0001
0000
0010
0000
0000
0010
,
0001
0000
1000
0000
0000
1000
0001
0000
,
0100
0000
0000
0100
0000
0001
0000
0001
,
0000
0100
0010
0100
,
0001
0100
0001
0100
,
0010
1000
0100
1000
,
0001
0100
0010
0100
,
0001
1000
0100
1000
,
0010
0100
0010
1000
,
0001
0010
0100
0001
,
1000
0000
0001
1000
0000
1000
0001
0000
,
0200
0300
0020
0030
,
2000
3000
0002
0003
,
0200
0300
0002
0003
,
2000
3000
0020
0030
,
2000
3000
0002
0003
,
0200
0300
0020
0030
,
2000
3000
0020
0030
,
0200
0300
0002
0003
,
1000
0010
0100
0001
,
0010
0001
1000
0100
,
1000
0001
0100
0010
,
1000
0100
0001
0010
,
0100
0010
1000
0001
,
0100
0010
1000
0100
,
1000
0010
0100
0001
,
2000
3002
2003
3002
,
0103
0010
1000
0100
,
1000
0001
0100
0010
,
0100
0001
0010
0100
,
1000
0001
0100
0010
,
1000
0010
0100
0001
,
0010
0100
1000
0010
,
0100
0001
0100
0010
,
1000
0100
0010
1000
,
0001
0100
1000
0100
,
0001
0010
1000
0010
,
0001
0100
0001
0010
,
0100
1000
0100
0001
,
0100
1000
0010
1000
,
0001
0100
0001
1000
,
0010
0001
1000
0001
,
0100
0000
0001
0100
0000
0001
1000
0001
,
2000
0000
3000
2000
0000
0000
0000
0000
,
3000
0200
0320
0230
,
0320
0000
0030
0020
0000
0000
0000
0000
,
0030
0000
0200
0302
,
0203
0000
0300
0200
0000
0000
0000
0000
,
0300
0000
0002
2003
,
3002
0000
0003
0002
0000
0000
0000
0000
,
0003
2000
3200
0320
,
0032
0000
0000
0000
,
0000
0000
0000
0000
,
0003
0000
0000
0000
;

//---------------dance-single - ----------------
#NOTES:
     dance-single:
     :
     Beginner:
     3:
     0.326264,0.353283,0.000000,0.412361,0.000000,288.000000,288.000000,0.000000,52.000000,0.000000,0.000000,0.326264,0.353283,0.000000,0.412361,0.000000,288.000000,288.000000,0.000000,52.000000,0.000000,0.000000:
// measure 0
2000
0000
0000
0000
,  // measure 1
3000
0002
0203
0302
,  // measure 2
0203
0000
0000
0000
,  // measure 3
0300
0000
0020
2030
,  // measure 4
3020
0000
0000
0000
,  // measure 5
0030
0000
0002
2003
,  // measure 6
3002
0000
0000
0000
,  // measure 7
0003
2000
3002
1003
,  // measure 8
0001
0000
1000
0000
,  // measure 9
0010
0000
0100
0000
,  // measure 10
0001
0000
0100
0000
,  // measure 11
0010
0000
1000
0000
,  // measure 12
0100
0000
1000
0000
,  // measure 13
0001
0000
0100
0000
,  // measure 14
0010
0000
0100
0000
,  // measure 15
0002
2003
3002
2003
,  // measure 16
3001
0000
0100
0001
,  // measure 17
0100
0000
0010
1000
,  // measure 18
0010
0000
1000
0001
,  // measure 19
1000
0000
0100
0010
,  // measure 20
0100
0000
0001
0010
,  // measure 21
0001
0000
1000
0100
,  // measure 22
1000
0000
0001
1000
,  // measure 23
0001
0000
0100
0010
,  // measure 24
0200
0300
0001
0001
,  // measure 25
0020
0030
0100
0100
,  // measure 26
2000
3000
0010
0010
,  // measure 27
0200
0300
0001
0001
,  // measure 28
2000
3000
0100
0100
,  // measure 29
0020
0030
1000
1000
,  // measure 30
0020
0030
0100
0100
,  // measure 31
0002
0003
1000
1000
,  // measure 32
0001
0000
0100
0010
,  // measure 33
0100
0000
0010
1000
,  // measure 34
0010
0000
1000
0100
,  // measure 35
1000
0000
0001
0100
,  // measure 36
0001
0000
0100
0010
,  // measure 37
0100
0000
0010
1000
,  // measure 38
0010
0000
1000
0001
,  // measure 39
1000
0010
0100
0001
,  // measure 40
1000
0000
0001
0000
0000
0001
0000
0000
,  // measure 41
0100
0000
0000
0100
0000
0000
0010
0000
,  // measure 42
0000
0010
0000
0000
1000
0000
0000
1000
,  // measure 43
0000
0000
0001
0000
0000
0001
0000
0000
,  // measure 44
0100
0000
0000
0100
0000
0000
0010
0000
,  // measure 45
0000
0010
0000
0000
1000
0000
0000
1000
,  // measure 46
0000
0000
0001
0000
0000
0001
0000
0000
,  // measure 47
0100
0000
0000
0010
0000
0010
0000
0010
,  // measure 48
0000
1000
0100
1000
,  // measure 49
0000
0001
0100
0001
,  // measure 50
0000
1000
0010
1000
,  // measure 51
0000
0001
0010
0001
,  // measure 52
0100
0000
0001
0100
,  // measure 53
0001
0000
1000
0010
,  // measure 54
1000
0000
0001
1000
,  // measure 55
0001
1000
0010
0100
,  // measure 56
0020
0030
1000
1000
,  // measure 57
0200
0300
0001
0001
,  // measure 58
0020
0030
1000
1000
,  // measure 59
0002
0003
0010
0010
,  // measure 60
2000
3000
0001
0001
,  // measure 61
0200
0300
0010
0010
,  // measure 62
2000
3000
0001
0001
,  // measure 63
0020
0030
0100
0100
,  // measure 64
0001
0100
0001
0100
,  // measure 65
0010
1000
0010
1000
,  // measure 66
0001
1000
0001
1000
,  // measure 67
0001
0100
0001
0100
,  // measure 68
0010
1000
0010
1000
,  // measure 69
0001
0100
0001
0100
,  // measure 70
0001
1000
0001
1000
,  // measure 71
0002
2003
3002
2003
,  // measure 72
3001
0100
0001
0100
,  // measure 73
0001
1000
0001
1000
,  // measure 74
0010
1000
0010
1000
,  // measure 75
0100
1000
0100
1000
,  // measure 76
0001
0100
0001
0100
,  // measure 77
0010
0100
0010
0100
,  // measure 78
0001
1000
0001
1000
,  // measure 79
0100
0001
0100
0001
,  // measure 80
1000
0010
1000
0010
,  // measure 81
0100
0001
0100
0001
,  // measure 82
1000
0001
1000
0001
,  // measure 83
0010
0100
0010
0100
,  // measure 84
0001
0100
0001
0100
,  // measure 85
0010
1000
0010
1000
,  // measure 86
0001
1000
0001
1000
,  // measure 87
0001
0010
0100
1000
,  // measure 88
0002
0000
0000
0000
,  // measure 89
0003
0200
0320
0230
,  // measure 90
0320
0000
0000
0000
,  // measure 91
0030
0000
0200
2300
,  // measure 92
3200
0000
0000
0000
,  // measure 93
0300
0000
2000
3002
,  // measure 94
2003
0000
0000
0000
,  // measure 95
3000
0002
0023
0230
,  // measure 96
2300
0000
0000
0000
,  // measure 97
0000
0000
0000
0000
,  // measure 98
0000
0000
0000
0000
,  // measure 99
3000
0000
0000
0000
;
