#TITLE:Man's Not Hot;
#SUBTITLE:;
#ARTIST:Big Shaq;
#TITLETRANSLIT:;
#SUBTITLETRANSLIT:;
#ARTISTTRANSLIT:;
#GENRE:;
#CREDIT:xRGTMx;
#BANNER:Man's Not Hot-bn.png;
#BACKGROUND:Man's Not Hot-bg.png;
#LYRICSPATH:;
#CDTITLE:;
#MUSIC:Man's Not Hot.ogg;
#OFFSET:0.000;
#SAMPLESTART:56.883;
#SAMPLELENGTH:14.222;
#SELECTABLE:YES;
#DISPLAYBPM:135.000;
#BPMS:0.000=67.500,16.000=135.000;
#STOPS:107.000=1.778
;
#TIMESIGNATURES:0.000=4=4
;
#BGCHANGES:;
#KEYSOUNDS:;

//---------------dance-single - The 1 & 0nly----------------
#NOTES:
     dance-single:
     The 1 & 0nly:
     Challenge:
     10:
     0.517,0.522,0.294,0.361,0.344,353.000,35.000,43.000,4.000,0.000,0.000,0.517,0.522,0.294,0.361,0.344,353.000,35.000,43.000,4.000,0.000,0.000:
0000
0000
0000
0000
,
0000
0000
0000
0000
,
0000
0000
0000
0000
,
0000
0000
0000
0000
,
0001
0000
0000
1000
0000
0010
1000
0000
0200
0300
0010
0000
0200
0300
0010
0000
,
0002
0003
0000
0000
0100
0000
0001
0000
2000
3000
0001
0000
0020
0030
0100
0000
,
1000
0000
0000
0000
0000
0000
0000
0000
0001
0100
0010
0000
1000
0000
0001
0100
,
0010
0000
0000
0000
0000
1000
0100
0000
,
0220
0000
0000
0000
0330
0000
0000
0000
0010
0000
0001
0000
0100
0000
0001
0010
,
0100
0000
0000
0000
0000
0000
0000
0000
0000
0000
0000
0000
0000
0000
0000
0000
0000
0000
1000
0000
0000
0000
0000
0000
1000
0000
0000
0000
0000
0000
0001
0000
0000
0100
0000
0000
0010
0000
0000
0000
0100
0000
0000
0000
0000
0000
0000
0000
,
0000
0000
0000
0000
0000
0000
0010
0100
0001
0000
1000
0000
1100
0000
0110
0000
,
0011
0000
0000
0000
0000
0000
0000
0000
0000
0000
0000
0000
0001
0000
0010
0000
0100
0000
1000
0000
0000
0001
0000
0000
,
0202
0000
0303
0000
0001
1000
0100
0110
,
0000
0000
0010
0000
0001
0100
0000
0000
0001
0000
1000
0100
0010
0000
0100
0000
,
0000
1000
0001
0000
0100
0001
0010
0001
,
0000
0000
1000
0000
0010
0000
0000
0000
1000
0000
0010
0100
0001
0000
0100
0000
,
0220
0000
0000
0000
0330
0000
0000
0010
0100
0000
0100
0000
0100
0000
0001
1000
,
0100
0000
0000
0000
0000
0000
0000
0000
0010
0100
1000
0000
0100
0000
0010
0000
,
0000
0000
0000
0000
0000
0001
0100
0001
,
0000
0000
0000
0000
0000
0000
1000
0000
0010
0100
0001
0000
1000
0000
0100
0000
,
0110
0000
0020
0030
0020
0030
0020
0030
0010
0001
1000
0000
0100
0010
0001
0000
,
1000
0000
0000
0000
0000
0000
0000
0001
0100
0001
1000
0100
,
1000
0000
0000
0000
0000
0000
0000
0000
0000
0000
0000
0000
0001
0000
0000
0100
0000
0000
0000
0000
0000
0000
0000
0000
0010
0000
0000
0000
0000
0000
0000
0000
0100
0000
0000
0000
0010
0000
0000
0000
0000
0000
0000
0000
0000
0000
0000
0000
,
0000
0000
0000
0000
0000
0000
0000
0000
0000
1000
0000
0000
0010
0000
0000
1000
0000
0000
0100
0000
0000
0000
0000
0000
0010
0000
0000
0000
0001
0000
0000
0000
1000
0000
0000
0000
0100
0000
0000
0000
0000
0000
0000
0000
0000
0000
0000
0000
,
0220
0000
0330
0000
0010
0100
1000
0000
0100
0010
0001
0000
1000
0000
0000
0000
,
0000
0000
0000
0000
1001
0000
0000
0000
0001
0100
0000
0010
1000
0000
0000
0000
,
0000
0000
0000
0000
0000
0000
0000
0000
0000
0000
0000
0000
0100
0000
0000
0000
0000
0000
0000
0000
0000
0000
0000
0000
0000
0000
0000
0000
0000
0000
0000
0000
0000
0000
0000
0000
0010
0000
0000
0000
0000
0000
0000
0000
0000
0000
0000
0000
0100
0000
0000
0000
0000
0000
0000
0000
0000
0000
0000
0000
0000
0000
0000
0000
0000
0000
0000
0000
0000
0000
0000
0000
1000
0000
0000
0000
0000
0000
0000
0000
0000
0000
0000
0000
0000
0000
0000
0000
0000
0000
0000
0000
0000
0000
0000
0000
0000
0000
0000
0000
0000
0000
0000
0000
0000
0000
0000
0000
0000
0000
0000
0000
0000
0000
0000
0000
0000
0000
0000
0000
0001
0000
0000
0000
0000
0000
0000
0000
0000
0000
0000
0000
0000
0000
0000
0000
0000
0000
0000
0000
0000
0000
0000
0000
0202
0303
0000
0000
0000
0000
0000
0000
0000
0000
0000
0000
0000
0000
0000
0000
0000
0000
0000
0000
0000
0000
0000
0000
0000
0000
0000
0000
0000
0000
0000
0000
0000
0000
0000
0000
0000
0000
0000
0000
0000
0000
0000
0000
0000
0000
0000
0000
,
0220
0000
0330
0010
0000
0100
0001
1000
0001
0000
1000
0000
0100
0000
0000
0000
,
0010
0000
0000
0001
0000
1000
0010
1000
0100
0000
0010
0000
0001
0000
0000
0000
,
0000
0000
0000
1000
0000
0000
0010
0000
0000
0000
0000
0000
1000
0000
0000
0000
0000
0000
0100
0000
0000
0000
0000
0000
0010
0000
0000
0000
0001
0000
0000
0000
0100
0000
0000
0000
0001
0000
0000
0000
0000
0000
1000
0000
0000
0000
0000
0000
,
0000
0010
1000
0000
0100
0000
0000
0000
0010
0000
0001
0000
1000
0000
0100
0000
,
0220
0000
0330
0010
0000
0100
1000
0001
1000
0000
0001
0000
0100
0000
0000
0000
,
0010
0000
0000
1000
0000
0001
0010
0001
0100
0000
0010
0000
1000
0000
0000
0000
,
0000
0000
0000
0001
0000
0000
0010
0000
0000
0000
0000
0000
0001
0000
0000
0000
0000
0000
0100
0000
0000
0000
0000
0000
0010
0000
0000
0000
1000
0000
0000
0000
0100
0000
0000
0000
1000
0000
0000
0000
0000
0000
0001
0000
0000
0000
0000
0000
,
0000
0010
0001
0000
0100
0000
0000
0000
0010
0000
1000
0000
0001
0000
0100
0000
,
0220
0000
0000
0000
0330
0000
0000
0000
0010
0100
0000
0100
0002
0003
1000
0000
,
0100
0010
0002
0003
0010
0000
0100
0000
2000
3000
0200
0300
0020
0030
0010
0000
,
0002
0003
0000
0000
0000
0000
0000
0000
1000
0001
0100
0001
0010
0000
0100
0000
,
1000
0000
0000
0000
0010
0000
0000
0100
0010
0000
1000
0000
0002
0003
0100
0000
,
0202
0003
0000
0000
0300
0000
0001
1000
0100
0000
0010
0100
1000
0000
0100
0010
,
0001
0000
0000
0000
1000
0010
0100
0000
0000
0000
0000
0000
0001
0100
0001
0000
,
0000
0000
0000
0000
0000
0000
0000
0000
0000
0000
0100
0010
1000
0000
0001
0000
,
0000
0000
0000
0000
0000
0000
0000
0000
1000
0000
0001
1000
0100
0000
0010
0000
,
0220
0000
0330
0000
0100
0010
0000
0000
0100
0000
1000
0000
0010
0000
0100
0000
,
0001
0000
1000
1000
0010
1000
0100
1000
,
0001
0000
0000
0000
0000
0000
0000
0000
0000
0000
0000
0000
1000
0000
0000
0000
0000
0000
1000
0000
0000
0010
0000
0000
0100
0000
0000
0000
0000
0000
0001
0000
0000
0000
0000
0000
1000
0000
0000
0000
0100
0000
0000
0000
0010
0000
0000
0000
,
0001
0000
1000
1000
0000
0010
0010
0010
,
0220
0330
0100
0000
0000
0001
0001
0000
,
0000
0000
1000
1000
0000
0100
0100
0000
,
0000
1000
0000
1010
,
0000
MMMM
0000
0010
,
0220
0000
0000
0000
0000
0000
0000
0000
0000
0000
0000
0000
0330
0000
0000
0000
0000
0000
0000
0000
0000
0100
0000
0000
0001
0000
0000
0000
0000
0000
0010
0000
0000
0000
0000
0000
0001
0000
0100
0000
0001
0000
0100
0000
0001
0000
0100
0000
,
0010
0000
0000
0000
1010
1001
0011
0110
,
1100
0000
0000
0000
1000
0000
0000
0000
0000
0000
0010
0100
0001
0000
0101
0000
,
1001
0000
0000
0000
0000
0000
0000
0000
0000
0000
0000
0000
0000
0000
0000
0000
0000
0000
1000
0000
0000
0100
0000
0000
0010
0000
0000
0000
0000
0000
0001
0000
0000
0000
0000
0000
1000
0000
0100
0000
1000
0000
0100
0000
0000
0000
0000
0000
,
0220
0030
0310
0000
0000
0000
0000
0100
,
1000
0000
0000
0001
0101
1001
1010
0110
,
0101
0000
0001
0000
0001
0011
1001
0000
,
0000
0000
0000
0000
0000
0000
0000
0000
0000
0000
0000
1000
0010
0000
0100
0000
,
0220
0330
0000
0000
;

//---------------dance-single - ----------------
#NOTES:
     dance-single:
     :
     Hard:
     8:
     0.420,0.497,0.067,0.218,0.248,316.000,8.000,26.000,2.000,0.000,0.000,0.420,0.497,0.067,0.218,0.248,316.000,8.000,26.000,2.000,0.000,0.000:
0000
0000
0000
0000
,
0000
0000
0000
0000
,
0000
0000
0000
0000
,
0000
0000
0000
0000
,
1000
0000
0000
0100
0000
0000
0010
0000
0200
0300
0010
0000
0200
0300
0010
0000
,
0002
0003
0000
0000
0100
0000
0001
0000
2000
3000
0100
0000
0020
0030
0100
0000
,
1000
0000
0000
0000
0000
0000
0000
0000
0001
0100
0001
0000
1000
0000
0001
0100
,
0001
0000
0000
0000
0000
1000
0100
0000
,
0020
0000
0000
0000
0030
0000
0000
0000
0010
0000
0001
0000
1000
0000
0001
0010
,
0001
0000
0000
0000
0000
0000
0000
0000
0000
0000
0000
0000
0000
0000
0000
0000
0000
0000
1000
0000
0000
0000
0000
0000
1000
0000
0000
0000
0000
0000
0010
0000
0000
0100
0000
0000
0010
0000
0000
0000
0100
0000
0000
0000
0000
0000
0000
0000
,
0000
0000
0000
0000
0000
0000
0001
0100
0001
0000
1000
0000
1100
0000
1100
0000
,
1100
0000
0000
0000
0000
0000
0000
0000
0000
0000
0000
0000
1000
0000
0100
0000
0010
0000
0100
0000
0000
1000
0000
0000
,
0020
0000
0030
0000
0100
0010
1000
0020
,
0000
0000
1030
0000
0010
0100
0000
0000
0001
0000
1000
0100
1000
0000
0001
0000
,
0000
1000
0100
0000
0010
0001
1000
0001
,
0000
0000
1000
0000
0010
0000
0000
0000
1000
0000
0001
0100
0001
0000
1000
0000
,
0020
0000
0000
0000
0030
0000
0000
1000
0100
0000
0100
0000
0100
0000
1000
0100
,
1000
0000
0000
0000
0000
0000
0000
0000
0001
0010
0001
0000
1000
0000
0100
0000
,
0000
0000
0000
0000
0000
1000
0010
1000
,
0000
0000
0000
0000
0000
0000
1000
0000
0001
0100
0001
0000
1000
0000
0100
0000
,
0010
0000
0200
0300
0200
0300
0200
0300
1000
0001
1000
0000
0001
1000
0001
0000
,
0100
0000
0000
0000
0000
0000
0000
0001
0100
0001
0000
0000
,
0000
0000
0000
0000
0000
0000
0000
0000
0000
0000
0000
0000
1000
0000
0000
0010
0000
0000
0000
0000
0000
0000
0000
0000
0100
0000
0000
0000
0000
0000
0000
0000
0010
0000
0000
0000
1000
0000
0000
0000
0000
0000
0000
0000
0000
0000
0000
0000
,
0000
0000
0000
0001
1000
0000
1000
0000
0010
0000
0000
0000
0100
0000
0000
0000
,
0120
0000
0000
0000
1030
0010
1000
0000
0010
1000
0010
0000
1000
0000
0000
0000
,
0000
0000
0000
0000
1100
0000
0000
0000
0100
0010
0000
0100
0010
0000
0000
0000
,
0000
0001
0000
0010
0001
0000
1000
0000
0000
0000
0001
0000
1000
0000
0000
0000
,
0020
0000
0000
0000
0030
0100
0010
0100
0010
0000
0100
0000
0001
0000
0000
0000
,
0000
0000
0000
0000
0000
0010
0100
0010
0100
0000
1000
0000
0001
0000
0000
0000
,
0000
0000
0000
1000
0000
0000
0010
0000
0000
1000
0000
0000
0001
0000
0010
0000
0100
0000
1000
0000
0000
0100
0000
0000
,
0000
1000
0100
0000
0010
0001
1000
0100
,
0020
0000
0000
0000
0030
0100
1000
0100
1000
0000
0001
0000
0100
0000
0000
0000
,
0000
0000
0000
0000
0000
0010
1000
0010
1000
0000
0001
0000
0010
0000
0000
0000
,
0000
0000
0000
0001
0000
0000
0010
0000
0000
0001
0000
0000
1000
0000
0010
0000
0100
0000
0001
0000
0000
0100
0000
0000
,
0000
0001
0100
0000
0010
1000
0001
0100
,
0020
0000
0000
0000
0030
0000
0000
0000
0100
0001
0000
0100
0001
0000
1000
0000
,
0001
0010
0001
0000
1000
0000
0010
0000
2000
3000
0200
0300
0020
0030
0010
0000
,
0002
0003
0000
0000
0000
0000
0000
0000
1000
0100
1000
0100
1000
0000
0001
0000
,
0100
0000
0000
0000
0000
0000
0000
0000
0010
0000
0100
0000
0002
0003
0100
0000
,
0002
0003
0000
0000
0000
0000
0000
0000
1000
0000
0010
0000
1000
0000
0001
0100
,
0001
0000
0000
0000
0000
0000
0000
0000
0000
0000
0000
0000
1000
0100
1000
0000
,
0000
0000
0000
0000
0000
0000
0000
0000
0000
0000
0001
0010
0001
0000
0010
0000
,
0000
0000
0000
0000
0000
0000
0000
0000
0001
0000
1000
0010
1000
0000
0100
0000
,
0020
0000
0030
0000
0100
1000
0100
0010
,
0001
0000
1000
1000
0010
0100
0001
0100
,
0010
0000
0000
0000
0000
0000
1000
0000
0000
1000
0000
0000
0100
0000
0000
0010
0000
0000
0001
0000
1000
0000
0001
0000
,
1000
0000
0010
0010
0000
0100
0001
0100
,
0020
0000
0030
0000
0000
1000
0100
0000
,
0000
0000
1000
1000
0000
0010
1000
0000
,
0000
0010
0000
0110
,
0000
0MM0
0000
0000
,
0020
0000
0000
0000
0030
0000
0000
1000
0010
0000
1000
0000
0100
1000
0100
1000
,
0100
0000
0000
0000
0010
0010
0001
0001
,
1001
0000
0000
0000
0000
0000
0000
0000
0000
0000
1000
0010
1000
0000
0001
0000
,
0001
0000
0000
0000
0000
0000
1000
0100
1000
0000
0001
0000
0100
0001
0100
0000
,
0001
0000
0000
0000
0000
0000
0000
1000
,
0100
0000
0000
0010
0001
0001
1000
1000
,
1100
0000
0000
0000
0000
0100
0100
0000
,
0000
0000
0000
0000
0000
0000
0000
0000
0000
0000
0000
0010
0001
0000
1000
0000
,
0020
0030
0000
0000
;

//---------------dance-single - ----------------
#NOTES:
     dance-single:
     :
     Medium:
     6:
     0.294,0.323,0.050,0.160,0.013,220.000,6.000,19.000,1.000,0.000,0.000,0.294,0.323,0.050,0.160,0.013,220.000,6.000,19.000,1.000,0.000,0.000:
0000
0000
0000
0000
,
0000
0000
0000
0000
,
0000
0000
0000
0000
,
0000
0000
0000
0000
,
0001
0000
1000
0000
0100
0010
0100
0010
,
0001
0000
0100
0010
1000
0100
0010
0100
,
1000
0000
0000
0000
0001
0100
0001
0100
,
0001
0000
0000
0000
0000
1000
0010
0000
,
0200
0000
0300
0000
0001
0010
0001
0010
,
0001
0000
0000
1000
0100
0000
1000
0000
,
0000
0000
0000
0001
0100
0000
0010
0010
,
0010
0000
0000
0000
1000
0001
1000
0000
,
0200
0000
0300
0000
0010
0100
0010
0000
,
0000
0100
1000
0000
0001
0100
0001
0000
,
0000
1000
0010
0000
1000
0100
1000
0000
,
0000
0001
0010
0000
0001
1000
0001
0000
,
0200
0000
0300
0000
0001
0010
0001
0000
,
1000
0000
0010
0100
,
0000
0000
0000
0000
0000
0001
0010
0001
,
0000
0000
0000
1000
0100
0000
1000
0000
,
0200
0310
0010
0010
0001
0000
1000
0000
,
0010
0000
1000
0100
,
0010
0000
0001
0100
,
0010
0000
0000
0000
1000
0100
0010
0000
,
0200
1300
0100
0100
,
0000
1100
1000
0001
,
0000
0100
0000
0010
,
0200
0000
0300
0001
0100
0000
0001
0000
,
1001
0000
0000
1000
0100
0000
1000
0000
,
1100
0000
0000
0000
0100
0010
0100
0010
,
0001
0000
0000
0000
1000
0010
1000
0010
,
0200
0000
0300
0001
0100
0000
0001
0000
,
0101
0000
0000
1000
0100
0000
1000
0000
,
1100
0000
0000
0000
0100
1000
0001
1000
,
0010
0000
0000
0000
0010
1000
0001
1000
,
0200
0300
0010
0100
,
1000
0000
0000
0000
0100
0000
0000
0000
2000
3000
0200
0300
0020
0030
0000
0000
,
0002
0003
0000
0000
0000
0000
0000
0000
1000
0000
0000
0000
0010
0000
0000
0000
,
1000
0000
0000
0000
0000
0000
0000
0000
0010
0000
0100
0000
0002
0003
0100
0000
,
0002
0003
0000
0000
0000
0000
1000
0000
0100
0000
0000
0000
1000
0000
0000
0000
,
0100
0000
0000
0010
,
0001
0000
0000
1000
,
0010
0000
1000
0001
,
0200
0000
0300
0000
0001
1000
0001
1000
,
0100
0000
0010
0000
0001
0010
0001
0010
,
0100
0000
1000
0000
0001
0100
0001
0000
,
1000
0000
0000
0000
0000
0001
0100
0001
,
0200
0000
0300
0000
0000
0001
1000
0000
,
0000
0000
0000
0000
0000
0001
1000
0000
,
0000
0000
0000
0100
,
0000
0M00
0000
0000
,
0200
0000
0000
0000
0300
0000
0000
0000
0010
0000
0100
0000
1000
0100
1000
0100
,
1000
0000
0000
0000
0001
0100
0010
0100
,
0001
0000
0000
0000
0000
1000
0010
1000
,
0001
0000
0000
0010
0100
1000
0100
0000
,
1200
0000
0300
0000
0000
0000
0000
1000
,
0100
0000
0000
1000
0001
0010
0001
0010
,
0100
0000
0000
0000
0000
1000
0001
0000
,
0000
0000
0000
0000
0000
0000
0000
0000
0000
0000
0000
1000
0001
0000
1000
0000
,
0200
0300
0000
0000
;

//---------------dance-single - minus 1 is 3 quick maths----------------
#NOTES:
     dance-single:
     minus 1 is 3 quick maths:
     Easy:
     4:
     0.210,0.224,0.092,0.076,0.000,155.000,11.000,9.000,1.000,0.000,0.000,0.210,0.224,0.092,0.076,0.000,155.000,11.000,9.000,1.000,0.000,0.000: // measure 1
0000
0000
0000
0000
,  // measure 2
0000
0000
0000
0000
,  // measure 3
0000
0000
0000
0000
,  // measure 4
0000
0000
0000
0000
,  // measure 5
1000
0010
0100
0100
,  // measure 6
0001
0000
1000
0010
,  // measure 7
1010
0000
1000
0100
,  // measure 8
1000
0000
0000
0000
0000
0001
0001
0000
,  // measure 9
0200
0300
0001
0010
,  // measure 10
0001
0000
1000
1010
,  // measure 11
0000
0000
0000
0000
0010
0000
0100
0100
,  // measure 12
0100
0000
0001
1000
,  // measure 13
0200
0300
1000
0010
,  // measure 14
0000
1000
0100
1000
,  // measure 15
0000
0001
0100
0001
,  // measure 16
0000
1000
0010
1000
,  // measure 17
0200
0300
0010
0100
,  // measure 18
0010
0000
0001
0100
,  // measure 19
0001
0000
0000
1000
,  // measure 20
0000
0001
1000
0001
,  // measure 21
0200
0010
0010
0310
,  // measure 22
0100
0000
0000
0001
,  // measure 23
1000
0100
0010
0001
,  // measure 24
0000
0010
0100
1000
,  // measure 25
0200
1300
0100
0100
,  // measure 26
0000
1100
1000
0010
,  // measure 27
0000
1000
0000
0010
,  // measure 28
0200
0300
0001
0100
,  // measure 29
0101
0000
1000
0100
,  // measure 30
1100
0000
1000
0000
,  // measure 31
0001
0000
1000
0010
,  // measure 32
0110
0000
0001
0010
,  // measure 33
0011
0000
1000
0010
,  // measure 34
1010
0000
1000
0000
,  // measure 35
0001
0000
0100
0010
,  // measure 36
1010
0000
1000
0000
,  // measure 37
0100
0000
0000
0000
1000
0100
0010
0000
,  // measure 38
0001
0000
1000
0010
,  // measure 39
1000
0000
0000
0001
,  // measure 40
0001
0000
1000
0100
,  // measure 41
1000
0000
0000
0001
,  // measure 42
0010
0000
0000
0001
,  // measure 43
0010
0000
0001
1000
,  // measure 44
0200
0300
1000
0010
,  // measure 45
1000
0000
0001
0100
,  // measure 46
0001
0000
1000
0100
,  // measure 47
1000
0000
0000
0001
,  // measure 48
0000
0000
0000
0000
0000
1000
1000
0000
,  // measure 49
0000
0000
0000
0000
0000
0001
0001
0000
,  // measure 50
0000
0000
0000
0010
,  // measure 51
0000
00M0
0000
0000
,  // measure 52
0200
0000
0300
0000
1000
0000
0001
0100
,  // measure 53
0001
0000
1000
0100
,  // measure 54
1000
0000
0000
0000
0000
0010
0010
0000
,  // measure 55
0100
0000
0000
0000
0001
0010
0001
0000
,  // measure 56
0011
0000
0000
0000
0000
0000
0000
1000
,  // measure 57
0100
0000
0000
1000
1000
0000
0100
0000
,  // measure 58
1100
0000
0000
0000
0000
1000
1000
0000
,  // measure 59
0000
0000
0010
1000
,  // measure 60
0200
0300
0000
0000
;

//---------------dance-single - plus 2 is 4----------------
#NOTES:
     dance-single:
     plus 2 is 4:
     Beginner:
     2:
     0.157,0.149,0.042,0.017,0.000,124.000,5.000,2.000,0.000,0.000,0.000,0.157,0.149,0.042,0.017,0.000,124.000,5.000,2.000,0.000,0.000,0.000: // measure 1
0000
0000
0000
0000
,  // measure 2
0000
0000
0000
0000
,  // measure 3
0000
0000
0000
0000
,  // measure 4
0000
0000
0000
0000
,  // measure 5
0001
0000
0100
0100
,  // measure 6
0001
0000
1000
0010
,  // measure 7
1000
0000
0100
0100
,  // measure 8
0100
0000
0000
1000
,  // measure 9
0000
0000
0001
0001
,  // measure 10
0001
0000
0100
0100
,  // measure 11
0000
0000
0010
0010
,  // measure 12
0010
0000
1000
1000
,  // measure 13
0000
0000
0001
0001
,  // measure 14
0000
1000
1000
1000
,  // measure 15
0000
0010
0010
0010
,  // measure 16
0000
0100
0000
0100
,  // measure 17
0100
0000
0001
0010
,  // measure 18
0001
0000
1000
0100
,  // measure 19
0000
0000
0000
1000
,  // measure 20
0000
0000
0001
0001
,  // measure 21
1000
0001
1000
0001
,  // measure 22
0100
0000
0000
0010
,  // measure 23
0010
0000
1000
1000
,  // measure 24
0000
0000
0001
0010
,  // measure 25
0001
0000
1000
0010
,  // measure 26
1000
0000
1010
0000
,  // measure 27
0010
0000
0000
1000
,  // measure 28
1001
0000
0001
0000
,  // measure 29
1000
0000
0001
0000
,  // measure 30
0100
0000
0010
0000
,  // measure 31
0100
0000
0010
0000
,  // measure 32
1000
0000
0001
0000
,  // measure 33
1000
0000
0001
0000
,  // measure 34
0010
0000
0100
0000
,  // measure 35
0010
0000
0100
0000
,  // measure 36
1000
0000
0100
0000
,  // measure 37
0100
0000
1000
0000
,  // measure 38
0001
0000
0100
0010
,  // measure 39
0100
0000
0001
0001
,  // measure 40
0001
0000
0000
1000
,  // measure 41
1000
0000
0000
0001
,  // measure 42
0001
0000
0000
0010
,  // measure 43
0010
0000
0100
0100
,  // measure 44
0000
0000
1000
0000
,  // measure 45
0001
0000
1000
0000
,  // measure 46
0010
0000
0100
0000
,  // measure 47
0010
0000
0000
0100
,  // measure 48
0100
0000
0000
0001
,  // measure 49
0000
0000
0000
1000
,  // measure 50
0000
0000
0000
0010
,  // measure 51
0000
0000
0000
0000
,  // measure 52
0110
0000
0100
0001
,  // measure 53
0010
0000
0100
0100
,  // measure 54
0100
0000
0000
1000
,  // measure 55
0000
0000
0001
1000
,  // measure 56
1001
0000
0000
0000
,  // measure 57
0001
0000
0100
0001
,  // measure 58
0100
0000
0000
0000
0000
0010
0010
0000
,  // measure 59
0000
0000
0100
0010
,  // measure 60
0220
0330
0000
0000
;
