#VERSION:0.83;
#TITLE:Luminize;
#SUBTITLE:;
#ARTIST:fripSide;
#TITLETRANSLIT:;
#SUBTITLETRANSLIT:;
#ARTISTTRANSLIT:;
#GENRE:Buddyfight Electro Pop;
#ORIGIN:;
#CREDIT:;
#BANNER:[Round 1] - Luminize.png;
#BACKGROUND:[Round 1] - Luminize-bg.png;
#PREVIEWVID:;
#JACKET:[Round 1] - Luminize-jacket.png;
#CDIMAGE:;
#DISCIMAGE:;
#LYRICSPATH:;
#CDTITLE:cdtitle.png;
#MUSIC:[Round 1] - Luminize.ogg;
#OFFSET:-0.880000;
#SAMPLESTART:64.059998;
#SAMPLELENGTH:15.000000;
#SELECTABLE:YES;
#BPMS:0.000=140.000;
#STOPS:;
#DELAYS:;
#WARPS:;
#TIMESIGNATURES:0.000=4=4;
#TICKCOUNTS:0.000=4;
#COMBOS:0.000=1;
#SPEEDS:0.000=1.000=0.000=0;
#SCROLLS:0.000=1.000;
#FAKES:;
#LABELS:0.000=Song Start;
#BGCHANGES:-2.000=Luminize.avi=1.000=0=0=0=StretchNoLoop==CrossFade_Fastest==,
99999=-nosongbg-=1.000=0=0=0 // don't automatically add -songbackground-
;
#KEYSOUNDS:;
#ATTACKS:
;

//---------------dance-single - ----------------
#NOTEDATA:;
#CHARTNAME:;
#STEPSTYPE:dance-single;
#DESCRIPTION:;
#CHARTSTYLE:;
#DIFFICULTY:Beginner;
#METER:1;
#RADARVALUES:0.098962,0.195531,0.022346,0.089385,0.000000,62.000000,60.000000,2.000000,8.000000,0.000000,0.000000,0.000000,0.000000,0.000000,0.098962,0.195531,0.022346,0.089385,0.000000,62.000000,60.000000,2.000000,8.000000,0.000000,0.000000,0.000000,0.000000,0.000000;
#CREDIT:;
#NOTES:
0000
0000
0000
0000
,
0000
0000
0000
0000
,
0000
0000
0000
0000
,
0000
0000
0000
0000
,
1000
0000
0000
0000
,
0001
0000
0000
0000
,
2000
0000
3000
0000
,
0002
0000
0003
0000
,
0000
0000
0000
0000
,
1000
0000
0000
0000
,
0010
0000
0000
0000
,
0001
0001
0001
0000
,
1000
1000
1000
0000
,
0001
0000
0000
0000
,
0010
0000
0000
0000
,
2000
0000
3000
0000
,
0002
0000
0003
0000
,
1001
0000
0000
0000
,
0000
0000
0000
0000
,
1000
0000
0000
0000
,
0100
0000
0000
0000
,
0001
0000
0000
0000
,
0010
0000
0000
0000
,
1000
0000
0000
0000
,
0001
0000
0000
0000
,
0010
0000
0000
0000
,
0100
0000
0000
0000
,
1000
0000
1000
0000
,
0001
0000
0000
0000
,
0010
0000
0010
0000
,
0100
0000
0000
0000
,
0100
0000
0100
0000
,
0010
0000
0000
0000
,
0001
0000
0001
0000
,
1000
0000
0000
0000
,
1000
0000
0000
0000
,
0001
0000
0000
0000
,
1000
0000
0000
0000
,
0010
0000
0000
0000
,
1000
1000
1000
0000
,
0010
0010
0010
0000
,
0001
0000
0000
0000
,
0100
0000
0000
0000
,
0001
0001
0001
0000
,
0100
0100
0100
0000
,
1000
0000
0000
0000
,
0001
0000
0000
0000
,
2000
0000
3000
0000
,
0002
0000
0003
0000
,
2002
0000
0000
0000
,
3003
0000
0000
0000
;

//---------------dance-single - ----------------
#NOTEDATA:;
#CHARTNAME:;
#STEPSTYPE:dance-single;
#DESCRIPTION:;
#CHARTSTYLE:;
#DIFFICULTY:Easy;
#METER:3;
#RADARVALUES:0.197925,0.279330,0.022346,0.145251,0.000000,124.000000,122.000000,2.000000,13.000000,0.000000,0.000000,0.000000,0.000000,0.000000,0.197925,0.279330,0.022346,0.145251,0.000000,124.000000,122.000000,2.000000,13.000000,0.000000,0.000000,0.000000,0.000000,0.000000;
#CREDIT:;
#NOTES:
0000
0000
0000
0000
,
0000
0000
0000
0000
,
0000
0000
0000
0000
,
0000
0000
0000
0000
,
1000
0100
1000
0000
,
0001
0010
0001
0000
,
1000
1000
0001
0001
,
0010
0100
0010
0000
,
0001
0000
1000
0000
,
0001
0100
0001
0000
,
1000
0100
1000
0000
,
0001
0001
1000
1000
,
0010
0100
0002
0003
,
1000
0010
1000
0000
,
0001
0010
0001
0000
,
1000
1000
0001
0001
,
0100
0100
0010
0010
,
2002
0000
0000
3003
,
0000
0000
0000
0000
,
2000
0000
3000
0000
,
0020
0000
0030
0000
,
0002
0000
0003
0000
,
0100
0000
0100
0100
,
1000
0000
0010
0000
,
0001
0000
0100
0000
,
1000
0000
0010
0000
,
0100
0000
0001
0000
,
2000
0000
3000
0000
,
0100
0100
0010
0000
,
0002
0000
0003
0000
,
0100
0100
0010
0000
,
2000
0000
3000
0000
,
0010
0010
0100
0000
,
0001
0010
0100
0000
,
1000
0010
0100
0000
,
0001
1000
0100
0000
,
0010
0001
1000
0000
,
0001
0100
0001
0000
,
1000
0010
1000
0000
,
0001
0001
1000
1000
,
0001
1000
0001
0000
,
1000
0100
1000
0000
,
0001
0010
0001
0000
,
1000
1000
0001
0001
,
1000
0001
1000
0000
,
0001
1000
0020
0030
,
1000
0001
0020
0030
,
0001
0001
1000
1000
,
0010
0010
0100
0100
,
2002
0000
0000
0000
,
3003
0000
0000
0000
;

//---------------dance-single - ----------------
#NOTEDATA:;
#CHARTNAME:;
#STEPSTYPE:dance-single;
#DESCRIPTION:;
#CHARTSTYLE:;
#DIFFICULTY:Medium;
#METER:4;
#RADARVALUES:0.285714,0.336872,0.178771,0.346369,0.000000,179.000000,163.000000,16.000000,31.000000,0.000000,0.000000,0.000000,0.000000,0.000000,0.285714,0.336872,0.178771,0.346369,0.000000,179.000000,163.000000,16.000000,31.000000,0.000000,0.000000,0.000000,0.000000,0.000000;
#CREDIT:;
#NOTES:
0000
0000
0000
0000
,
0000
0000
0000
0000
,
0000
0000
0000
0000
,
0000
0000
0000
0000
,
2000
0100
3002
0100
,
2003
0010
3002
0013
,
0100
1010
0100
0011
,
1000
0001
1001
0000
,
1000
0100
0010
0001
,
1000
0100
0020
0031
,
0001
0100
0020
1030
,
1000
0100
0001
0100
,
1000
0010
0100
1001
,
0001
0100
0020
1030
,
1000
0100
0020
0031
,
0001
0100
1000
0100
,
0001
0010
1000
0010
,
2002
0000
0000
3003
,
1000
0001
1000
0000
,
2000
0000
0000
3000
,
0020
0000
0000
0030
,
0002
0000
0000
0003
,
0200
0000
1000
1300
,
0001
0100
0001
0010
,
1000
0100
1000
0010
,
0001
0100
0010
0100
,
1000
0100
0001
0000
,
0002
0000
0100
0000
,
1003
0010
0100
1001
,
2000
0000
0100
0000
,
3001
0010
0100
1001
,
0002
0000
0010
0000
,
1003
0100
0010
1001
,
1000
0000
0001
0000
0100
0010
0100
0000
,
0001
0000
1000
0000
0100
0010
0100
0000
,
0010
0000
0001
0000
1000
0100
1000
0000
,
0001
1000
1001
0000
,
0002
0010
2003
0010
,
3002
0100
2003
3100
,
0010
0101
0010
1100
,
0001
1000
1001
0000
,
2000
0010
3002
0010
,
2003
0100
3002
0103
,
0010
1100
0010
0101
,
1000
0001
2002
3003
,
1000
0010
1000
0000
0002
0000
1003
0000
,
0001
0010
0001
0000
2000
0000
3001
0000
,
1000
0100
0001
0100
,
1000
0010
0001
0010
,
2002
0000
0000
3003
,
1000
0001
0000
0000
;

//---------------dance-single - ----------------
#NOTEDATA:;
#CHARTNAME:;
#STEPSTYPE:dance-single;
#DESCRIPTION:;
#CHARTSTYLE:;
#DIFFICULTY:Hard;
#METER:7;
#RADARVALUES:0.419792,0.422137,0.212290,0.223464,0.229050,263.000000,244.000000,19.000000,20.000000,0.000000,0.000000,0.000000,0.000000,0.000000,0.419792,0.422137,0.212290,0.223464,0.229050,263.000000,244.000000,19.000000,20.000000,0.000000,0.000000,0.000000,0.000000,0.000000;
#CREDIT:;
#NOTES:
// measure 0
0000
0000
0000
0000
,  // measure 1
0000
0000
0000
0000
,  // measure 2
0000
0000
0000
0000
,  // measure 3
0000
0000
0000
0000
,  // measure 4
1000
0000
0010
0000
0100
0000
0000
0001
0000
0000
0010
0000
0100
0000
0000
0000
,  // measure 5
1000
0000
0100
0000
0010
0000
0000
0001
0000
0000
0100
0000
0010
0000
0000
0000
,  // measure 6
2010
3001
1002
0103
,  // measure 7
0001
0000
0000
0001
0000
0000
1000
0000
0000
1000
0000
0000
0010
0000
0100
0000
,  // measure 8
0002
0203
0320
1030
,  // measure 9
1000
0000
0001
0000
0100
0000
0000
0010
0000
0000
0010
0000
1000
0000
0000
0000
,  // measure 10
0001
0000
1000
0000
0100
0000
0000
0010
0000
0000
0010
0000
0001
0000
0000
0000
,  // measure 11
1000
0010
0001
0000
0010
1000
0100
0000
,  // measure 12
0010
0001
0100
0000
0110
0000
1001
0000
,  // measure 13
0001
0000
1000
0000
0010
0000
0000
0100
0000
0000
0100
0000
0001
0000
0000
0000
,  // measure 14
1000
0000
0001
0000
0010
0000
0000
0100
0000
0000
0100
0000
1000
0000
0000
0000
,  // measure 15
0001
0100
1000
0000
0100
0001
0010
0000
,  // measure 16
0100
1000
0010
0000
0110
0000
1001
0000
,  // measure 17
1000
0000
0000
0001
0000
0000
0100
0000
0000
0010
0000
0000
1000
0000
0001
0000
,  // measure 18
0010
0000
0000
0001
0000
0000
1001
0000
0000
0000
0000
0000
0000
0000
0000
0000
,  // measure 19
2000
0000
0000
0000
0000
0000
3010
1000
,  // measure 20
0020
0000
0000
0000
0000
0000
0130
0010
,  // measure 21
0200
0000
0000
0000
0000
0000
0301
0100
,  // measure 22
0002
0000
1000
0000
1003
0001
0100
0010
,  // measure 23
1000
0000
0000
0100
0000
0000
0001
0000
0000
0000
0100
0000
1000
0000
0000
0000
,  // measure 24
0001
0000
0000
0010
0000
0000
1000
0000
0000
0000
0010
0000
0001
0000
0000
0000
,  // measure 25
2001
3100
0012
1003
,  // measure 26
1000
0000
0000
0010
0000
0000
0100
0000
0002
0000
0000
0000
1003
0000
0000
0000
,  // measure 27
0001
0000
0000
0100
0000
0000
1000
0000
0000
0100
0000
0000
0001
0000
0010
0000
,  // measure 28
0100
0000
0000
1000
0000
0000
0010
0000
0200
0000
0000
0000
0301
0000
0000
0000
,  // measure 29
1000
0000
0000
0100
0000
0000
0001
0000
0100
0000
0000
1000
0000
0000
0001
0000
,  // measure 30
0010
0000
0000
1000
0000
0000
0010
0000
0001
0000
0000
0000
1001
0000
0000
0000
,  // measure 31
1000
0000
0000
0100
0000
0000
0001
0000
0000
0100
0000
0000
1000
0000
0010
0000
,  // measure 32
0100
0000
0000
0001
0000
0000
0010
0000
0200
0000
0000
0000
1300
0000
0000
0000
,  // measure 33
0001
0000
0000
0001
0000
0000
0100
0000
0000
0010
0000
0000
1000
0000
0001
0000
,  // measure 34
1000
0000
0000
1000
0000
0000
0100
0000
0000
0010
0000
0000
0001
0000
1000
0000
,  // measure 35
0001
0000
0100
0000
1000
0000
0100
0000
0001
0000
0000
1000
0000
0000
0010
0000
,  // measure 36
0100
0000
0000
0001
0000
0000
2002
0000
0000
0000
0000
0000
3003
0000
0000
0000
,  // measure 37
1000
0000
0100
0000
0010
0000
0000
0001
0000
0000
0100
0000
0010
0000
0000
0000
,  // measure 38
1000
0000
0100
0000
0001
0000
0000
1000
0000
0000
0010
0000
0001
0000
0000
0000
,  // measure 39
2001
3010
1002
0103
,  // measure 40
0001
0000
0000
1000
0000
0000
0010
0000
0100
0000
0000
0000
1001
0000
0000
0000
,  // measure 41
0001
0000
0100
0000
0010
0000
0000
1000
0000
0000
0100
0000
0010
0000
0000
0000
,  // measure 42
0001
0000
0100
0000
1000
0000
0000
0001
0000
0000
0010
0000
1000
0000
0000
0000
,  // measure 43
1002
0013
2001
3100
,  // measure 44
1000
0000
0000
0001
0000
0000
0010
0000
0000
0100
0000
0000
1000
0000
0000
0000
,  // measure 45
0001
0000
0100
0000
1000
0000
0000
0100
0000
0000
0010
0000
1000
0000
0000
0000
,  // measure 46
1000
0000
0100
0000
0001
0000
0000
0100
0000
0000
0010
0000
0001
0000
0000
0000
,  // measure 47
1000
0100
0001
0000
0100
1000
0010
0000
,  // measure 48
0100
0001
0010
0000
0110
0000
1001
0000
,  // measure 49
0001
0000
0000
1000
0000
0000
0100
0000
0000
0010
0000
0000
0001
0000
1000
0000
,  // measure 50
0010
0000
0000
1000
0000
0000
1001
0000
0000
0000
0000
0000
0000
0000
0000
0000
;

//---------------dance-single - ----------------
#NOTEDATA:;
#CHARTNAME:;
#STEPSTYPE:dance-single;
#DESCRIPTION:;
#CHARTSTYLE:;
#DIFFICULTY:Challenge;
#METER:9;
#RADARVALUES:0.648045,0.647277,0.346369,0.279330,0.463687,406.000000,375.000000,31.000000,25.000000,28.000000,0.000000,0.000000,0.000000,0.000000,0.648045,0.647277,0.346369,0.279330,0.463687,406.000000,375.000000,31.000000,25.000000,28.000000,0.000000,0.000000,0.000000,0.000000;
#CREDIT:;
#NOTES:
0000
0000
0000
0000
,
0000
0000
0000
0000
,
0000
0000
0000
0000
,
0000
0000
0000
0000
,
1000
0000
0001
0000
0100
0000
0010
2000
0000
0000
0100
0000
3100
0000
1000
0000
,
0001
0000
1000
0000
0100
0000
0010
0002
0000
0000
0100
0000
0103
0000
0001
0000
,
2001
0000
0000
0000
3010
0000
0100
0000
0102
0000
0000
0100
0000
0000
1003
0000
,
1001
0000
0000
1010
0000
0000
0101
0000
0000
1001
0000
0000
1000
0000
0001
0000
,
0010
0100
0000
0010
0100
0000
1000
0001
0000
1000
0001
0000
0100
0000
0010
0000
,
1000
0000
0100
0000
0001
0000
0100
0020
0000
0000
0001
0000
0031
0000
1000
0000
,
0001
0000
0010
0000
1000
0000
0010
0200
0000
0000
1000
0000
1300
0000
0001
0000
,
1000
0000
0100
0000
0010
0000
0001
0200
0000
0000
0010
0000
0310
0000
0100
0000
,
0001
1000
0100
0010
0110
MMMM
1001
MMMM
,
0001
0000
0100
0000
1000
0000
0100
0020
0000
0000
1000
0000
1030
0000
0001
0000
,
1000
0000
0010
0000
0001
0000
0010
0200
0000
0000
0001
0000
0301
0000
1000
0000
,
0001
0000
0010
0001
0000
0010
0100
0000
1000
0000
0001
0000
0010
0000
0100
0000
,
1000
0000
0010
1000
0000
0010
0100
0000
0001
0100
0001
0000
0010
0000
0100
0000
,
1000
0001
0000
0001
0100
0000
0100
0010
0000
0010
1000
0000
0001
0000
0010
0000
,
0011
0000
0000
1100
0000
0000
1001
0000
0000
0000
0001
0000
1000
0000
0100
0000
,
0020
0000
0000
0100
0000
0000
0031
0000
0000
0000
0001
0000
1000
0000
0100
0000
,
2000
0000
0000
0001
0000
0000
3010
0000
0000
0000
1000
0000
0001
0000
0100
0000
,
0020
0000
0000
0100
0000
0000
1030
0000
0000
0000
1000
0000
0001
0000
0100
0000
,
0002
0000
0000
1000
0000
0000
0013
0000
0001
0000
0010
0000
0100
0000
1000
0000
,
0001
0000
0100
0010
0000
0100
0001
0000
1000
0000
0001
0000
0010
0000
0100
0000
,
1000
0000
0100
0010
0000
0100
1000
0000
0001
0000
1000
0000
0010
0000
0100
0000
,
0102
0000
0000
0000
0013
0000
0100
0000
2100
0000
0000
0001
0000
0000
3010
0000
,
1010
0000
0000
0101
0000
0000
1001
0000
1000
0000
0010
0100
0010
0000
1000
0000
,
0001
0000
0010
0100
0000
0010
1000
0000
0010
0000
0001
0000
0100
0000
0010
0000
,
1000
0000
0001
0100
0000
0100
0010
0000
1000
0000
0001
0000
1001
0000
MMMM
0000
,
0001
1000
0000
0010
1000
0000
0100
0000
0010
0001
0000
1000
0001
0000
0100
0000
,
0010
1000
0000
0001
1000
0000
0100
0000
0010
0000
0001
0000
1001
0000
MMMM
0000
,
1000
0000
0010
0100
0000
0010
0001
0000
0010
0000
1000
0000
0100
0000
0010
0000
,
0001
0000
1000
0100
0000
0100
0010
0000
0001
0000
1000
0000
1001
0000
MMMM
0000
,
1000
0000
0001
0100
0000
0010
0100
0000
0001
0000
1000
0000
0100
0000
0010
0000
,
0001
0000
1000
0100
0000
0010
0100
0000
1000
0000
0001
0000
0100
0000
0010
0000
,
1000
1000
0001
0001
0010
0100
1000
0001
,
0101
0000
0000
1010
0000
0000
1001
0000
0001
1000
0001
1000
0001
1000
0001
0000
,
1000
0000
0100
0000
0001
0000
0100
0020
0000
0000
0001
0000
0031
0000
1000
0000
,
0001
0000
0010
0000
1000
0000
0010
0200
0000
0000
1000
0000
1300
0000
0001
0000
,
0201
0000
0000
0000
0310
0000
1000
0000
1200
0000
0000
1000
0000
0000
0310
0000
,
0001
1000
0000
1000
0010
0000
0100
0000
0110
0000
MMMM
0000
1001
0000
MMMM
0000
,
0001
0000
0100
0000
1000
0000
0100
0020
0000
0000
1000
0000
1030
0000
0001
0000
,
1000
0000
0010
0000
0001
0000
0010
0200
0000
0000
0001
0000
0301
0000
1000
0000
,
1200
0000
0000
0000
0310
0000
0001
0000
0201
0000
0000
0001
0000
0000
0310
0000
,
1000
0001
0000
0001
0010
0000
0010
0100
0000
0100
1000
0000
0001
0010
0001
0000
,
1000
0000
0001
0000
0010
0000
1000
0020
0000
0000
0100
0000
0130
0000
1000
0000
,
0001
0000
1000
0000
0010
0000
0001
0020
0000
0000
0100
0000
0130
0000
0001
0000
,
1000
0000
0100
0010
0000
0001
0010
0000
0100
0000
1000
0000
0010
0000
0100
0000
,
0001
0000
0100
0010
0000
1000
0010
0000
0100
0001
0100
0001
1000
0000
0010
0000
,
0100
0001
0000
0001
0010
0000
0010
0100
0000
0100
1000
0000
0001
0000
1000
0000
,
1001
0000
0000
0110
0000
0000
1001
0000
0000
0000
0000
0000
0000
0000
0000
0000
;
