#TITLE:LEGEND;
#SUBTITLE:;
#ARTIST:Tha Trickaz;
#TITLETRANSLIT:;
#SUBTITLETRANSLIT:;
#ARTISTTRANSLIT:;
#CREDIT:Pilgrimsito;
#BANNER:LEGEND.png;
#BACKGROUND:LEGEND-bg.png;
#LYRICSPATH:;
#CDTITLE:cdtitle.png;
#MUSIC:LEGEND.mp3;
#OFFSET:-0.050;
#SAMPLESTART:65.816;
#SAMPLELENGTH:12.840;
#SELECTABLE:YES;
#DISPLAYBPM:87.000:175.000;
#BPMS:0.000=87.500,32.000=175.000,96.000=87.500,112.000=175.000,144.000=262.500,144.500=131.250,145.000=175.000,146.000=262.500,146.750=131.250,147.500=175.000,150.000=262.500,150.750=131.250,151.500=174.999,162.000=262.498,162.750=131.249,163.500=174.998,166.000=262.497,166.750=131.249,167.500=174.997,170.000=262.495,170.500=131.248,171.000=174.995,171.500=262.493,172.000=131.246,172.500=175.012,173.000=262.519,173.500=131.259,174.000=174.998,176.000=87.500,177.000=262.498,177.750=131.249,178.500=174.998,181.000=262.497,181.750=131.249,182.500=174.997,191.000=87.499,192.000=262.498,192.750=131.249,193.500=174.998,196.000=262.497,196.750=131.249,197.500=174.997,200.000=262.495,200.500=131.248,201.000=174.995,201.500=262.493,202.000=131.246,202.500=175.012,203.000=262.519,203.500=131.259,204.000=174.998,206.000=262.498,207.000=131.249,208.000=174.998,222.000=262.497,223.000=131.249,224.000=174.997,238.000=87.500,254.000=175.000,286.000=87.500,290.000=175.000,314.000=87.500;
#STOPS:;
#BGCHANGES:;

//---------------dance-single - Pilgrimsito----------------
#NOTES:
     dance-single:
     Pilgrimsito:
     Hard:
     9:
     0.663,0.772,0.692,0.656,0.204: // measure 1
0000
0000
0000
0000
,  // measure 2
0000
0000
0000
0000
,  // measure 3
0000
0000
0000
0000
,  // measure 4
0000
0000
0000
0000
,  // measure 5
1000
0000
1000
0000
0010
0000
0000
1000
0000
1000
0001
0000
0010
0000
0010
0000
,  // measure 6
0001
0000
0001
0000
0100
0000
0000
0001
0000
0001
1000
0000
0100
0000
0100
0000
,  // measure 7
1000
0000
1000
0000
0010
0000
0000
1000
0000
1000
0001
0000
0010
0000
0100
0000
,  // measure 8
0100
0000
1000
1000
0000
0001
0001
0000
0000
0000
1000
1000
0000
0000
0010
0010
,  // measure 9
0110
0000
0100
0000
1001
0000
0000
0101
,  // measure 10
0000
0001
0010
0000
1100
1000
0000
0000
,  // measure 11
1010
0000
0100
0000
0011
0000
0000
1001
,  // measure 12
0000
0001
0100
0000
1010
1000
0000
0001
,  // measure 13
1001
0000
0100
0000
0011
0000
0000
0110
,  // measure 14
0000
0010
0001
0000
0101
0001
0000
0000
,  // measure 15
1001
0000
1010
0110
0000
1010
0110
0000
,  // measure 16
0110
0000
1001
0011
0000
1001
0010
0010
,  // measure 17
0011
0000
0100
0000
1001
0000
0000
1100
,  // measure 18
0000
1000
0010
0000
0101
0001
0000
0000
,  // measure 19
0011
0000
0100
0000
1010
0000
0000
1001
,  // measure 20
0000
1000
0100
0000
0011
0001
0000
1000
,  // measure 21
1001
0000
0100
0000
1010
0000
0000
0110
,  // measure 22
0000
0010
1000
0000
1100
1000
0000
0000
,  // measure 23
1001
0000
0011
0110
0000
0011
0110
0000
,  // measure 24
0110
0000
1001
1010
0000
1001
1010
0000
,  // measure 25
1001
0000
1000
0000
0001
0000
0000
0100
0000
0010
0100
0000
0001
0000
0001
0000
,  // measure 26
1000
0000
0100
0000
0010
0000
0000
0100
0000
1000
0001
0000
0010
0000
0010
0000
,  // measure 27
1000
0000
0010
0000
0002
0000
0003
0200
0000
0300
0002
0000
0023
0000
2030
0000
,  // measure 28
3002
0000
0203
0000
2300
0000
3000
0020
0000
0030
0020
0000
0230
0000
0302
0000
,  // measure 29
1003
0100
1000
0100
0001
0100
0001
0100
,  // measure 30
0010
0100
0010
0100
0010
0001
0010
0001
,  // measure 31
0100
0010
0100
0010
1000
0001
1000
0001
,  // measure 32
1000
0010
1000
0010
0001
0010
0001
0010
,  // measure 33
1000
0100
0010
0001
1000
0010
0100
0001
,  // measure 34
1000
0100
1000
0010
0100
0001
0010
0001
,  // measure 35
0100
0010
0100
0010
0100
0010
0100
0010
0100
0010
0100
0010
0100
0010
0100
0010
,  // measure 36
0200
0000
0000
0000
0000
0000
0000
0300
0101
0000
0000
0000
1000
0000
1000
0000
,  // measure 37
1100
0000
0000
0000
1000
0000
0000
0000
1020
0000
0000
0000
0000
0000
0130
0010
,  // measure 38
0100
0000
0000
0000
0001
0000
0000
0000
0021
0000
0000
0000
0000
0000
0130
0010
,  // measure 39
0100
0000
0000
0000
1000
0000
0000
0000
0002
0000
0003
0200
0000
0300
2000
0000
,  // measure 40
3200
0000
0310
0200
0000
0301
0010
0010
,  // measure 41
1001
0000
0000
0000
0001
0000
0000
0000
0201
0000
0000
0000
0000
0000
0310
1000
,  // measure 42
0001
0000
0000
0000
1000
0000
0000
0000
1200
0000
0000
0000
0000
0000
0310
0001
,  // measure 43
1000
0000
0001
0000
0202
0000
0303
2200
,  // measure 44
0000
3300
2020
0000
3030
0100
0001
1000
,  // measure 45
0200
0000
0000
0300
0012
0000
0000
0000
0000
0000
1003
0001
1000
0000
0000
0000
,  // measure 46
0100
0000
0000
0000
2010
0000
0000
0000
0000
0000
3001
1000
0001
0000
0000
0000
,  // measure 47
0100
0000
0000
0000
0020
0000
0030
2000
0000
3000
0200
0000
2300
0000
0000
0000
,  // measure 48
3001
0000
0200
0000
0000
0000
1300
0000
0100
0000
0100
0000
0002
0000
0000
0003
,  // measure 49
1020
0000
0000
0000
0000
0000
0130
0001
0010
0000
0000
0000
0100
0000
0000
0000
,  // measure 50
0021
0000
0000
0000
0000
0000
0130
1000
0010
0000
0000
0000
0100
0000
0000
0000
,  // measure 51
0220
0000
0330
0202
0000
0303
0022
0000
,  // measure 52
0033
0010
1000
0010
0220
0000
0330
0000
,  // measure 53
0000
0000
0002
0003
2000
3000
0200
0300
0020
0030
0002
0003
0000
0000
0000
0000
,  // measure 54
1010
0000
0100
0000
2002
3003
0000
0000
,  // measure 55
0001
0000
0000
0010
0000
0000
0100
0000
0010
0000
0000
0000
0001
0000
0100
0000
,  // measure 56
0000
0001
0010
0010
0220
0000
0330
0000
,  // measure 57
0000
0000
2000
3000
0002
0003
0200
0300
0020
0030
2000
3000
0000
0000
0000
0000
,  // measure 58
0011
0000
0100
0000
1001
0000
0101
0110
,  // measure 59
0000
1010
1100
0000
0110
0000
0011
0101
,  // measure 60
0000
0000
0000
0000
0000
0000
0000
0000
1000
0000
1000
0000
0010
0000
0000
1000
,  // measure 61
0000
1000
0001
0000
0010
0000
0010
0000
0001
0000
0001
0000
0100
0000
0000
0001
,  // measure 62
0000
0001
1000
0000
0100
0000
0100
0000
1000
0000
1000
0000
0010
0000
0000
1000
,  // measure 63
0000
1000
0001
0000
0010
0000
0010
0000
0110
0000
1000
1010
0000
0010
0110
0000
,  // measure 64
0002
0003
0020
0030
0200
0300
1000
1000
2020
0000
0000
0000
0000
0000
3030
0000
,  // measure 65
0100
0000
0010
0000
1000
0000
0100
0010
0100
0000
1000
0000
0010
0000
0100
0000
,  // measure 66
0001
0010
0100
0010
0022
0000
0000
0033
,  // measure 67
0100
0000
1000
0000
0001
0000
0100
0010
0100
0000
0001
0000
0010
0000
0100
0000
,  // measure 68
0001
0100
1000
0001
0202
0000
0000
0303
,  // measure 69
0001
0000
0100
0000
1000
0000
0100
0010
0100
0000
0010
0000
1000
0000
0100
0000
,  // measure 70
1000
0010
0001
0010
2010
0000
3001
0012
,  // measure 71
0000
0103
0220
0330
2002
3003
0001
0201
,  // measure 72
0000
0000
0000
0000
0310
0000
0000
0000
1000
0000
0000
0000
1000
0000
0000
0000
2200
0000
0000
0000
0000
0000
3300
0000
1000
0000
0001
0000
0010
0000
0100
1000
,  // measure 73
0100
1000
0010
0100
0010
1000
0001
0100
0202
0000
0000
0000
0000
0000
0303
0000
,  // measure 74
0010
0000
1000
0000
0001
0000
0010
0100
0010
0000
0001
0000
0100
0000
0010
0000
,  // measure 75
0001
0010
1000
0001
0022
0000
0000
0033
,  // measure 76
0001
0000
0010
0000
1000
0000
0010
0100
0010
0000
0100
0000
1000
0000
0010
0000
,  // measure 77
1000
0100
0001
0100
2100
0000
3001
0102
,  // measure 78
0000
0013
0220
0330
2002
3003
0001
0021
,  // measure 79
0000
0130
1100
0000
1001
0000
0000
0000
;

//---------------dance-single - Pilgrimsito----------------
#NOTES:
     dance-single:
     Pilgrimsito:
     Medium:
     8:
     0.508,0.630,0.445,0.641,0.087: // measure 1
0000
0000
0000
0000
,  // measure 2
0000
0000
0000
0000
,  // measure 3
0000
0000
0000
0000
,  // measure 4
0000
0000
0000
0000
,  // measure 5
0001
0000
0001
0000
1000
0000
0000
0010
0000
0010
0000
0000
1000
0000
0010
0000
,  // measure 6
0100
0000
0100
0000
0010
0000
0000
1000
0000
1000
0000
0000
0001
0000
0010
0000
,  // measure 7
0100
0000
0100
0000
0010
0000
0000
0001
0000
0001
0000
0000
0100
0000
0010
0000
,  // measure 8
1000
0000
0000
1000
0000
0000
1000
0000
0000
0000
0000
0001
0000
0000
0001
0000
,  // measure 9
1001
0000
1000
0000
1100
0000
0000
1000
,  // measure 10
0000
0010
1000
0000
0001
0000
0010
0000
,  // measure 11
0110
0000
0001
0000
0101
0000
0000
0001
,  // measure 12
0000
1000
0010
0000
0100
0001
0000
0001
,  // measure 13
0011
0000
0001
0000
1001
0000
0000
1000
,  // measure 14
0000
0100
1000
0000
0010
0000
0100
0000
,  // measure 15
0101
0000
0001
0010
0000
0001
0100
0000
,  // measure 16
0110
0000
0010
1000
0000
0100
1000
0000
,  // measure 17
1001
0000
0001
0000
0101
0000
0000
0001
,  // measure 18
0000
0010
0001
0000
1000
0000
0010
0000
,  // measure 19
0110
0000
1000
0000
1100
0000
0000
1000
,  // measure 20
0000
0001
0010
0000
0100
1000
0000
1000
,  // measure 21
1010
0000
1000
0000
1001
0000
0000
0001
,  // measure 22
0000
0100
0001
0000
0010
0000
0100
0000
,  // measure 23
1100
0000
1000
0010
0000
1000
0100
0000
,  // measure 24
0110
0000
0010
0001
0000
0100
0001
0000
,  // measure 25
1001
0000
1000
0000
0100
0000
0000
0010
0000
0010
0000
0000
0001
0000
1000
0000
,  // measure 26
0100
0000
0100
0000
1000
0000
0000
0010
0000
0010
0000
0000
0100
0000
0001
0000
,  // measure 27
0010
0000
0010
0000
0001
0000
0000
1000
0000
1000
0000
0000
0002
0000
1000
0000
,  // measure 28
2003
0000
0000
0000
0000
3002
0203
0320
,  // measure 29
2030
0000
3200
0000
,  // measure 30
0302
0000
0203
0000
,  // measure 31
2300
0000
3020
0000
,  // measure 32
0230
0000
0302
0000
,  // measure 33
1003
0010
1000
0010
1000
0010
1000
0010
,  // measure 34
0100
0010
0100
0010
0100
0001
0100
0001
,  // measure 35
0200
0010
0010
0010
,  // measure 36
0020
0000
0330
0000
,  // measure 37
1001
0000
0000
0000
0022
0000
0000
0033
,  // measure 38
0101
0000
0010
0000
2020
0000
0000
3030
,  // measure 39
1100
0000
0000
0000
0100
0000
0000
0000
0020
0000
0030
0200
0000
0300
2000
0000
,  // measure 40
3002
0000
0003
0002
0000
0003
0100
0100
,  // measure 41
0110
0000
1000
0000
2002
0000
0000
3003
,  // measure 42
1100
0000
0000
0000
2002
0000
0000
3003
,  // measure 43
0101
0000
0000
0000
2002
0000
3003
0220
,  // measure 44
0000
0330
2002
0000
3003
0001
0100
0010
,  // measure 45
2000
3000
2020
0000
0000
3030
1100
0000
,  // measure 46
0010
0000
0022
0000
0000
0033
0101
0000
,  // measure 47
0100
0000
0000
0000
0020
0000
0030
0200
0000
0300
0002
0000
2003
0000
0000
0000
,  // measure 48
3000
2000
0000
0000
3100
0100
0020
0030
,  // measure 49
2002
0000
0000
3003
1010
0000
0000
0000
,  // measure 50
2002
0000
0000
3003
0011
0000
0000
0000
,  // measure 51
2002
0000
3003
0220
0000
0330
2002
0000
,  // measure 52
3003
0001
0010
0100
2000
0000
3000
0000
,  // measure 53
0000
0001
0100
0001
0100
0001
0000
0000
,  // measure 54
1100
1000
1010
0000
,  // measure 55
1000
0000
0000
0001
0000
0000
0010
0000
0100
0000
0000
0000
0100
0000
0010
0000
,  // measure 56
0000
0010
0001
0001
0200
0000
0300
0000
,  // measure 57
0000
0010
1000
0010
1000
0010
0000
0000
,  // measure 58
0101
0000
0001
0000
0011
0000
0001
1000
,  // measure 59
0000
1000
0001
0000
0101
0000
0100
0020
,  // measure 60
0000
0000
0000
0000
0000
0000
0000
0000
1030
0000
1000
0000
0001
0000
0000
0010
,  // measure 61
0000
0010
0000
0000
0001
0000
0010
0000
0100
0000
0100
0000
0010
0000
0000
0001
,  // measure 62
0000
0001
0000
0000
1000
0000
0010
0000
0100
0000
0100
0000
0010
0000
0000
1000
,  // measure 63
0000
1000
0000
0000
0100
0000
0010
0000
0001
0000
0000
0001
0000
0000
0001
0000
,  // measure 64
2000
0000
0000
3000
2001
0000
0000
0000
,  // measure 65
3010
0100
0010
0100
0001
1000
0001
1000
,  // measure 66
0100
1000
0100
1000
0200
0000
0000
0000
,  // measure 67
1300
0001
1000
0001
0100
0001
0100
0001
,  // measure 68
0100
0010
0100
0010
0200
0000
0000
0000
,  // measure 69
0310
1000
0010
1000
0001
1000
0001
1000
,  // measure 70
0100
0010
0100
0010
0220
0330
0000
2002
,  // measure 71
3003
0000
0202
0303
2020
3030
0000
2200
,  // measure 72
0000
0000
3300
0000
2002
3003
0000
0000
,  // measure 73
0000
0010
1010
0000
0201
0000
0000
0000
,  // measure 74
0301
1000
0001
1000
0100
1000
0100
1000
,  // measure 75
0100
0010
0100
0010
0200
0000
0000
0000
,  // measure 76
0310
0001
0010
0001
1000
0001
1000
0001
,  // measure 77
0100
0010
0100
0010
0220
0330
0000
2002
,  // measure 78
3003
0000
0022
0033
2200
3300
0000
2020
,  // measure 79
0000
0000
3030
0000
2002
3003
0000
0000
;

//---------------dance-single - Pilgrimsito----------------
#NOTES:
     dance-single:
     Pilgrimsito:
     Easy:
     6:
     0.285,0.372,0.270,0.408,0.000: // measure 1
0000
0000
0000
0000
,  // measure 2
0000
0000
0000
0000
,  // measure 3
0000
0000
0000
0000
,  // measure 4
0000
0000
0000
0000
,  // measure 5
1000
1000
1000
0000
0000
0000
0001
0010
,  // measure 6
0100
0100
0100
0000
0000
0000
1000
0010
,  // measure 7
0100
0100
0200
0000
0000
0000
0000
0000
,  // measure 8
0000
0000
0000
0000
,  // measure 9
0301
0000
0001
0000
1000
0000
0000
0010
,  // measure 10
0000
0010
0000
0000
1000
0000
0010
0000
,  // measure 11
0100
0000
0100
0000
0010
0000
0000
1000
,  // measure 12
0000
1000
0000
0000
0001
0000
0010
0000
,  // measure 13
0100
0000
0100
0000
0010
0000
0000
0001
,  // measure 14
0000
0001
0000
0000
0100
0000
0010
0000
,  // measure 15
1010
0000
0000
1001
0000
0000
0011
0000
,  // measure 16
0011
0000
0000
1001
0000
0000
0010
0000
,  // measure 17
1000
0000
1000
0000
0001
0000
0000
0010
,  // measure 18
0000
0010
0000
0000
0001
0000
0010
0000
,  // measure 19
0100
0000
0100
0000
0010
0000
0000
0001
,  // measure 20
0000
0001
0000
0000
1000
0000
0010
0000
,  // measure 21
0100
0000
0100
0000
0010
0000
0000
1000
,  // measure 22
0000
1000
0000
0000
0100
0000
0010
0000
,  // measure 23
0011
0000
0000
1001
0000
0000
1010
0000
,  // measure 24
1010
0000
0000
1001
0000
0000
0001
0000
,  // measure 25
0102
0000
0000
0000
,  // measure 26
2003
0000
0000
0000
,  // measure 27
3020
0000
0000
0000
,  // measure 28
0230
0000
0000
0000
,  // measure 29
0302
0000
0023
0000
,  // measure 30
0230
0000
2300
0000
,  // measure 31
3020
0000
0230
0000
,  // measure 32
0302
0000
2003
0000
,  // measure 33
3002
0000
0000
0000
,  // measure 34
0203
0000
0302
0000
,  // measure 35
0023
0000
0000
0000
,  // measure 36
0200
0000
0330
0000
,  // measure 37
1001
0000
2000
0000
,  // measure 38
3100
0000
0002
0000
,  // measure 39
0103
0000
1000
0000
,  // measure 40
0001
0000
1000
0010
,  // measure 41
0110
0000
0002
0000
,  // measure 42
0013
0000
2000
0000
,  // measure 43
3010
0000
0000
0000
0002
0000
0003
2000
,  // measure 44
0000
3000
0002
0000
0003
0000
1000
0000
,  // measure 45
2002
3003
0020
0000
0000
0000
1030
0000
,  // measure 46
0000
0200
0000
0301
,  // measure 47
0000
1000
0000
0100
,  // measure 48
0000
0000
0010
0000
0001
0000
2002
3003
,  // measure 49
0200
0000
1300
0000
,  // measure 50
0020
0000
0031
0000
,  // measure 51
0200
0000
0300
0020
0000
0030
0200
0000
,  // measure 52
0300
0001
1001
0000
,  // measure 53
1010
0000
0000
0010
,  // measure 54
0110
0000
0101
0000
,  // measure 55
1001
0000
0000
0001
,  // measure 56
0011
0000
0110
0000
,  // measure 57
1001
0000
0000
0100
,  // measure 58
0101
0000
0020
0000
,  // measure 59
0000
0000
0200
0000
,  // measure 60
0000
0000
0330
0000
,  // measure 61
0000
0000
2000
0000
,  // measure 62
0000
0000
3100
0000
,  // measure 63
0000
0000
0000
0000
1001
1000
0100
0010
,  // measure 64
0001
0100
0010
1000
1002
0000
0000
0000
,  // measure 65
0103
0000
0000
0110
0000
0000
0010
0000
,  // measure 66
1001
0000
1200
0000
,  // measure 67
0310
0000
0000
0001
,  // measure 68
0101
0000
2010
0000
,  // measure 69
3001
0000
0000
0100
,  // measure 70
0110
0000
0000
0000
2000
0000
3000
0002
,  // measure 71
0000
0003
2000
0000
3020
0000
0030
0200
,  // measure 72
0000
0300
0020
0000
0130
0000
0000
0000
,  // measure 73
0000
1000
1001
0000
0201
0000
0000
0000
,  // measure 74
0310
0000
0000
1000
,  // measure 75
1100
0000
0012
0000
,  // measure 76
1003
0000
0000
0100
,  // measure 77
0110
0000
0000
0000
0002
0000
0003
0200
,  // measure 78
0000
0300
0020
0000
2030
0000
3000
0200
,  // measure 79
0000
0300
0020
0000
0031
0000
0000
0000
;
