#VERSION:0.83;
#TITLE:Igranka;
#SUBTITLE:;
#ARTIST:Who See feat. Nina Žižić;
#TITLETRANSLIT:;
#SUBTITLETRANSLIT:;
#ARTISTTRANSLIT:Who See feat. Nina Zizic;
#GENRE:MONTENEGRO TWENTY THIRTEEN;
#ORIGIN:;
#CREDIT:Telperion;
#BANNER:[Round 1] - Igranka.png;
#BACKGROUND:[Round 1] - Igranka-bg.png;
#PREVIEWVID:;
#JACKET:[Round 1] - Igranka-jacket.png;
#CDIMAGE:;
#DISCIMAGE:;
#LYRICSPATH:;
#CDTITLE:;
#MUSIC:[Round 1] - Igranka.ogg;
#OFFSET:-0.399977;
#SAMPLESTART:63.168999;
#SAMPLELENGTH:12.923000;
#SELECTABLE:YES;
#DISPLAYBPM:130.000000;
#BPMS:0.000=130.000;
#STOPS:;
#DELAYS:;
#WARPS:;
#TIMESIGNATURES:0.000=4=4;
#TICKCOUNTS:0.000=4;
#COMBOS:0.000=1;
#SPEEDS:0.000=1.000=0.000=0;
#SCROLLS:0.000=1.000;
#FAKES:;
#LABELS:0.000=Song Start;
#BGCHANGES:;
#KEYSOUNDS:;
#ATTACKS:
;

//---------------dance-single - Telperion----------------
#NOTEDATA:;
#CHARTNAME:;
#STEPSTYPE:dance-single;
#DESCRIPTION:Telperion;
#CHARTSTYLE:;
#DIFFICULTY:Hard;
#METER:8;
#RADARVALUES:0.438588,0.476129,0.381597,0.450978,0.394606,354.000000,310.000000,44.000000,52.000000,4.000000,0.000000,4.000000,0.000000,0.000000,0.438588,0.476129,0.381597,0.450978,0.394606,354.000000,310.000000,44.000000,52.000000,4.000000,0.000000,4.000000,0.000000,0.000000;
#CREDIT:Telperion;
#OFFSET:-0.399977;
#BPMS:0.000000=130.000000
;
#STOPS:;
#DELAYS:;
#WARPS:;
#TIMESIGNATURES:0.000000=4=4
;
#TICKCOUNTS:0.000000=4
;
#COMBOS:0.000000=1
;
#SPEEDS:0.000000=1.000000=0.000000=0
,243.000000=5.000000=1.000000=0
;
#SCROLLS:0.000000=1.000000
;
#FAKES:;
#LABELS:0.000000=Song Start
;
#DISPLAYBPM:130.000000;
#NOTES:
M00M
0000
M00M
0000
,
0001
0100
0010
1000
,
0001
0000
0000
0001
0100
0000
0001
0000
1000
0000
0010
0000
1000
0000
0000
0000
,
0100
0100
0010
0001
,
1000
0000
0000
1000
0100
0000
1000
0000
0004
0000
0000
0000
0003
0000
0000
0000
,
0100
0000
0000
0100
0001
0000
0100
0000
0000
0100
0001
0000
1000
0000
0000
0000
,
0100
0000
0000
0100
1000
0000
0100
0000
0000
0100
0010
0000
0001
0000
2000
0000
,
3010
0000
0000
0010
0100
0000
0010
0000
0000
0010
1000
0000
0001
0000
0000
0000
,
0020
0000
0000
0030
,
1100
0000
0000
0001
0000
0000
1010
0000
0000
1000
0000
0000
0001
0000
0000
0000
,
0101
0000
0000
1000
0000
0000
0011
0000
0000
0020
0000
0000
0130
0000
0000
0000
,
0110
0000
0000
0100
0000
0000
1001
0000
0000
0001
0000
0000
0100
0000
0000
0000
,
0220
0000
0000
0330
0000
0000
2002
0000
0000
3003
0000
0000
0120
0000
0000
0000
,
1030
0000
0000
0001
0000
0000
1100
0000
0000
0100
0000
0000
0010
0000
0000
0000
,
0011
0000
0000
1000
0000
0000
0101
0000
0000
0200
0000
0000
0310
0000
0000
0000
,
0110
0000
0000
0100
0000
0000
1001
0000
0000
0001
0000
0000
0010
0000
0000
0000
,
1000
0000
0000
0001
0100
0000
0001
0000
4000
0000
0000
0000
3000
0000
0000
0000
,
0010
0000
0000
1000
0010
0000
0100
0000
0000
0000
0000
0100
0001
0000
0010
0000
,
0000
0000
0000
0001
0010
0000
0100
0000
0000
0000
0000
0100
1000
0000
0001
0000
,
0000
0000
0000
0100
0001
0000
1000
0000
0000
0000
0000
0100
1000
0000
0001
0000
,
0000
0000
0000
0010
0001
0000
1000
0000
0000
0000
0000
0010
1000
0000
0001
0000
,
0010
0000
0100
1000
0100
0000
0010
0000
0000
0000
0001
0010
0001
0000
1000
0000
,
0000
0000
1000
0010
1000
0000
0001
0000
0000
0000
0100
0001
0100
0000
0010
0000
,
1000
0001
0010
0100
1000
0100
0010
0001
,
1000
0100
1000
0100
0000
0000
0001
0100
0001
0100
0000
0000
,
1020
0000
0230
0304
,
1003
0000
0000
2000
0000
0000
0000
0000
3200
0000
0000
0000
0000
0000
0300
0000
,
0021
0000
0000
0000
0000
0000
0130
1000
0100
1000
0100
1000
,
0001
0000
0000
2000
0000
0000
3000
0000
1000
0000
0000
0200
0000
0000
0300
0000
,
0021
0000
0230
4300
,
3001
0000
0000
0000
0000
0000
0000
0000
0000
0002
0000
0000
0000
0000
0000
0000
0000
0000
0000
0000
0000
0000
0000
0000
1003
0000
0000
0000
0010
0000
0000
0000
1000
0000
0000
0000
0010
0000
0000
0000
1000
0000
0000
0000
0010
0000
0000
0000
,
0200
0000
0000
0000
0000
0000
0301
0100
0001
0100
0001
0100
,
0020
2030
3002
0023
,
0230
0000
0000
0300
,
0011
0000
0000
0020
0000
0000
0000
0000
0130
0000
0001
0000
0200
0000
0000
0000
,
2300
0000
0000
0000
0000
0000
3001
0100
0001
0100
0001
0100
,
0010
0000
0000
0020
0000
0000
0030
0010
2000
0000
0000
0000
3001
0000
0000
0000
,
0201
0310
1200
0310
,
1001
0000
0000
0000
0000
0000
0000
0000
0000
0002
0000
0000
0000
0000
0000
0000
0000
0000
0000
0000
0000
0000
0000
0000
1003
0000
0000
0000
0100
0000
0000
0000
1000
0000
0000
0000
0100
0000
0000
0000
1000
0000
0000
0000
0100
0000
0000
0000
,
0020
0000
0000
0000
,
0030
0000
0000
0000
,
1001
0000
0000
0000
0101
0000
0000
0000
1000
0000
0000
1000
0001
0000
0000
0001
,
0100
0110
1010
1001
,
0021
0030
0210
0300
,
1100
0000
0000
2000
0000
0000
3000
1000
0001
0000
0000
0000
0110
0000
0000
0000
,
1001
0000
0000
0000
1100
0000
0000
0000
0001
0000
0000
0001
1000
0000
0000
0000
,
1100
0110
0011
1001
,
1020
0030
0210
0300
,
0101
0000
0000
0002
0000
0000
0003
0001
1000
0000
0000
1000
0100
0000
0000
0000
,
0010
0010
0100
1000
,
0001
0000
0000
1000
0001
0000
0100
0000
0020
0000
0000
0000
0030
0000
0000
0000
,
1020
0000
0000
0000
0000
0000
0130
0001
0100
0001
0100
0001
,
1000
0000
0000
1000
0001
0000
1000
0000
0010
0000
0100
0000
0001
0000
0000
0000
,
0021
0000
0000
0000
0000
0000
0000
0000
0130
0000
0000
0200
0000
0000
0000
0000
,
1300
0000
0000
0001
1000
0000
0100
0000
0010
0000
0001
0000
0010
0000
0000
0000
,
0210
0000
0000
0000
0000
0000
1300
0001
1000
0001
1000
0001
,
0200
0000
0000
0300
,
0010
0000
0000
0010
1000
0000
0010
0000
0000
0010
1000
0000
0001
0000
0000
0000
,
0010
0000
0000
0010
0001
0000
0010
0000
0000
0010
0100
0000
1000
0000
0002
0000
,
0103
0000
0000
0100
0010
0000
0100
0000
0000
0100
0001
0000
1000
0000
0000
0000
,
0220
0000
0000
0330
0000
0000
0220
0000
0000
0000
0330
0000
2000
0000
0000
0000
,
3001
0000
0000
0000
;

//---------------dance-single - no, YOU'RE a vision----------------
#NOTEDATA:;
#CHARTNAME:;
#STEPSTYPE:dance-single;
#DESCRIPTION:no, YOU'RE a vision;
#CHARTSTYLE:;
#DIFFICULTY:Edit;
#METER:10;
#RADARVALUES:0.607086,0.767096,0.216816,0.450978,0.897619,490.000000,465.000000,25.000000,52.000000,64.000000,0.000000,0.000000,0.000000,0.000000,0.607086,0.767096,0.216816,0.450978,0.897619,490.000000,465.000000,25.000000,52.000000,64.000000,0.000000,0.000000,0.000000,0.000000;
#CREDIT:Telperion;
#OFFSET:-0.399977;
#BPMS:0.000000=130.000000
;
#STOPS:;
#DELAYS:;
#WARPS:;
#TIMESIGNATURES:0.000000=4=4
;
#TICKCOUNTS:0.000000=4
;
#COMBOS:0.000000=1
;
#SPEEDS:0.000000=1.000000=0.000000=0
,132.000000=2.000000=3.000000=0
,135.000000=1.400000=0.000000=0
,135.250000=1.000000=0.000000=0
,196.000000=0.700000=0.000000=0
,202.000000=1.000000=2.000000=0
,224.000000=2.000000=4.000000=0
,243.000000=10.000000=1.000000=0
;
#SCROLLS:0.000000=1.000000
,99.000000=0.500000
,99.500000=1.500000
,100.000000=1.300000
,100.250000=1.200000
,100.500000=1.100000
,100.750000=1.000000
,101.000000=0.920000
,101.250000=0.860000
,101.500000=0.820000
,101.750000=0.800000
,102.000000=1.300000
,102.250000=1.200000
,102.500000=1.100000
,102.750000=1.000000
,103.000000=0.920000
,103.250000=0.860000
,103.500000=0.820000
,103.750000=0.800000
,104.000000=1.300000
,104.250000=1.200000
,104.500000=1.100000
,104.750000=1.000000
,105.000000=0.920000
,105.250000=0.860000
,105.500000=0.820000
,105.750000=0.800000
,106.000000=1.300000
,106.250000=1.200000
,106.500000=1.100000
,106.750000=1.000000
,107.000000=0.920000
,107.250000=0.860000
,107.500000=0.820000
,107.750000=0.800000
,108.000000=1.300000
,108.250000=1.200000
,108.500000=1.100000
,108.750000=1.000000
,109.000000=0.920000
,109.250000=0.860000
,109.500000=0.820000
,109.750000=0.800000
,110.000000=1.300000
,110.250000=1.200000
,110.500000=1.100000
,110.750000=1.000000
,111.000000=0.920000
,111.250000=0.860000
,111.500000=0.820000
,111.750000=0.800000
,112.000000=1.300000
,112.250000=1.200000
,112.500000=1.100000
,112.750000=1.000000
,113.000000=0.920000
,113.250000=0.860000
,113.500000=0.820000
,113.750000=0.800000
,114.000000=1.300000
,114.250000=1.200000
,114.500000=1.100000
,114.750000=1.000000
,115.000000=0.920000
,115.250000=0.860000
,115.500000=0.820000
,115.750000=0.800000
,116.000000=1.300000
,116.250000=1.200000
,116.500000=1.100000
,116.750000=1.000000
,117.000000=0.920000
,117.250000=0.860000
,117.500000=0.820000
,117.750000=0.800000
,118.000000=1.300000
,118.250000=1.200000
,118.500000=1.100000
,118.750000=1.000000
,119.000000=0.920000
,119.250000=0.860000
,119.500000=0.820000
,119.750000=0.800000
,120.000000=1.300000
,120.250000=1.200000
,120.500000=1.100000
,120.750000=1.000000
,121.000000=0.920000
,121.250000=0.860000
,121.500000=0.820000
,121.750000=0.800000
,122.000000=1.300000
,122.250000=1.200000
,122.500000=1.100000
,122.750000=1.000000
,123.000000=0.920000
,123.250000=0.860000
,123.500000=0.820000
,123.750000=0.800000
,124.000000=1.300000
,124.250000=1.200000
,124.500000=1.100000
,124.750000=1.000000
,125.000000=0.920000
,125.250000=0.860000
,125.500000=0.820000
,125.750000=0.800000
,126.000000=1.300000
,126.250000=1.200000
,126.500000=1.100000
,126.750000=1.000000
,127.000000=0.920000
,127.250000=0.860000
,127.500000=0.820000
,127.750000=0.800000
,128.000000=1.000000
,132.000000=0.500000
,136.000000=1.300000
,136.250000=1.200000
,136.500000=1.100000
,136.750000=1.000000
,137.000000=0.920000
,137.250000=0.860000
,137.500000=0.820000
,137.750000=0.800000
,138.000000=1.300000
,138.250000=1.200000
,138.500000=1.100000
,138.750000=1.000000
,139.000000=0.920000
,139.250000=0.860000
,139.500000=0.820000
,139.750000=0.800000
,140.000000=1.300000
,140.250000=1.200000
,140.500000=1.100000
,140.750000=1.000000
,141.000000=0.920000
,141.250000=0.860000
,141.500000=0.820000
,141.750000=0.800000
,142.000000=1.300000
,142.250000=1.200000
,142.500000=1.100000
,142.750000=1.000000
,143.000000=0.920000
,143.250000=0.860000
,143.500000=0.820000
,143.750000=0.800000
,144.000000=1.300000
,144.250000=1.200000
,144.500000=1.100000
,144.750000=1.000000
,145.000000=0.920000
,145.250000=0.860000
,145.500000=0.820000
,145.750000=0.800000
,146.000000=1.300000
,146.250000=1.200000
,146.500000=1.100000
,146.750000=1.000000
,147.000000=0.920000
,147.250000=0.860000
,147.500000=0.820000
,147.750000=0.800000
,148.000000=1.300000
,148.250000=1.200000
,148.500000=1.100000
,148.750000=1.000000
,149.000000=0.920000
,149.250000=0.860000
,149.500000=0.820000
,149.750000=0.800000
,150.000000=1.300000
,150.250000=1.200000
,150.500000=1.100000
,150.750000=1.000000
,151.000000=0.920000
,151.250000=0.860000
,151.500000=0.820000
,151.750000=0.800000
,152.000000=1.300000
,152.250000=1.200000
,152.500000=1.100000
,152.750000=1.000000
,153.000000=0.920000
,153.250000=0.860000
,153.500000=0.820000
,153.750000=0.800000
,154.000000=1.300000
,154.250000=1.200000
,154.500000=1.100000
,154.750000=1.000000
,155.000000=0.920000
,155.250000=0.860000
,155.500000=0.820000
,155.750000=0.800000
,156.000000=1.300000
,156.250000=1.200000
,156.500000=1.100000
,156.750000=1.000000
,157.000000=0.920000
,157.250000=0.860000
,157.500000=0.820000
,157.750000=0.800000
,158.000000=1.000000
,204.000000=1.300000
,204.250000=1.200000
,204.500000=1.100000
,204.750000=1.000000
,205.000000=0.920000
,205.250000=0.860000
,205.500000=0.820000
,205.750000=0.800000
,206.000000=1.300000
,206.250000=1.200000
,206.500000=1.100000
,206.750000=1.000000
,207.000000=0.920000
,207.250000=0.860000
,207.500000=0.820000
,207.750000=0.800000
,208.000000=1.300000
,208.250000=1.200000
,208.500000=1.100000
,208.750000=1.000000
,209.000000=0.920000
,209.250000=0.860000
,209.500000=0.820000
,209.750000=0.800000
,210.000000=1.300000
,210.250000=1.200000
,210.500000=1.100000
,210.750000=1.000000
,211.000000=0.920000
,211.250000=0.860000
,211.500000=0.820000
,211.750000=0.800000
,212.000000=1.300000
,212.250000=1.200000
,212.500000=1.100000
,212.750000=1.000000
,213.000000=0.920000
,213.250000=0.860000
,213.500000=0.820000
,213.750000=0.800000
,214.000000=1.300000
,214.250000=1.200000
,214.500000=1.100000
,214.750000=1.000000
,215.000000=0.920000
,215.250000=0.860000
,215.500000=0.820000
,215.750000=0.800000
,216.000000=1.300000
,216.250000=1.200000
,216.500000=1.100000
,216.750000=1.000000
,217.000000=0.920000
,217.250000=0.860000
,217.500000=0.820000
,217.750000=0.800000
,218.000000=1.300000
,218.250000=1.200000
,218.500000=1.100000
,218.750000=1.000000
,219.000000=0.920000
,219.250000=0.860000
,219.500000=0.820000
,219.750000=0.800000
,220.000000=1.300000
,220.250000=1.200000
,220.500000=1.100000
,220.750000=1.000000
,221.000000=0.920000
,221.250000=0.860000
,221.500000=0.820000
,221.750000=0.800000
,222.000000=1.300000
,222.250000=1.200000
,222.500000=1.100000
,222.750000=1.000000
,223.000000=0.920000
,223.250000=0.860000
,223.500000=0.820000
,223.750000=0.800000
,224.000000=0.500000
;
#FAKES:;
#LABELS:0.000000=Song Start
;
#DISPLAYBPM:130.000000;
#NOTES:
MM00
00M0
MM00
00M0
0000
0000
00MM
0M00
00MM
0M00
0000
0000
,
0000
0000
1000
0000
0000
1000
0000
0000
1000
0000
0000
0000
0000
0000
0010
0000
,
0000
0010
0000
0000
0010
0000
0000
0000
0000
0000
0000
0000
0000
0000
0000
0000
,
0000
0000
0100
0000
0000
0100
0000
0000
0100
0000
0000
0000
0001
0000
1000
0000
,
0000
0000
0000
1000
0000
0000
0000
0000
0000
0000
0000
0000
1000
0000
0000
0000
0000
0000
0000
0000
0000
0000
0000
0000
0001
0000
0000
0000
0100
0000
0000
0000
0001
0000
0000
0000
2000
0000
0000
0000
0000
0000
0000
0000
0000
0000
0000
0000
,
3100
0000
0000
1000
0100
0000
0010
0000
0000
0100
1000
0000
0010
0000
0000
0000
,
0100
0000
0000
0001
0100
0000
0010
0000
0000
0100
0001
0000
0010
0000
0002
0000
,
1003
0000
0000
1000
0010
0000
1000
0000
0000
1000
0001
0000
0010
0000
0000
0000
,
0200
0000
0000
0300
,
1000
0000
0000
0010
0000
0000
1010
0000
1000
0000
0001
0000
0021
0000
0000
0130
,
0000
1000
0000
0001
1000
0000
1100
0000
0000
0001
0000
1000
0010
0000
0100
0000
,
0001
0000
1000
0001
1000
0000
1100
0000
0001
0010
0000
0010
0001
0000
1000
0000
,
0010
0000
0000
0000
0100
0000
0000
0000
0010
0000
0000
1000
0000
0000
0010
0000
0100
0000
0000
0000
0001
0000
0100
0000
0010
0000
0000
0000
0200
0000
0000
0000
,
0300
0001
0000
1000
0001
0010
0001
1000
0000
1000
0001
0010
0001
0000
1000
0000
,
0100
0000
0000
0000
0100
0000
0000
0000
0010
0000
0000
0000
0010
0000
0001
0000
1000
0000
0000
0100
0000
0000
1000
0000
0000
0001
0000
0000
0100
0000
0001
0000
,
0100
0000
0000
0010
0000
0000
1000
0000
0000
0010
0000
0000
0100
0000
0000
0001
0000
0000
1000
0000
0100
0000
2000
0000
0000
0000
0000
0000
3001
0000
0000
0000
,
0010
0000
0100
0000
0010
0000
0100
0000
0000
0100
0000
0000
1000
0000
0001
0000
1000
0000
0001
0000
0000
0002
0000
0000
,
0003
0000
0000
0000
0100
0000
0000
0000
0010
0000
0000
0000
1000
0000
0010
0000
1000
0000
0000
0001
0000
0000
0010
0000
0100
0000
0000
0000
0100
0000
1000
0000
,
0100
0000
0000
0000
0010
0000
0000
0000
0001
0000
1000
0000
0001
0000
1000
0000
0010
0000
0000
0000
0100
0000
0000
0000
0001
0000
0000
0100
0000
0000
0010
0000
,
0000
0000
0010
0000
1000
0000
0001
0000
2000
0000
0000
0000
3000
0000
0010
0000
1000
0000
0001
0000
1000
0000
0000
0000
1000
0000
0000
0000
0100
0000
0000
0010
,
0000
0001
0010
0000
0100
1000
0100
1000
0001
0100
0001
0000
1000
0000
2000
0000
,
3000
0010
0000
0010
0200
0000
0300
0000
0001
0100
0000
0001
1000
0000
0001
0100
,
0001
0010
0100
1000
0100
0010
0001
1000
0010
0100
0001
1000
,
0100
0010
0100
0010
0001
1000
0010
0100
0001
0100
0010
1000
0001
0010
0100
1000
,
0001
0100
0001
1000
0100
0010
0001
1000
0010
0100
0000
0000
,
2MM1
0000
0000
0000
0000
0000
3200
0000
1300
0100
1000
0100
,
0020
0000
0000
0002
0000
0000
0030
0000
0203
0000
2300
0000
3200
0000
0302
0000
,
0023
0000
0000
0000
0000
0000
0031
0010
0001
0010
0100
1000
,
1020
0000
0000
0200
0000
0000
0330
0100
0001
0000
0000
2001
0000
0000
0000
0000
,
3020
0000
0000
0000
0000
0000
0230
0000
0301
0100
0001
0100
,
0020
0000
0000
0000
0000
0000
0000
0000
0000
2000
0000
0000
0000
0000
0000
0000
0000
0000
0030
0000
0000
0000
0000
0000
3001
0000
0000
0000
0010
0000
0000
0000
0100
0000
0000
0000
1000
0000
0000
0000
0100
0000
0000
0000
0010
0000
0000
0000
,
0012
0000
0000
0000
0000
0000
1003
0010
0100
0001
0100
0010
,
1000
0000
0001
0010
0100
0000
1000
0100
0010
0000
0001
1000
0010
0100
0010
0000
,
2002
0000
0000
0000
0000
0000
0000
0000
0000
0000
0000
0000
3000
0003
0000
0000
,
0101
0000
0000
0120
0000
0000
0000
0000
0032
0000
2003
0000
3200
0000
0302
0000
,
0023
0000
0000
0000
0000
0000
0130
1000
0100
1000
0100
1000
,
1001
0000
0000
0000
0000
0000
0000
0000
0000
0101
0000
0000
0000
0000
0000
0000
0000
0000
0000
0000
0000
0100
0000
0000
0020
0000
0000
0000
0000
0000
0000
0000
0000
0000
0000
0000
1030
0000
0000
0000
0001
0000
0000
0000
1000
0000
0000
0000
,
0100
0000
0000
0110
0100
1000
1010
0000
0000
0101
0001
1000
,
1100
0000
0000
0000
0000
0000
0000
0000
0000
0120
0000
0000
0000
0000
0000
0000
0000
0000
0000
0000
0000
0000
0000
0000
1030
0000
0000
0000
0010
0000
0000
0000
0001
0000
0000
0000
1000
0000
0000
0000
0001
0000
0000
0000
0100
0000
0000
0000
,
0020
0000
0000
0000
0000
0000
0000
0000
0031
0010
0100
0001
2000
0100
0000
0000
,
3002
0000
0000
0000
,
MMM3
0000
1000
0000
0100
0000
0010
0000
0011
0000
0000
0001
1000
0000
0010
0000
,
MMMM
0000
0010
0000
0100
0000
0010
0000
1010
0000
0000
1000
0001
0000
0010
0000
,
MMMM
0100
0001
0100
1100
0001
1000
0010
,
0100
0000
0001
0100
0000
0001
1000
0001
0100
0000
0010
1000
0001
0010
0100
1000
,
0001
0000
1000
0000
0010
0000
0100
0000
0101
0000
0000
0001
1000
0000
0100
0000
,
MMMM
0100
0010
0100
1100
0001
1000
0010
,
MMMM
0100
1000
0100
0101
1000
0001
0010
,
0100
0000
1000
0100
0000
1000
0001
1000
0100
0000
0010
0001
1000
0000
0000
0000
,
0101
0000
0000
0001
0100
0000
0010
0000
1000
0000
1000
0000
0002
0000
0003
0000
,
0010
0000
0000
0000
0000
0000
0000
0000
0000
0010
0000
0000
0010
0000
0000
0000
0000
0000
0010
0000
0000
0000
0000
0000
0M01
0M00
0M00
0M00
0M00
0M00
0M01
0M00
0M00
0M00
0M00
0M00
2M00
0M00
0M00
0M00
0M00
0M00
3M00
0M00
0M00
0M00
0M00
0M00
,
0M20
0000
0000
0100
0000
0000
1030
0100
0010
1000
0010
0001
,
1000
0000
0000
1000
0010
0000
0100
0010
0001
0000
0010
0100
0010
1000
0001
0010
,
0200
0000
0000
0000
0000
0000
0000
0000
0000
0000
0000
0000
0000
0000
0000
0000
0000
0000
0000
0000
0000
0000
0000
0000
0000
0000
0000
0000
0000
0000
0000
0000
0000
0000
0000
0000
1300
0000
0000
0000
0000
0000
0100
0000
0000
0000
0000
0000
2000
0000
0000
0000
0000
0000
0000
0000
0000
0000
0000
0000
0000
0000
0000
0000
0000
0000
0000
0000
0000
0000
0000
0000
0000
0000
0000
0000
0000
0000
0000
0000
0000
0000
0000
0000
0000
0000
0000
0000
0000
0000
0000
0000
0000
0000
0000
0000
3002
0000
0000
0000
0000
0000
0000
0000
0000
0000
0000
0000
0000
0000
0000
0000
0000
0000
0000
0000
0000
0000
0000
0000
0000
0000
0000
0000
0000
0000
0000
0000
0000
0000
0000
0000
0013
0000
0000
0000
0000
0000
0000
0000
0000
0000
0000
0000
0001
0000
0000
0000
0000
0000
0000
0000
0000
0000
0000
0000
0000
0000
0000
0000
1000
0000
0000
0000
0000
0000
0000
0000
0000
0000
0000
0000
0000
0000
0000
0000
0100
0000
0000
0000
0000
0000
0000
0000
0000
0000
0000
0000
0000
0000
0000
0000
,
0010
0000
0000
0000
0000
0000
0000
0000
0000
0010
0000
0000
0100
0000
0000
0000
0000
0000
0010
0000
0000
0000
0000
0000
0001
0000
0000
0000
0010
0000
0000
0000
0100
0000
0000
0000
0001
0000
0000
0000
0100
0000
0000
0000
1000
0000
0000
0000
,
0002
0000
0000
0100
0000
0000
1003
0010
0100
1000
0100
0001
,
0020
0000
0000
0000
,
0130
0000
0000
1000
0100
0000
0010
0000
0000
0100
1000
0000
0010
0000
0000
0000
,
0100
0000
0000
0001
0100
0000
0010
0000
0000
0100
0002
0000
MMM3
0000
0010
0000
,
0100
0000
0000
1000
0010
0000
0100
0000
0000
0010
1000
0000
0100
0000
0000
0000
,
0020
0000
0000
0031
1000
0000
0020
0000
0000
1030
0001
0000
0020
0000
0000
0000
,
MM3M
0000
0000
0000
;

//---------------dance-single - ----------------
#NOTEDATA:;
#CHARTNAME:;
#STEPSTYPE:dance-single;
#DESCRIPTION:Telperion;
#CHARTSTYLE:;
#DIFFICULTY:Medium;
#METER:5;
#RADARVALUES:0.287436,0.449677,0.086727,0.381597,0.138762,232.000000,222.000000,10.000000,44.000000,0.000000,1.000000,11.000000,0.000000,0.000000,0.287436,0.449677,0.086727,0.381597,0.138762,232.000000,222.000000,10.000000,44.000000,0.000000,1.000000,11.000000,0.000000,0.000000;
#CREDIT:Telperion;
#DISPLAYBPM:130.000000;
#NOTES:
0000
0000
0000
0000
,
0000
0000
0000
0000
,
0000
0000
0000
0000
,
0000
0000
0000
0000
,
0000
0000
0000
0000
,
1000
0000
0000
1000
0000
0000
1000
0000
,
0001
0000
0000
0001
0000
0000
0001
0000
,
0100
0000
0000
0100
0000
0000
0100
0000
,
0020
0000
0000
0030
,
1000
0000
0000
0100
0000
0000
1000
0000
0000
0100
0000
0000
1000
0000
0000
0000
,
0001
0000
0000
0100
0000
0000
0001
0000
0000
0100
0000
0000
0010
0000
0000
0000
,
1000
0000
0000
0001
0000
0000
1000
0000
0000
0001
0000
0000
0010
0000
0000
0000
,
0200
0000
0000
0300
0000
0000
0200
0000
0000
0300
0000
0000
1000
0000
0000
0000
,
0001
0000
0000
0100
0000
0000
0001
0000
0000
0100
0000
0000
0001
0000
0000
0000
,
1000
0000
0000
0100
0000
0000
1000
0000
0000
0100
0000
0000
0010
0000
0000
0000
,
0001
0000
0000
1000
0000
0000
0001
0000
0000
1000
0000
0000
0010
0000
0000
0000
,
0200
0000
0000
0000
0000
0000
0000
0000
0000
0300
0000
0000
0000
0000
0000
0000
0000
0000
0100
0000
0000
0000
0000
0000
0001
0000
0000
0000
1000
0000
0000
0000
0001
0000
0000
0000
1000
0000
0000
0000
0000
0000
0000
0000
0000
0000
0000
0000
,
0100
0000
0000
0000
0010
0000
0000
0000
0001
0000
0000
0001
1000
0000
0001
0000
,
0100
0000
0000
0000
0010
0000
0000
0000
1000
0000
0000
0001
1000
0000
0001
0000
,
0010
0000
0000
0000
0100
0000
0000
0000
1000
0000
0000
1000
0001
0000
1000
0000
,
0010
0000
0000
0000
0100
0000
0000
0000
0001
0000
0000
1000
0001
0000
1000
0000
,
0100
0000
0000
0000
0010
0000
0000
0000
0001
0000
0000
0001
1000
0000
0001
0000
,
0100
0000
0000
0000
0010
0000
0000
0000
1000
0000
0000
0001
1000
0000
0001
0000
,
0010
0100
0010
0100
1000
0001
1000
0001
,
0100
0000
0010
0000
0100
0000
0001
1000
0001
1000
0000
0000
,
2200
0300
3002
0403
,
0320
0030
2020
3030
,
0202
0300
4003
0000
,
3200
0340
0032
0013
,
2200
0300
3002
0403
,
0320
0000
4030
3000
,
0102
0000
0000
0000
0043
0000
0030
0001
,
2000
3200
0302
0203
,
2300
0000
0000
0000
0000
0000
0000
0000
0000
0000
0000
0000
0010
3000
0000
0000
,
0102
0000
0023
0230
,
2300
0000
3004
0000
,
2103
0000
3020
0430
,
0302
4003
3200
0340
,
0032
0000
0403
0000
,
0320
0000
0000
0000
0000
0000
0000
0000
0200
0000
0000
0000
0000
0330
0000
0000
,
0000
0000
0000
0000
,
1000
0000
0000
0000
0100
0000
0000
0000
0010
0000
0000
0001
0010
0000
0000
0000
,
0001
0100
0010
1000
,
0001
0000
0100
0000
0020
0000
0000
0130
,
0010
0000
1000
0000
0001
0010
0100
1000
,
0001
0000
0000
0000
0100
0000
0000
0000
0010
0000
0000
1000
0010
0000
0000
0000
,
1000
0100
0010
0001
,
0012
0000
0103
0000
,
1000
0100
0001
0010
,
0200
0000
0000
0000
,
0300
0000
0120
0000
,
0031
0010
0100
1000
,
0001
0000
0001
0010
0100
1000
0010
0000
,
1000
0010
0100
0001
,
1000
0000
1000
0010
0100
0001
0010
0000
,
0100
0000
0100
0000
0010
0100
0010
0000
,
2002
0000
0000
3003
,
1000
0000
0000
0010
0000
0000
1000
0000
0000
0010
0000
0000
1000
0000
0000
0000
,
0001
0000
0000
0010
0000
0000
0001
0000
0000
0010
0000
0000
0100
0000
0000
0000
,
1000
0000
0000
0001
0000
0000
1000
0000
0000
0001
0000
0000
0100
0000
0000
0000
,
0020
0000
0000
0030
0000
0000
0020
0000
0000
0030
0000
0000
2000
0000
0000
0000
,
3001
0000
0000
0000
;

//---------------dance-single - ----------------
#NOTEDATA:;
#CHARTNAME:;
#STEPSTYPE:dance-single;
#DESCRIPTION:Telperion;
#CHARTSTYLE:;
#DIFFICULTY:Easy;
#METER:3;
#RADARVALUES:0.158586,0.238064,0.086727,0.338233,0.000000,128.000000,118.000000,10.000000,39.000000,0.000000,0.000000,0.000000,0.000000,0.000000,0.158586,0.238064,0.086727,0.338233,0.000000,128.000000,118.000000,10.000000,39.000000,0.000000,0.000000,0.000000,0.000000,0.000000;
#CREDIT:Telperion;
#DISPLAYBPM:130.000000;
#NOTES:
0000
0000
0000
0000
,
0000
0000
0000
0000
,
0000
0000
0000
0000
,
0000
0000
0000
0000
,
0000
0000
0000
0000
,
1000
0000
1000
0000
,
0001
0000
0001
0000
,
0100
0000
0100
0000
,
0020
0000
0030
0000
,
1000
0010
0000
0010
,
0100
0001
0000
0100
,
0001
1000
0000
1000
,
0200
0300
0000
0200
0300
0000
0100
0000
,
0010
0001
0000
0001
,
1000
0010
0000
0100
,
0001
1000
0000
1000
,
0200
0300
0200
0300
,
0010
0000
0010
0000
,
0100
0000
0100
0000
,
1000
0000
1000
0000
,
0001
1000
0001
1000
,
0001
0000
0001
0000
,
0100
0000
0100
0000
,
0010
0010
1000
1000
,
0001
0010
0100
0000
,
2002
0000
3003
0000
,
0220
0000
0330
0000
,
2002
0000
3003
0000
,
0220
0000
0330
0000
,
0002
0000
0103
0000
,
2000
0000
3100
0000
,
0002
0000
0013
0000
,
2000
0000
3010
0000
,
0200
0000
0000
0300
,
2002
0000
3003
0000
,
0220
0000
0330
0000
,
2002
0000
3003
0000
,
0220
0000
0330
0000
,
2000
0000
3100
0000
,
0002
0000
0200
0000
,
0303
0000
0000
0000
,
0010
0010
0010
0000
,
1000
1000
1000
0000
,
0010
0000
0100
0000
,
0001
0001
0001
0000
,
0010
0010
0010
0000
,
0100
0100
0100
0000
,
1000
0000
1000
0000
,
0010
0010
1000
0001
,
0010
0000
0000
0000
,
0000
0000
0110
0000
,
2000
0000
3010
0000
,
0002
0000
0013
0000
,
2000
0000
3100
0000
,
0002
0000
0103
0000
,
0020
0000
0130
0000
,
2002
0000
0000
3003
,
0001
0000
0001
0000
,
1000
0000
1000
0000
,
0010
0000
0010
0000
,
0200
0300
0000
0200
0300
0000
0200
0000
,
0310
0000
0000
0000
;

//---------------dance-single - ----------------
#NOTEDATA:;
#CHARTNAME:;
#STEPSTYPE:dance-single;
#DESCRIPTION:Telperion;
#CHARTSTYLE:;
#DIFFICULTY:Beginner;
#METER:1;
#RADARVALUES:0.061948,0.105806,0.078054,0.017345,0.000000,50.000000,41.000000,9.000000,2.000000,1.000000,0.000000,0.000000,0.000000,0.000000,0.061948,0.105806,0.078054,0.017345,0.000000,50.000000,41.000000,9.000000,2.000000,1.000000,0.000000,0.000000,0.000000,0.000000;
#CREDIT:Telperion;
#DISPLAYBPM:130.000000;
#NOTES:
// measure 0
0000
0000
0000
0000
,  // measure 1
0000
0000
0000
0000
,  // measure 2
0000
0000
0000
0000
,  // measure 3
0000
0000
0000
0000
,  // measure 4
0000
0000
0000
0000
,  // measure 5
0000
0000
0000
0000
,  // measure 6
0000
0000
0000
0000
,  // measure 7
0000
0000
0000
0000
,  // measure 8
0000
0000
0000
0000
,  // measure 9
0010
0000
0000
0000
,  // measure 10
0001
0000
0000
0000
,  // measure 11
0100
0000
0000
0000
,  // measure 12
1000
0000
0000
0000
,  // measure 13
0010
0000
0000
0000
,  // measure 14
1000
0000
0000
0000
,  // measure 15
0100
0000
0000
0000
,  // measure 16
0001
0000
0000
0000
,  // measure 17
1000
0000
0000
0000
,  // measure 18
0010
0000
0000
0000
,  // measure 19
0100
0000
0000
0000
,  // measure 20
1000
0000
0000
0000
,  // measure 21
0001
0000
0000
0000
,  // measure 22
0010
0000
0000
0000
,  // measure 23
0100
0000
0000
0000
,  // measure 24
0001
0000
0000
0000
,  // measure 25
1001
0000
0000
0000
,  // measure 26
0000
0000
0000
0000
,  // measure 27
1001
0000
0000
0000
,  // measure 28
0000
0000
0000
0000
,  // measure 29
0110
0000
0000
0000
,  // measure 30
0000
0000
0000
0000
,  // measure 31
0110
0000
0000
0000
,  // measure 32
0000
0000
0000
0000
,  // measure 33
2002
0000
0000
3003
,  // measure 34
0000
0000
0000
0000
,  // measure 35
0010
0000
0000
0000
,  // measure 36
0100
0000
0000
0000
,  // measure 37
0010
0000
0000
0000
,  // measure 38
0100
0000
0000
0000
,  // measure 39
0010
0000
0000
0000
,  // measure 40
0000
0000
0000
0000
,  // measure 41
1001
0000
0000
0000
,  // measure 42
0000
0000
0000
0000
,  // measure 43
1001
0000
0000
0000
,  // measure 44
0000
0000
0000
0000
,  // measure 45
0110
0000
0000
0000
,  // measure 46
0000
0000
0000
0000
,  // measure 47
0110
0000
0000
0000
,  // measure 48
0000
0000
0000
0000
,  // measure 49
0100
0000
0000
0000
,  // measure 50
0000
0000
0000
0000
,  // measure 51
1000
0000
0000
0000
,  // measure 52
0010
0000
0000
0000
,  // measure 53
0001
0000
0000
0000
,  // measure 54
0100
0000
0000
0000
,  // measure 55
0001
0000
0000
0000
,  // measure 56
0010
0000
0000
0000
,  // measure 57
0100
0000
0000
0000
,  // measure 58
0100
0000
0000
0000
,  // measure 59
0100
0000
0000
0000
,  // measure 60
0100
