#VERSION:0.83;
#TITLE:Highcharge Divolt;
#SUBTITLE:;
#ARTIST:HuΣeR;
#TITLETRANSLIT:;
#SUBTITLETRANSLIT:;
#ARTISTTRANSLIT:;
#GENRE:;
#ORIGIN:;
#CREDIT:;
#BANNER:Highcharge Divolt.png;
#BACKGROUND:Highcharge Divolt-bg.png;
#PREVIEWVID:;
#JACKET:Highcharge Divolt-jacket.png;
#CDIMAGE:;
#DISCIMAGE:;
#LYRICSPATH:;
#CDTITLE:;
#MUSIC:Highcharge Divolt.mp3;
#OFFSET:-0.811000;
#SAMPLESTART:69.187004;
#SAMPLELENGTH:9.599998;
#SELECTABLE:YES;
#BPMS:0.000=200.000;
#STOPS:;
#DELAYS:;
#WARPS:;
#TIMESIGNATURES:0.000=4=4;
#TICKCOUNTS:0.000=4;
#COMBOS:0.000=1;
#SPEEDS:0.000=1.000=0.000=0;
#SCROLLS:0.000=1.000;
#FAKES:;
#LABELS:0.000=Song Start;
#BGCHANGES:;
#KEYSOUNDS:;
#ATTACKS:
;

//---------------dance-single - ----------------
#NOTEDATA:;
#CHARTNAME:;
#STEPSTYPE:dance-single;
#DESCRIPTION:;
#CHARTSTYLE:;
#DIFFICULTY:Hard;
#METER:8;
#RADARVALUES:0.543434,0.653605,0.119947,0.299868,0.017135,444.000000,430.000000,14.000000,35.000000,0.000000,0.000000,0.000000,0.000000,0.000000,0.543434,0.653605,0.119947,0.299868,0.017135,444.000000,430.000000,14.000000,35.000000,0.000000,0.000000,0.000000,0.000000,0.000000;
#CREDIT:;
#NOTES:
0000
0000
0000
0000
,
0000
0000
0000
0000
,
0000
0000
0000
0000
,
0000
0000
0000
0000
,
0000
0000
0000
0000
,
0101
0000
0000
0011
0000
0000
0000
0000
,
1001
0000
0000
1010
0000
0200
0000
0300
,
1001
0000
0000
0011
0000
0000
0000
0000
,
0000
1000
0010
0100
0001
0010
0100
0010
,
0001
0000
1000
0000
,
0010
0000
1000
0001
,
1000
0000
0100
0000
,
1000
0000
0001
0010
,
0100
0000
0010
0000
,
0001
0000
0100
0010
,
0100
0000
0010
0000
,
1000
0000
0001
0020
,
0130
0000
1000
0000
,
0001
1000
1010
0000
,
1000
0000
0001
0000
,
0010
0000
0001
0000
0001
0100
0000
0100
,
0001
0000
1000
0000
,
0100
0010
0011
0001
,
1000
0000
0000
0001
0000
0000
0100
0010
,
0000
0100
0010
1000
0001
0010
0001
1000
,
0001
0000
1000
0100
0100
0000
0020
0000
,
0130
0000
0000
2000
0000
0000
3010
0000
,
0000
0100
0010
1000
0000
0001
1000
0100
,
0010
0010
0001
0100
0010
1000
0100
0010
,
0100
0010
0000
0010
0001
0100
0000
0010
,
1000
0100
0000
0010
0001
0100
0000
0010
,
1000
0010
1000
0100
0000
1000
0001
0010
,
0001
0100
0000
0001
0010
1000
0010
0001
,
0100
0000
0001
0000
1000
0001
0000
0100
,
0001
0000
0010
0100
0000
1000
0010
0000
,
0100
0000
0001
0000
0100
0010
0000
0100
,
0001
0001
1000
0100
1000
0010
0100
0001
,
1000
0100
0010
0100
1000
0001
0010
0100
,
0010
0001
1000
0100
0010
0001
1000
0100
,
1000
0001
0100
0001
0000
1000
0010
0100
,
0010
1000
0000
1000
0001
0010
0100
1000
,
0010
0000
0000
0000
0000
0000
0000
0100
,
0002
0000
0000
0000
0000
0000
1003
0000
0000
0000
0100
0000
0000
1000
0000
0000
,
0010
0000
0000
0200
0000
0000
0000
0000
,
0000
0000
0000
0300
0020
0000
2030
0000
,
3002
0000
0000
2003
0000
0000
3200
0000
,
0000
0000
0000
0000
1300
0000
1000
0001
,
0200
0000
0000
0320
0000
0000
2030
0000
,
3002
0000
0000
0000
,
1003
0000
0010
0000
0100
0000
0001
0010
,
0100
0010
0001
1000
,
0001
0000
0100
0000
0010
1000
0001
0100
,
0001
0010
0100
0010
0001
1000
0001
0100
,
0002
0000
0000
0013
0000
0000
0002
0000
,
1003
0000
0002
0203
,
0300
0010
0100
0001
0010
0001
1000
0010
,
0100
0001
0010
0001
1000
0100
1000
0001
,
1000
0000
1000
0010
0000
0001
0010
0000
,
1000
0010
0000
0001
0010
0000
0001
0000
,
1001
0000
0001
0100
0000
1000
0100
0000
,
0001
0100
0000
1000
0100
0010
0100
1000
,
0001
1000
0001
0000
0100
0010
0100
0000
,
0001
0100
0001
0000
1000
0010
1000
0000
,
0010
0100
0001
1000
0010
0100
0001
1000
,
0000
0001
1000
0100
0010
0100
1000
0001
,
1000
0000
1001
0000
0001
0000
1000
0010
,
0000
0010
1000
0010
0000
0100
0001
0100
,
0010
0000
1001
0000
0001
0100
0001
0010
,
0000
0100
0010
0001
1000
0010
1000
0001
,
2000
0000
0000
3010
0200
0000
0000
0310
,
2000
0000
0000
3010
0100
0010
1000
0001
,
1000
0000
0000
0001
0000
0000
0010
0000
0001
0000
0000
1000
0000
0000
0010
0000
,
0100
0000
0000
0001
0000
0000
0010
0000
0200
0000
0000
0000
0000
0000
0000
0000
,
2300
0000
3020
0000
0130
0001
0010
0001
,
1000
0100
1000
0001
0100
0001
0010
0100
,
0010
0001
1000
0100
1000
0001
0100
0010
,
1000
0001
0010
0100
0010
0001
1000
0001
,
0200
0000
0310
0200
0000
0310
0200
0000
,
0310
0200
0000
0310
0100
0010
0100
0010
,
1000
0001
1000
0001
1000
0001
1000
0001
,
2000
3200
0320
0032
,
0103
0000
0001
0010
0001
0000
2000
0000
,
3001
0000
0000
0200
0000
0000
0310
0000
,
1000
0001
0100
0001
0000
0010
0001
0010
,
0000
0001
1000
0100
1000
0001
0100
0010
,
1000
0001
0010
0001
1000
0100
1000
0010
,
1000
0010
0100
0001
0100
0010
1000
0010
,
0100
0001
0010
0100
0000
0010
0001
1000
,
0100
0010
0000
0100
1000
0010
0100
0001
,
0011
0000
0000
1010
0000
0000
1001
0000
;

//---------------dance-single - ----------------
#NOTEDATA:;
#CHARTNAME:;
#STEPSTYPE:dance-single;
#DESCRIPTION:;
#CHARTSTYLE:;
#DIFFICULTY:Medium;
#METER:6;
#RADARVALUES:0.413696,0.499816,0.145650,0.222759,0.000000,338.000000,321.000000,17.000000,26.000000,0.000000,0.000000,0.000000,0.000000,0.000000,0.413696,0.499816,0.145650,0.222759,0.000000,338.000000,321.000000,17.000000,26.000000,0.000000,0.000000,0.000000,0.000000,0.000000;
#CREDIT:;
#NOTES:
0000
0000
0000
0000
,
0000
0000
0000
0000
,
0000
0000
0000
0000
,
0000
0000
0000
0000
,
0000
0000
0000
0000
,
1000
0000
0000
0011
0000
0000
0000
0000
,
0001
0000
0000
1010
0000
2000
0000
0000
,
3001
0000
0000
0011
0000
0000
0000
0000
,
0000
0001
1000
0000
0100
0000
0010
0000
,
1001
0000
1000
0000
,
0001
0000
0100
0001
,
0100
0000
0001
0000
,
0010
0000
0100
1000
,
0010
0000
0100
0000
,
0010
0000
1000
0001
,
1000
0000
0001
0000
,
0010
0000
0100
0010
,
0001
0000
1001
0000
,
1000
0001
0101
0000
,
0001
0000
1000
0000
,
0010
0000
1000
0000
0100
0010
0000
0010
,
0001
0000
0100
0000
,
0001
0010
0011
0000
,
0001
0000
0000
1000
0000
0000
0010
0100
,
0000
0100
0010
0000
1000
0000
0001
0000
,
1001
0000
0000
0001
0100
0000
0020
0000
,
1030
0000
0000
0002
0000
0000
2003
0000
,
3000
0100
1000
0000
0001
0000
0100
0000
,
0010
0100
0001
0000
0100
0010
1000
0000
,
1000
0001
0000
0001
0100
0001
0000
0100
,
0010
0100
0000
0010
1000
0010
0000
1000
,
0001
1000
0100
0000
1000
0000
0010
0100
,
0001
0010
1000
0010
,
0001
0000
1000
0000
0000
0001
0000
0000
,
0100
0000
0000
0010
0000
0000
1001
0000
,
0000
0000
1000
0000
0000
0010
0000
0000
,
0100
0000
0000
0001
0000
0000
0011
0000
,
0002
0013
0020
0130
,
0200
1300
2000
3001
,
0100
0010
1000
0000
0001
0000
1000
0001
,
0100
0000
1000
0000
0100
0010
1000
0001
,
1000
0000
0000
0000
0000
0000
0000
0001
,
0200
0000
0000
0310
0000
0100
0000
0000
,
0010
0000
0000
2000
0000
0000
0000
0000
,
0000
0000
0000
3000
0001
0000
1000
0000
,
0200
0000
0000
1300
0000
0000
0020
0000
,
0000
0000
0000
0000
0130
0000
0100
0010
,
2000
0000
0000
3001
0000
0000
0010
0000
,
0002
0000
0000
0003
,
1000
0010
0100
0001
,
0010
0001
0100
0010
,
1000
0100
1000
0001
,
0100
0001
0010
0100
,
0010
0001
0100
0010
,
1000
0010
0100
0001
,
0000
1000
0001
0000
0010
0000
0100
0000
,
1000
1000
0001
0001
,
0100
0000
0000
0110
0000
0000
0010
0000
,
0000
0110
0000
0000
0100
0000
0001
0000
,
1001
0000
0000
1000
0000
0000
1001
0000
,
0000
0001
0000
0000
1000
0000
0001
0000
,
0100
0001
0100
0000
0100
0010
0100
0000
,
0010
1000
0010
0000
0010
0100
0010
0000
,
0100
0001
0010
0000
0100
1000
0010
0000
,
0100
0010
1000
0001
,
1000
0010
0100
0001
,
0010
0001
1000
0100
,
1000
0001
0010
0001
,
0100
0010
1000
0001
,
2000
0000
0000
3001
0200
0000
0300
0100
,
0020
0000
0030
0010
2000
0000
3001
0000
,
1000
0010
0000
0010
0100
0000
0100
0001
,
0000
0001
1000
0000
0020
0000
0000
0000
,
0230
0302
0013
0100
,
1000
0001
0100
0001
,
1000
0100
0010
0100
,
1000
0001
0100
0010
,
0100
0000
0001
1000
0000
0001
0100
0000
,
0001
0010
0000
0001
1000
0000
0001
1000
,
0100
0100
0100
0100
,
0020
0032
2003
3020
,
0130
0000
0000
0001
0010
0000
0200
0000
,
0310
0000
0000
0001
0000
0000
1000
0000
,
0001
0100
0010
0000
0100
0010
1000
0000
,
0001
0001
0100
1000
,
0100
0010
0100
0000
0010
1000
0010
0000
,
1000
0001
1000
0000
0001
0010
0001
0000
,
1000
0001
0100
0000
0010
0000
0100
0001
,
0010
1000
0010
0001
,
0011
0000
0000
1100
0000
0000
1001
0000
;

//---------------dance-single - ----------------
#NOTEDATA:;
#CHARTNAME:;
#STEPSTYPE:dance-single;
#DESCRIPTION:;
#CHARTSTYLE:;
#DIFFICULTY:Easy;
#METER:4;
#RADARVALUES:0.277837,0.384474,0.042838,0.137083,0.000000,227.000000,222.000000,5.000000,16.000000,0.000000,0.000000,0.000000,0.000000,0.000000,0.277837,0.384474,0.042838,0.137083,0.000000,227.000000,222.000000,5.000000,16.000000,0.000000,0.000000,0.000000,0.000000,0.000000;
#CREDIT:;
#NOTES:
0000
0000
0000
0000
,
0000
0000
0000
0000
,
0000
0000
0000
0000
,
0000
0000
0000
0000
,
0000
0000
0000
0000
,
1000
0000
0000
1000
0000
0000
0000
0000
,
0001
0000
0000
0001
0000
0000
0000
0000
,
0100
0000
0000
0100
0000
0000
0000
0000
,
0000
0010
1000
0001
,
1001
0000
0000
0000
,
0000
0000
0000
0000
,
0000
0000
0000
0000
,
0000
0000
0000
0000
,
0000
0000
0000
0000
,
0000
0000
0000
0000
,
0000
0000
0000
0000
,
0000
0000
0000
0000
,
1000
0000
0001
0000
,
0100
0001
0100
0000
,
0010
0000
1000
0000
,
0100
1000
0100
0010
,
0001
0000
1000
0000
,
0001
0100
0001
0000
,
0100
0000
0010
0000
,
1000
0010
0100
0001
,
1000
0000
0001
0020
,
0031
0000
0000
0100
0000
0000
0010
0000
,
1000
0001
0010
0100
,
0010
0010
0001
0001
,
1000
0001
0100
0001
,
1000
0100
1000
0001
,
0100
0000
0000
0010
0000
0000
1000
0000
,
0000
0010
0000
0000
0100
0000
0001
0000
,
0000
0000
1000
0000
0000
1000
0000
0000
,
0001
0000
0000
0001
0000
0000
1000
0000
,
0000
0000
0010
0000
0000
0010
0000
0000
,
0100
0100
0010
0010
,
1000
0010
0100
0001
,
0010
0100
0010
0001
,
1000
0000
0000
0001
0000
0000
0100
0000
,
0000
0001
0000
0000
0010
0000
0100
0000
,
1000
0000
0000
0000
,
0100
0000
0000
0000
,
1000
0000
0000
0000
,
0000
0000
0001
1000
,
0001
0000
0000
0000
,
0000
0000
0100
0010
,
1000
0000
0000
0000
,
0100
0000
0000
0000
,
1001
0000
0000
0001
,
0100
0000
0000
0001
0000
0000
0010
0000
,
0001
0000
0000
1000
,
1000
0000
0001
1000
,
0010
0000
0000
1000
0000
0000
0100
0000
,
1000
0000
0100
0010
,
0002
0000
0000
0000
,
2000
0000
0000
3003
,
0001
0000
0000
1000
0000
0000
0010
0000
,
0000
0100
0000
0000
0001
0000
1000
0000
,
0001
0000
0000
0100
0000
0000
0010
0000
,
0000
1000
0000
0000
0001
0000
1000
0000
,
0001
0000
0000
0100
0000
0000
0001
0000
,
0000
0010
0000
0000
0001
0000
1000
0000
,
0010
0000
0000
0100
0000
0000
0001
0000
,
0100
0010
1000
0100
,
0010
0100
1000
0010
,
0100
0001
0010
0010
,
0001
1000
0100
1000
,
0001
0100
0010
0010
,
0200
0000
0302
0000
,
2003
0000
3020
2030
,
3001
0010
0001
1000
,
0001
0100
0002
0000
,
2003
3002
0103
0001
,
0010
0001
1000
0100
,
1000
0010
0100
0001
,
0010
0100
0010
0001
,
1000
0000
0000
1000
0000
0000
1000
0000
,
0000
1000
0000
0000
1000
0000
0000
0000
,
0001
0001
0001
0001
,
0200
0320
2030
3002
,
1003
0000
0000
0020
0000
0000
0000
0000
,
0000
0000
0000
0030
,
1000
0001
0010
0001
,
0100
0100
0010
0010
,
0100
0010
1000
0001
,
0010
0100
1000
0001
,
1000
0000
0000
0010
0000
0000
0100
0000
,
0000
0001
0000
0000
0100
0000
0010
0000
,
1001
0000
0000
0110
0000
0000
1001
0000
;

//---------------dance-single - ----------------
#NOTEDATA:;
#CHARTNAME:;
#STEPSTYPE:dance-single;
#DESCRIPTION:;
#CHARTSTYLE:;
#DIFFICULTY:Beginner;
#METER:2;
#RADARVALUES:0.154218,0.269132,0.068541,0.000000,0.000000,126.000000,118.000000,8.000000,0.000000,0.000000,0.000000,0.000000,0.000000,0.000000,0.154218,0.269132,0.068541,0.000000,0.000000,126.000000,118.000000,8.000000,0.000000,0.000000,0.000000,0.000000,0.000000,0.000000;
#CREDIT:;
#NOTES:
// measure 0
0000
0000
0000
0000
,  // measure 1
0000
0000
0000
0000
,  // measure 2
0000
0000
0000
0000
,  // measure 3
0000
0000
0000
0000
,  // measure 4
0000
0000
0000
0000
,  // measure 5
1000
0000
0000
0000
,  // measure 6
1000
0000
0000
0000
,  // measure 7
1000
0000
0000
0000
,  // measure 8
0001
0000
1000
0000
,  // measure 9
0110
0000
0000
0000
,  // measure 10
0000
0000
0000
0000
,  // measure 11
0000
0000
0000
0000
,  // measure 12
0000
0000
0000
0000
,  // measure 13
0000
0000
0000
0000
,  // measure 14
0000
0000
0000
0000
,  // measure 15
0000
0000
0000
0000
,  // measure 16
0000
0000
0000
0000
,  // measure 17
1000
0000
0000
0000
,  // measure 18
0001
0001
0001
0000
,  // measure 19
0100
0000
0000
0000
,  // measure 20
0010
0010
0010
0000
,  // measure 21
1000
0000
0000
0000
,  // measure 22
0100
0100
0100
0000
,  // measure 23
0010
0000
0000
0000
,  // measure 24
0001
0000
1000
0000
,  // measure 25
0010
0000
0000
0000
,  // measure 26
0100
0000
0000
0000
,  // measure 27
0001
0000
0000
0000
,  // measure 28
1000
0000
0001
0000
,  // measure 29
1000
0000
0000
0000
,  // measure 30
0010
0000
0000
0000
,  // measure 31
0100
0000
0000
0010
,  // measure 32
0000
0000
1000
1000
,  // measure 33
0001
0000
0000
0000
,  // measure 34
1000
0000
0000
0000
,  // measure 35
0010
0000
0000
0000
,  // measure 36
1000
0000
0010
0000
,  // measure 37
0100
0000
0000
0000
,  // measure 38
0001
0000
0000
0000
,  // measure 39
0010
0000
0000
0001
,  // measure 40
0000
0000
1000
1000
,  // measure 41
0000
0000
0000
0000
,  // measure 42
0010
0000
0000
0000
,  // measure 43
0100
0000
0000
0000
,  // measure 44
0000
0000
0001
0001
,  // measure 45
0001
0000
0000
0000
,  // measure 46
0000
0000
1000
0000
,  // measure 47
1000
0000
0000
0000
,  // measure 48
0010
0000
0000
0000
,  // measure 49
0000
0000
0000
0100
,  // measure 50
0100
0000
0000
0010
,  // measure 51
0010
0000
0000
0000
,  // measure 52
0000
0000
1000
1000
,  // measure 53
1000
0000
0000
0001
,  // measure 54
0001
0000
0100
0100
,  // measure 55
0010
0000
0000
0000
,  // measure 56
1000
0000
0000
0000
,  // measure 57
1001
0000
0000
0000
,  // measure 58
0110
0000
0000
0000
,  // measure 59
1001
0000
0000
0000
,  // measure 60
0110
0000
0000
0000
,  // measure 61
0110
0000
0100
0000
,  // measure 62
0100
0000
0100
0000
,  // measure 63
0010
0000
0010
0000
,  // measure 64
1000
1000
1000
1000
,  // measure 65
0001
0000
0000
0000
,  // measure 66
1000
0000
0000
0000
,  // measure 67
0010
0000
0000
0000
,  // measure 68
1000
0000
0000
0000
,  // measure 69
0100
0000
0010
0000
,  // measure 70
0001
0000
1000
1000
,  // measure 71
0001
0000
1000
0000
,  // measure 72
0010
0000
0100
0000
,  // measure 73
0001
0001
1000
0000
,  // measure 74
0001
0000
0100
0000
,  // measure 75
0001
0000
0010
0000
,  // measure 76
0001
0000
1000
0000
,  // measure 77
0100
0000
0000
0000
,  // measure 78
0100
0000
0000
0000
,  // measure 79
0010
0000
0010
0000
,  // measure 80
0001
0001
0001
0001
,  // measure 81
1000
0000
0000
0000
,  // measure 82
0001
0000
0000
0000
,  // measure 83
0100
0000
0000
0000
,  // measure 84
0010
0000
0000
0000
,  // measure 85
1000
0000
0000
0000
,  // measure 86
0100
0000
0000
0000
,  // measure 87
0010
0000
0000
0000
,  // measure 88
0001
0000
0000
0000
,  // measure 89
1001
0000
0000
0110
;
