#TITLE:Giant Otter Family;
#SUBTITLE:;
#ARTIST:S-C-U;
#TITLETRANSLIT:;
#SUBTITLETRANSLIT:;
#ARTISTTRANSLIT:;
#GENRE:Techno Pop;
#CREDIT:;
#BANNER:[Round 1] - Giant Otter Family.png;
#BACKGROUND:[Round 1] - Giant Otter Family-bg.png;
#LYRICSPATH:;
#CDTITLE:cdtitle.png;
#MUSIC:[Round 1] - Giant Otter Family.ogg;
#OFFSET:-0.079308;
#SAMPLESTART:9.972924;
#SAMPLELENGTH:10.212766;
#SELECTABLE:YES;
#BPMS:0.000000=188.000000
,128.000000=94.000000
,144.000000=188.000000
;
#STOPS:
;
#BGCHANGES:;
#KEYSOUNDS:;
#ATTACKS:;

//---------------dance-single - ----------------
#NOTES:
     dance-single:
     10-14:
     Challenge:
     10:
     0.749401,0.851702,0.533903,0.610175,0.427970,619.000000,556.000000,63.000000,72.000000,6.000000,0.000000,0.749401,0.851702,0.533903,0.610175,0.427970,619.000000,556.000000,63.000000,72.000000,6.000000,0.000000:
// measure 0
0000
0000
0000
0000
,  // measure 1
0000
0000
0000
0000
,  // measure 2
0000
0000
0000
0000
,  // measure 3
0000
0000
0000
0000
,  // measure 4
1100
0000
0010
0000
0101
0100
0010
1010
,  // measure 5
0000
0011
0010
0100
1000
0001
0100
0010
,  // measure 6
1000
0000
1000
0000
0001
0000
0001
0000
1000
0001
1000
0001
1000
0000
1001
0000
,  // measure 7
0000
0000
1001
0000
1001
0000
0000
0000
0000
0000
0000
0000
1000
0100
1000
0100
,  // measure 8
0020
0000
0031
2000
0000
3001
0100
0001
,  // measure 9
0020
0000
0031
2000
0000
3001
0100
0020
,  // measure 10
0000
0000
1030
0000
0001
0000
0010
0001
0010
0000
0100
1000
0001
1000
0001
1000
,  // measure 11
0001
0000
0000
0100
0000
0000
0020
0000
0000
0000
0130
0000
0001
1000
0001
1000
,  // measure 12
0100
0000
0000
0100
0000
0000
0200
0000
0000
0000
0310
0000
0002
0000
0000
0000
,  // measure 13
0203
2300
3020
0032
,  // measure 14
0103
0101
0000
0110
0000
1010
0000
2001
,  // measure 15
0000
0000
3001
0000
2002
0000
0000
0000
3003
0000
0000
0000
0001
0010
0001
0010
,  // measure 16
0200
0000
1300
0002
0000
1003
0010
1000
,  // measure 17
0200
0000
1300
0002
0000
0103
0010
2000
,  // measure 18
0000
0000
3001
0000
0010
0000
0100
1000
0100
0000
1000
0001
0100
0001
0100
0001
,  // measure 19
0100
0000
0000
0010
0000
0000
2000
0000
0000
0000
3100
0000
0010
0001
0010
0001
,  // measure 20
1000
0000
0000
1000
0000
0000
2000
0000
0000
0000
3001
0000
0010
0000
0000
0000
,  // measure 21
0011
1100
1010
0101
,  // measure 22
1000
0001
1000
0010
1000
0100
0M00
0001
,  // measure 23
1000
0000
0010
0000
1000
0000
0100
0000
0M00
0000
0001
0000
0001
0000
1000
0001
,  // measure 24
1000
0010
0100
0001
0010
0000
0001
0100
,  // measure 25
0000
0000
0100
0000
0010
0000
0000
0000
1000
0000
0001
1000
0001
0000
1000
0000
,  // measure 26
0000
0001
0010
1000
0010
0001
0000
1000
,  // measure 27
0010
0000
0001
0000
0010
0000
1000
0000
0000
0000
0010
0100
0010
0000
0100
0000
,  // measure 28
0000
0010
1000
0001
0010
0100
0000
0010
,  // measure 29
0001
0000
1000
0000
0010
0000
0100
0000
0000
0000
0001
1000
0001
0000
0010
0000
,  // measure 30
0000
0011
0011
0000
1100
1100
0000
1010
,  // measure 31
0000
0000
0101
0000
0001
0000
1000
0000
0100
0000
0010
0001
0010
0000
0100
0000
,  // measure 32
1000
0000
0010
0000
1000
0010
1000
0100
0000
0100
0010
0002
0000
0000
1003
0000
,  // measure 33
0001
0000
0010
0000
0001
0010
0001
0100
0000
0100
1000
0200
0000
0000
0301
0000
,  // measure 34
1000
0000
0100
0000
1000
0100
1000
0010
0000
0100
0000
0100
0000
0010
0100
0001
,  // measure 35
0020
0000
0000
0130
0000
1000
0000
0002
0000
0000
1000
0000
1000
0000
1003
0010
,  // measure 36
1010
0000
0101
0000
0001
0010
0100
0001
,  // measure 37
0000
0000
0001
0000
0100
0000
0020
0000
0001
0000
0000
0000
0130
0000
1000
0001
,  // measure 38
1000
0000
0000
1000
0100
0000
0010
0000
0001
0000
0000
0001
0100
0000
0010
0000
,  // measure 39
2000
0000
0000
0000
3010
0000
1000
0001
1000
0000
0100
0000
0010
0000
0001
0000
,  // measure 40
0100
0000
1010
0000
1000
0010
0100
1000
,  // measure 41
0000
0100
0000
0010
0000
0100
0001
1000
,  // measure 42
0100
0000
0100
0000
0010
0000
0010
0000
0001
0000
1000
0001
1000
0001
1000
0001
,  // measure 43
1000
0000
0001
0000
1001
0000
0000
0000
0000
0000
0000
0000
0001
0100
0001
0100
,  // measure 44
0020
0000
1030
0002
0000
1003
0100
1000
,  // measure 45
0020
0000
1030
0002
0000
1003
0100
0020
,  // measure 46
0000
0000
0031
0000
1000
0000
0010
1000
0010
0000
0100
0001
1000
0001
1000
0001
,  // measure 47
1000
0000
0000
0100
0000
0000
0020
0000
0000
0000
0130
0000
1000
0001
1000
0001
,  // measure 48
0100
0000
0000
0100
0000
0000
0200
0000
0000
0000
0310
0000
2000
0000
0000
0000
,  // measure 49
3200
0302
0023
2030
,  // measure 50
3100
1100
0000
0110
0000
0011
0000
1002
,  // measure 51
0000
0000
1003
0000
2002
0000
0000
0000
3003
0000
0000
0000
1000
0010
1000
0010
,  // measure 52
0200
0000
0301
2000
0000
3001
0010
0001
,  // measure 53
0200
0000
0301
2000
0000
3100
0010
0002
,  // measure 54
0000
0000
1003
0000
0010
0000
0100
0001
0100
0000
0001
1000
0100
1000
0100
1000
,  // measure 55
0100
0000
0000
0010
0000
0000
0002
0000
0000
0000
0103
0000
0010
1000
0010
1000
,  // measure 56
0001
0000
0000
0001
0000
0000
0002
0000
0000
0000
1003
0000
0010
0000
0000
0000
,  // measure 57
1010
0101
0011
1100
,  // measure 58
0001
1000
0001
0010
0001
0100
0M00
1000
,  // measure 59
0001
0000
0010
0000
0001
0000
0100
0000
0M00
0000
1000
0000
1000
0000
0100
1000
,  // measure 60
0001
0000
0101
0000
0001
0010
0100
1000
,  // measure 61
0000
0000
1000
0000
0010
0000
0001
0000
0010
0000
1000
0010
1000
0000
0100
0000
,  // measure 62
1000
0001
1000
0010
1000
0100
0M00
0001
,  // measure 63
1000
0010
1000
0100
0M00
0001
1000
0001
,  // measure 64
0011
0000
0100
0000
1010
1000
0001
0101
,  // measure 65
0000
0000
0001
0000
0010
0000
1000
0000
0010
0000
0001
0010
0001
0000
1000
0000
,  // measure 66
0010
0000
0010
0000
0100
0000
0100
0000
0010
0100
0010
0100
0010
0000
0110
0000
,  // measure 67
0000
0000
0110
0000
0110
0000
0000
0000
0000
0000
0000
0000
1000
0001
1000
0001
,  // measure 68
0020
0000
1030
0020
0000
0031
0010
0001
,  // measure 69
0200
0000
1300
0200
0000
1300
0100
0002
,  // measure 70
0000
0000
0013
0000
1000
0000
0010
0100
0010
0000
0001
1000
0010
0100
0010
0100
,  // measure 71
0010
0000
0000
0101
0000
0000
1002
0000
0000
0000
1003
0000
0001
0010
0001
0010
,  // measure 72
0100
0000
0000
1100
0000
0000
0120
0000
0000
0000
0031
0000
2000
0000
0000
0000
,  // measure 73
3020
0032
0203
2300
,  // measure 74
3010
1010
0000
1001
0000
0011
0000
2100
,  // measure 75
0000
0000
3010
0000
2002
0000
0000
0000
3003
0000
0000
0000
0001
1000
0001
1000
,  // measure 76
0020
0000
0031
0020
0000
1030
0010
1000
,  // measure 77
0200
0000
0301
0200
0000
0301
0100
2000
,  // measure 78
0000
0000
3010
0000
0001
0000
0010
0100
0010
0000
1000
0001
0010
0100
0010
0100
,  // measure 79
0010
0000
0000
1100
0000
0000
2001
0000
0000
0000
3001
0000
1000
0010
1000
0010
,  // measure 80
0100
0000
0000
0101
0000
0000
0120
0000
0000
0000
1030
0000
0001
1000
0001
1000
,  // measure 81
0001
0000
0000
0000
0011
0000
0000
0000
1100
0000
0000
0001
0000
0000
0100
0000
,  // measure 82
0001
1001
0000
1100
0000
1001
0000
0101
,  // measure 83
0000
0000
1001
0000
0000
0000
1100
0000
0000
0000
0001
0010
0001
0000
0000
0000
;

//---------------dance-single - ----------------
#NOTES:
     dance-single:
     9-12:
     Hard:
     9:
     0.590804,0.745239,0.296613,0.737294,0.122882,488.000000,453.000000,35.000000,87.000000,0.000000,0.000000,0.590804,0.745239,0.296613,0.737294,0.122882,488.000000,453.000000,35.000000,87.000000,0.000000,0.000000:
// measure 0
0000
0000
0000
0000
,  // measure 1
0000
0000
0000
0000
,  // measure 2
0000
0000
0000
0000
,  // measure 3
0000
0000
0000
0000
,  // measure 4
1001
0000
0010
0000
1001
0000
1000
0100
,  // measure 5
0000
0001
0100
0000
1000
0001
1000
0001
,  // measure 6
0200
0000
1000
0000
0010
0000
0301
0100
,  // measure 7
0000
0100
0100
0000
0000
0000
0010
1000
,  // measure 8
0002
0000
1003
0200
0000
0310
0001
0010
,  // measure 9
0002
0000
1003
0200
0000
0310
0001
2000
,  // measure 10
0000
3010
0100
0010
0100
0010
0100
0001
,  // measure 11
1000
0000
0000
1000
0000
0000
0200
0000
0000
0000
1300
0000
0100
0000
1000
0000
,  // measure 12
0001
0000
0000
0001
0000
0000
0200
0000
0000
0000
0310
0000
2000
0000
0000
0000
,  // measure 13
3002
0023
0230
2300
,  // measure 14
3001
0001
0000
0101
0000
0110
0000
2010
,  // measure 15
0000
0010
0020
0000
3030
0000
0010
1000
,  // measure 16
0002
0000
0013
0200
0000
1300
0001
1000
,  // measure 17
0002
0000
0013
0200
0000
1300
0001
0200
,  // measure 18
0000
0310
1000
0010
1000
0010
1000
0001
,  // measure 19
0010
0000
0000
0010
0000
0000
0200
0000
0000
0000
1300
0000
0001
0000
1000
0000
,  // measure 20
0010
0000
0000
0010
0000
0000
2000
0000
0000
0000
3100
0000
0020
0000
0000
0000
,  // measure 21
0032
0203
2300
3200
,  // measure 22
0301
0101
0000
1001
0000
1100
0000
1001
,  // measure 23
0000
0101
0000
1001
0000
0001
1000
0001
,  // measure 24
1000
0000
0100
1000
0100
0000
0010
0001
,  // measure 25
0000
0001
0100
0000
0010
1000
0000
1000
,  // measure 26
0000
0001
0010
0100
0010
0001
0000
1000
,  // measure 27
0010
0100
0010
1000
0000
0001
0010
0001
,  // measure 28
0000
0100
0001
0100
0001
1000
0000
0100
,  // measure 29
1000
0100
1000
0001
0000
1000
0001
1000
,  // measure 30
0000
0100
0100
0000
0100
0100
0000
0100
,  // measure 31
0000
0100
0100
0000
0010
0001
1000
0000
,  // measure 32
0001
0000
0001
0000
1000
0010
1000
0010
0000
0010
1000
0002
0000
0000
0000
0000
,  // measure 33
1003
0000
1000
0000
0001
0010
0001
0010
0000
0010
0001
0200
0000
0000
0000
0000
,  // measure 34
0301
0000
0100
0000
0010
1000
0010
1000
0000
0100
0000
0100
0000
0010
0001
1000
,  // measure 35
0020
0000
0000
0130
0000
0010
0000
2001
0000
0000
0001
0000
3001
0000
1000
0000
,  // measure 36
1100
0000
0011
0000
0001
0100
0010
1000
,  // measure 37
0000
0010
1000
0002
0000
1003
0100
1000
,  // measure 38
0100
0000
0010
0001
0100
0000
0010
1000
,  // measure 39
0200
0000
0310
0001
1000
0001
1000
0001
,  // measure 40
0100
0000
1010
0000
1000
0100
0010
0001
,  // measure 41
0000
0010
0000
0001
0000
1000
0010
1000
,  // measure 42
0200
0010
0010
0310
,  // measure 43
0100
0010
0100
0000
0000
0000
0010
0001
,  // measure 44
2000
0000
3001
0200
0000
0310
1000
0010
,  // measure 45
2000
0000
3001
0200
0000
0310
1000
0002
,  // measure 46
0000
0013
0100
0010
0100
0010
0100
1000
,  // measure 47
0001
0000
0000
0001
0000
0000
0200
0000
0000
0000
0301
0000
0100
0000
0001
0000
,  // measure 48
1000
0000
0000
1000
0000
0000
0200
0000
0000
0000
0310
0000
0002
0000
0000
0000
,  // measure 49
2003
3020
0230
0302
,  // measure 50
1003
1000
0000
1100
0000
0110
0000
0012
,  // measure 51
0000
0010
0020
0000
0033
0000
0010
0001
,  // measure 52
2000
0000
3010
0200
0000
0301
1000
0001
,  // measure 53
2000
0000
3010
0200
0000
0301
1000
0200
,  // measure 54
0000
0310
0001
0010
0001
0010
0001
1000
,  // measure 55
0010
0000
0000
0010
0000
0000
0200
0000
0000
0000
0301
0000
1000
0000
0001
0000
,  // measure 56
0010
0000
0000
0010
0000
0000
0002
0000
0000
0000
0103
0000
0020
0000
0000
0000
,  // measure 57
2030
3200
0302
0203
,  // measure 58
1300
1100
0000
1001
0000
0101
0000
1001
,  // measure 59
0000
1100
0000
1001
0000
1000
0001
1000
,  // measure 60
0001
0000
0100
0000
0010
1000
0010
1000
,  // measure 61
0000
0001
0010
0001
0010
0100
1000
0001
,  // measure 62
0000
1000
0010
1000
0010
1000
0000
0001
,  // measure 63
0010
0001
0010
0001
0000
1000
0100
0000
,  // measure 64
1001
0000
0010
0000
1001
0000
0001
0100
,  // measure 65
0000
1000
0100
0000
0001
1000
0001
1000
,  // measure 66
0200
0000
0001
0000
0010
0000
1300
0100
,  // measure 67
0000
0100
0100
0000
0000
0000
1000
0100
,  // measure 68
0020
0000
0031
0200
0000
0310
1000
0100
,  // measure 69
0020
0000
0031
0200
0000
0310
1000
0002
,  // measure 70
0000
1003
0100
1000
0100
1000
0100
0010
,  // measure 71
0001
0000
0000
0100
0000
0000
2000
0000
0000
0000
3100
0000
0010
0000
0100
0000
,  // measure 72
0001
0000
0000
1000
0000
0000
0200
0000
0000
0000
0310
0000
0002
0000
0000
0000
,  // measure 73
2003
3020
0032
0023
,  // measure 74
1030
1000
0000
0101
0000
1001
0000
1200
,  // measure 75
0000
0010
0020
0000
0330
0000
0001
0100
,  // measure 76
0020
0000
1030
0200
0000
0310
0001
0100
,  // measure 77
0020
0000
1030
0200
0000
0310
0001
2000
,  // measure 78
0000
3001
0100
0001
0100
0001
0100
0010
,  // measure 79
1000
0000
0000
0100
0000
0000
0002
0000
0000
0000
0103
0000
0010
0000
0100
0000
,  // measure 80
1000
0000
0000
0001
0000
0000
0200
0000
0000
0000
0310
0000
2000
0000
0000
0000
,  // measure 81
3002
0023
2030
3200
,  // measure 82
0301
0101
0000
1001
0000
1100
0000
1001
,  // measure 83
0000
0101
0000
1001
0000
0100
0010
0000
;

//---------------dance-single - ----------------
#NOTES:
     dance-single:
     6-8:
     Medium:
     6:
     0.438260,0.532314,0.101696,0.762718,0.050848,362.000000,350.000000,12.000000,90.000000,0.000000,0.000000,0.438260,0.532314,0.101696,0.762718,0.050848,362.000000,350.000000,12.000000,90.000000,0.000000,0.000000:
// measure 0
0000
0000
0000
0000
,  // measure 1
0000
0000
0000
0000
,  // measure 2
0000
0000
0000
0000
,  // measure 3
0000
0000
0000
0000
,  // measure 4
1000
0000
0010
0000
0001
0000
0010
1000
,  // measure 5
0000
0010
1000
0000
0100
0000
0010
0000
,  // measure 6
0002
0000
0100
0000
0100
0000
0103
0001
,  // measure 7
0000
1000
0100
0000
0000
0000
0100
0000
,  // measure 8
0020
0000
0031
2000
0000
3001
0100
0000
,  // measure 9
0020
0000
1030
0002
0000
1003
0100
0020
,  // measure 10
0000
0031
0100
0000
0010
0000
1000
0000
,  // measure 11
0001
0000
1000
0200
0000
1300
0100
0000
,  // measure 12
0010
0000
0001
0200
0000
0310
2000
0000
,  // measure 13
3002
0023
0032
2003
,  // measure 14
3100
0000
0000
0110
0000
0110
0000
2002
,  // measure 15
0000
0000
3003
1000
,  // measure 16
0020
0000
1030
0200
0000
1300
0001
0000
,  // measure 17
0020
0000
0031
2000
0000
3001
0100
0020
,  // measure 18
0000
1030
0001
0000
1000
0000
0100
0000
,  // measure 19
0010
0000
0001
0200
0000
0301
0100
0000
,  // measure 20
0010
0000
1000
0200
0000
0310
0002
0000
,  // measure 21
2003
3020
0230
0302
,  // measure 22
1003
0000
0000
1000
0000
0100
0000
1000
,  // measure 23
0000
0001
0000
0200
0000
0000
0300
0000
,  // measure 24
0001
0001
0010
0010
,  // measure 25
0100
0100
1000
1000
,  // measure 26
0010
0001
0010
1000
,  // measure 27
0001
0010
1000
0010
,  // measure 28
0001
0001
0100
0100
,  // measure 29
0010
0010
1000
1000
,  // measure 30
0000
0001
1000
0000
0001
1000
0000
1001
,  // measure 31
0000
1000
0001
0000
1000
0000
0100
0000
,  // measure 32
0010
0000
0010
0000
0010
0000
0000
0001
0000
0001
0000
2000
0000
0000
0000
0000
,  // measure 33
3010
0000
0010
0000
0010
0000
0000
1000
0000
1000
0000
0200
0000
0000
0000
0000
,  // measure 34
1300
0000
1000
0000
1000
0000
0000
0001
0000
0001
0000
0001
0000
0000
0100
0000
,  // measure 35
0020
0000
0000
0130
0000
0010
0000
2002
0000
0000
0000
0000
3003
0000
0000
0000
,  // measure 36
0001
0000
0100
0000
1000
0000
0100
0010
,  // measure 37
0000
0100
0001
2000
0000
0000
3100
0000
,  // measure 38
0010
0010
0001
0001
,  // measure 39
2000
0000
0000
3001
0100
0000
0010
0000
,  // measure 40
1000
0000
0100
0000
0001
0000
0100
0010
,  // measure 41
0000
0100
0000
0010
0000
0100
1000
0000
,  // measure 42
0020
0100
0100
0130
,  // measure 43
0010
0100
0010
0000
0000
0000
0100
0000
,  // measure 44
0020
0000
1030
0002
0000
1003
0100
0000
,  // measure 45
0020
0000
0031
2000
0000
3001
0100
0020
,  // measure 46
0000
1030
0100
0000
0010
0000
0001
0000
,  // measure 47
1000
0000
0001
0200
0000
0301
0100
0000
,  // measure 48
0010
0000
1000
0200
0000
0310
0002
0000
,  // measure 49
2003
3020
2030
3002
,  // measure 50
0103
0000
0000
0110
0000
0110
0000
2002
,  // measure 51
0000
0000
3003
0001
,  // measure 52
0020
0000
0031
0200
0000
0301
1000
0000
,  // measure 53
0020
0000
1030
0002
0000
1003
0100
0020
,  // measure 54
0000
0031
1000
0000
0001
0000
0100
0000
,  // measure 55
0010
0000
1000
0200
0000
1300
0100
0000
,  // measure 56
0010
0000
0001
0200
0000
0310
2000
0000
,  // measure 57
3002
0023
0230
2300
,  // measure 58
3001
0000
0000
0001
0000
0100
0000
0001
,  // measure 59
0000
1000
0000
0200
0000
0000
0300
0000
,  // measure 60
1000
0000
0010
0000
1000
0000
0001
0010
,  // measure 61
0000
0010
0001
0000
0100
0001
0100
0000
,  // measure 62
0001
0001
1000
1000
,  // measure 63
0001
0001
1000
1000
,  // measure 64
0001
0000
0010
0000
1000
0000
0010
0001
,  // measure 65
0000
0010
0001
0000
0100
0000
0010
0000
,  // measure 66
2000
0000
0100
0000
0100
0000
3100
1000
,  // measure 67
0000
0001
0100
0000
0000
0000
0010
0000
,  // measure 68
2000
0000
3100
0020
0000
0130
1000
0000
,  // measure 69
0002
0000
0103
0020
0000
1030
0001
0020
,  // measure 70
0000
0031
0100
0000
1000
0000
0100
0000
,  // measure 71
0001
0000
1000
0200
0000
0310
0001
0000
,  // measure 72
1000
0000
0010
0200
0000
0301
0020
0000
,  // measure 73
2030
3020
0032
2003
,  // measure 74
3001
0000
0000
0101
0000
1001
0000
2200
,  // measure 75
0000
0000
3300
0010
,  // measure 76
0002
0000
0103
0020
0000
0130
0001
0000
,  // measure 77
2000
0000
3100
0020
0000
0031
1000
0020
,  // measure 78
0000
1030
0100
0000
0001
0000
0100
0000
,  // measure 79
1000
0000
0001
0200
0000
0310
1000
0000
,  // measure 80
0001
0000
0010
0200
0000
1300
0020
0000
,  // measure 81
0032
0023
2030
3002
,  // measure 82
1003
0000
0000
0010
0000
1000
0000
0001
,  // measure 83
0000
1000
0000
0100
0000
0000
0011
0000
;

//---------------dance-single - ----------------
#NOTES:
     dance-single:
     4-6:
     Easy:
     4:
     0.308719,0.425851,0.101696,0.330511,0.000000,255.000000,243.000000,12.000000,39.000000,0.000000,0.000000,0.308719,0.425851,0.101696,0.330511,0.000000,255.000000,243.000000,12.000000,39.000000,0.000000,0.000000:
// measure 0
0000
0000
0000
0000
,  // measure 1
0000
0000
0000
0000
,  // measure 2
0000
0000
0000
0000
,  // measure 3
0000
0000
0000
0000
,  // measure 4
1001
0000
0110
0000
,  // measure 5
0001
0010
1000
0010
,  // measure 6
0002
0000
1000
0000
1003
0000
0000
1001
,  // measure 7
0000
1001
0000
0000
,  // measure 8
1000
0010
2000
3000
,  // measure 9
0001
0010
0002
0003
,  // measure 10
1000
1000
0010
0010
,  // measure 11
0100
0001
2000
3000
,  // measure 12
0100
0100
0200
0300
,  // measure 13
0010
0001
1000
0010
,  // measure 14
0200
0000
0000
0010
0000
0010
0000
0020
,  // measure 15
0000
0000
0330
0000
,  // measure 16
0001
0100
0002
0003
,  // measure 17
1000
0100
2000
3000
,  // measure 18
0001
0001
0100
0100
,  // measure 19
0010
1000
0002
0003
,  // measure 20
1000
1000
2000
3000
,  // measure 21
0100
0010
0001
1000
,  // measure 22
0002
0000
0000
0200
0000
0000
0000
0000
,  // measure 23
0000
0000
0303
0000
,  // measure 24
1000
1000
0100
0000
,  // measure 25
0001
0001
0100
0000
,  // measure 26
1000
0010
0001
0000
,  // measure 27
0001
0010
1000
0000
,  // measure 28
0001
0001
0100
0000
,  // measure 29
1000
1000
0100
0001
,  // measure 30
0000
1001
1001
0000
,  // measure 31
1000
0100
0010
0001
,  // measure 32
1000
0000
1000
0000
0010
1000
0100
0000
,  // measure 33
0001
0000
0001
0000
0010
0001
0100
0000
,  // measure 34
1000
0000
1000
0000
0001
0100
0010
1000
,  // measure 35
0002
0013
0200
0300
,  // measure 36
0010
0001
1000
0000
,  // measure 37
1000
0001
0100
0000
,  // measure 38
0010
0010
1000
1000
,  // measure 39
0001
0000
1000
1000
,  // measure 40
0010
1000
0001
0000
,  // measure 41
0001
1000
0100
0000
,  // measure 42
0200
0010
0010
0310
,  // measure 43
1001
0000
0000
0000
,  // measure 44
0001
0010
0002
0003
,  // measure 45
1000
0010
2000
3000
,  // measure 46
0001
0001
0010
0010
,  // measure 47
0100
1000
0002
0003
,  // measure 48
0100
0100
0200
0300
,  // measure 49
0010
1000
0001
0010
,  // measure 50
0200
0000
0000
0010
0000
0010
0000
0020
,  // measure 51
0000
0000
0330
0000
,  // measure 52
1000
0100
2000
3000
,  // measure 53
0001
0100
0002
0003
,  // measure 54
1000
1000
0100
0100
,  // measure 55
0010
0001
2000
3000
,  // measure 56
0001
0001
0002
0003
,  // measure 57
0100
0010
1000
0001
,  // measure 58
2000
0000
0000
0200
0000
0000
0000
0000
,  // measure 59
0000
0000
3300
0000
,  // measure 60
1000
0000
0010
0000
,  // measure 61
1000
0100
0010
0001
,  // measure 62
0000
0100
0100
0000
,  // measure 63
0100
0100
0000
0100
,  // measure 64
1001
0000
0110
0000
,  // measure 65
1000
0010
0001
0010
,  // measure 66
2000
0000
0001
0000
3001
0000
0000
1001
,  // measure 67
0000
1001
0000
0000
,  // measure 68
0001
0010
0200
0300
,  // measure 69
1000
0010
0200
0300
,  // measure 70
0001
0001
0010
0010
,  // measure 71
0001
0100
2000
3000
,  // measure 72
1000
0100
0002
0003
,  // measure 73
1000
0100
0010
0001
,  // measure 74
0200
0000
0000
0010
0000
0010
0000
0020
,  // measure 75
0000
0000
0330
0000
,  // measure 76
1000
0010
0200
0300
,  // measure 77
0001
0010
0200
0300
,  // measure 78
1000
1000
0010
0010
,  // measure 79
1000
0100
0002
0003
,  // measure 80
0100
0000
0200
0300
,  // measure 81
0010
0001
1000
0010
,  // measure 82
0100
0000
0000
0100
0000
0100
0000
0100
,  // measure 83
0000
0100
0000
0100
0000
0000
1001
0000
;

//---------------dance-single - ----------------
#NOTES:
     dance-single:
     2-3:
     Beginner:
     2:
     0.176757,0.212926,0.016949,0.135594,0.000000,146.000000,144.000000,2.000000,16.000000,0.000000,0.000000,0.176757,0.212926,0.016949,0.135594,0.000000,146.000000,144.000000,2.000000,16.000000,0.000000,0.000000:
// measure 0
0000
0000
0000
0000
,  // measure 1
0000
0000
0000
0000
,  // measure 2
0000
0000
0000
0000
,  // measure 3
0000
0000
0000
0000
,  // measure 4
1000
0000
1000
0000
,  // measure 5
0001
0000
0001
0000
,  // measure 6
0020
0000
0000
0000
0000
0000
0000
0030
,  // measure 7
0000
0000
0000
0000
,  // measure 8
0001
0000
0001
0000
,  // measure 9
1000
0000
1000
0000
,  // measure 10
0010
0000
0100
0000
,  // measure 11
0010
0010
0010
0000
,  // measure 12
1000
0000
1000
0000
,  // measure 13
0100
0000
0010
0000
,  // measure 14
0002
0000
0003
0000
,  // measure 15
2000
0000
3000
0000
,  // measure 16
0001
0000
0001
0000
,  // measure 17
1000
0000
1000
0000
,  // measure 18
0100
0000
0010
0000
,  // measure 19
0100
0100
0100
0000
,  // measure 20
1000
0000
0010
0000
,  // measure 21
0100
0000
0001
0000
,  // measure 22
2000
0000
0000
0000
,  // measure 23
0000
0000
3000
0000
,  // measure 24
0001
0000
0001
0000
,  // measure 25
0001
0000
0001
0000
,  // measure 26
0010
0000
0100
0000
,  // measure 27
0010
0000
0100
0000
,  // measure 28
1000
0000
1000
0000
,  // measure 29
1000
0000
1000
0000
,  // measure 30
0010
0000
0010
0000
,  // measure 31
0100
0000
0100
0000
,  // measure 32
0001
0000
0001
0000
,  // measure 33
1000
0000
1000
0000
,  // measure 34
0001
0000
1000
0000
,  // measure 35
0200
0300
0020
0030
,  // measure 36
0001
0000
0001
0000
,  // measure 37
0100
0100
0100
0000
,  // measure 38
0001
0000
0010
0000
,  // measure 39
0002
0000
0003
0000
,  // measure 40
1000
0000
1000
0000
,  // measure 41
0010
0010
0010
0000
,  // measure 42
0200
0000
0300
0000
,  // measure 43
1001
0000
0000
0000
,  // measure 44
1000
0000
1000
0000
,  // measure 45
0001
0000
0001
0000
,  // measure 46
0010
0000
0100
0000
,  // measure 47
0010
0010
0010
0000
,  // measure 48
0001
0000
0001
0000
,  // measure 49
0100
0000
0010
0000
,  // measure 50
2000
0000
3000
0000
,  // measure 51
0002
0000
0003
0000
,  // measure 52
1000
0000
1000
0000
,  // measure 53
0001
0000
0001
0000
,  // measure 54
0100
0000
0010
0000
,  // measure 55
0100
0100
0100
0000
,  // measure 56
0001
0000
0010
0000
,  // measure 57
0100
0000
1000
0000
,  // measure 58
0002
0000
0000
0000
,  // measure 59
0000
0000
0003
0000
,  // measure 60
0001
0000
0001
0000
,  // measure 61
0010
0000
0010
0000
,  // measure 62
0100
0000
0100
0000
,  // measure 63
1000
0000
1000
0000
,  // measure 64
0001
0000
0001
0000
,  // measure 65
1000
0000
1000
0000
,  // measure 66
0020
0000
0000
0000
0000
0000
0000
0030
,  // measure 67
0000
0000
0000
0000
,  // measure 68
1000
0000
1000
0000
,  // measure 69
0010
0000
0010
0000
,  // measure 70
0001
0000
0010
0000
,  // measure 71
1000
1000
1000
0000
,  // measure 72
0100
0000
0100
0000
,  // measure 73
0010
0000
0001
0000
,  // measure 74
2000
0000
3000
0000
,  // measure 75
0002
0000
0003
0000
,  // measure 76
0001
0000
0001
0000
,  // measure 77
0010
0000
0010
0000
,  // measure 78
1000
0000
0010
0000
,  // measure 79
0001
0001
0001
0000
,  // measure 80
0200
0000
0300
0000
,  // measure 81
0010
0000
1000
0000
,  // measure 82
0002
0000
0000
0000
,  // measure 83
0003
0000
0000
1001
;
