#TITLE:DReamWorKer;
#SUBTITLE:;
#ARTIST:LC\:AZE;
#TITLETRANSLIT:;
#SUBTITLETRANSLIT:;
#ARTISTTRANSLIT:;
#GENRE:;
#CREDIT:;
#BANNER:[Round 1] - DReamWorKer.png;
#BACKGROUND:[Round 1] - DReamWorKer-bg.png;
#JACKET:[Round 1] - DReamWorKer-jkt.png;
#LYRICSPATH:;
#CDTITLE:;
#MUSIC:[Round 1] - DReamWorKer.mp3;
#OFFSET:-0.483001;
#SAMPLESTART:79.919785;
#SAMPLELENGTH:12.000000;
#SELECTABLE:YES;
#BPMS:0.000000=175.000000
;
#STOPS:190.500000=0.343000
;
#BGCHANGES:;
#KEYSOUNDS:;
#ATTACKS:;

//---------------dance-single - ----------------
#NOTES:
     dance-single:
     :
     Challenge:
     10:
     0.743110,1.006997,0.423195,1.093253,0.533402,590.000000,542.000000,48.000000,124.000000,0.000000,0.000000,0.743110,1.006997,0.423195,1.093253,0.533402,590.000000,542.000000,48.000000,124.000000,0.000000,0.000000:
0000
0000
0000
0000
,
0000
0000
0000
0000
,
0000
0000
0000
0000
,
0000
0000
0000
0000
,
1000
0000
0020
0001
,
0230
0000
0000
0001
0302
0000
0100
0000
,
0023
0000
0000
1000
2030
0000
0100
0000
,
3020
0000
0000
0001
0032
0100
0100
0010
,
0013
0100
2000
0100
,
3002
0100
0023
0001
,
0230
1000
0302
0010
,
0203
0010
2300
0001
,
3001
0100
0010
1000
0200
0010
0010
0310
,
0002
1000
1000
1003
0020
0100
0100
0130
,
0001
0010
0001
0010
0100
1000
0100
1000
0001
0010
0100
0010
0100
1000
0010
0100
,
0010
0100
0001
1000
0100
0010
0100
1000
0010
0100
0000
0000
,
1010
0000
0100
0000
0020
0100
0100
0000
,
2030
0000
0010
0000
3002
0100
0100
0000
,
0023
0000
1000
0000
0230
0001
0001
0000
,
2300
0001
0001
0010
3020
0001
0001
0000
,
0130
0000
0010
0000
2000
0100
0100
0000
,
3002
0000
1000
0000
0023
0001
0001
0000
,
0230
0000
0000
0000
0001
0000
0000
0000
2300
0000
0000
0001
0000
0000
0010
0000
,
3020
0000
1000
0000
1000
0000
0100
0000
0230
0010
0000
0000
0001
0000
0001
0000
,
0310
0100
0010
0001
0020
0001
0001
0000
,
0230
0000
1000
0000
0320
1000
1000
0000
,
0032
0000
1000
0000
0203
0010
0010
0000
,
0320
0001
0001
1000
2030
0100
0100
0000
,
3010
0100
0001
0010
0200
0001
0001
0000
,
0320
0000
1000
0000
0230
0001
0001
0300
,
0011
1010
1100
0101
,
0011
0000
0010
0000
0110
0000
0100
0000
1100
0000
1000
0000
0001
0100
0010
2000
,
0200
0000
0000
0000
0000
0000
0000
0000
0000
3300
0000
0000
0010
0000
0001
0000
0100
0000
0010
0000
1000
0000
0200
0000
,
0020
0000
0000
0000
0330
0000
0022
0000
0033
0000
0001
0100
0010
0000
0100
0000
,
2020
0000
0000
3030
0001
0100
0001
0010
,
0220
0330
0000
2200
3300
0000
1002
0000
0020
0000
0030
0000
0013
0000
0000
0000
,
2002
0000
0000
0000
3003
0000
0001
0000
0010
0000
0000
0100
0000
0000
2020
0000
,
0000
0000
0000
3030
0000
0000
0022
0000
0000
0033
0000
0000
0001
0000
0100
0000
0010
0000
0100
0000
1000
0000
0200
0000
,
0020
0000
0000
0000
0000
0000
0330
0000
0001
0010
0100
0010
0100
1000
0100
0020
,
0200
0330
0000
2020
3030
0000
2200
3300
1000
0000
0001
0010
0000
0000
0100
0000
,
2020
0000
3030
2002
3003
0001
0010
0001
,
2100
0010
3000
0201
0010
0300
2002
3003
,
0120
0000
0130
0000
0010
0100
0001
0000
0010
0000
0100
1000
0010
0100
0001
0010
,
0100
0010
0001
0000
2001
0000
0000
0000
0020
0030
0000
0020
0030
0000
3010
0000
,
0101
0000
0001
0010
0001
0000
0100
0000
0001
0000
0100
0001
0010
0000
0022
0000
,
0000
0033
2002
3003
1000
0010
0001
0010
,
1020
0000
0130
0000
0010
0000
1000
0000
0010
0000
0000
0100
0000
0000
0010
0000
,
0011
0000
1010
0000
1001
0000
0101
0000
0000
2020
0000
0000
,
3030
0202
0303
0220
,
0330
2200
3300
2002
,
0003
0010
3000
0220
,
0300
0001
0030
0102
,
1000
0100
0013
1200
,
0001
0000
0010
0000
1300
0000
0110
0100
,
0001
0000
1000
0000
0100
0010
0100
0010
0100
1000
0010
0100
0002
0000
0000
0000
,
0000
0000
0000
0000
0000
0000
0000
0000
0000
1003
0010
0100
,
0001
0010
0001
1000
0100
0001
0100
1000
0010
1000
0100
0001
,
1000
0000
0010
0000
0001
0000
1000
0000
0100
0000
0100
0000
0001
0000
0010
0000
0010
0000
1000
0000
0000
0010
0000
0000
,
0100
0000
0001
0000
0020
0000
0000
0031
0100
0000
0010
0000
1000
0000
0100
0000
,
0010
0000
0100
0000
2000
0000
0000
3010
0100
0000
0001
0000
0010
0000
0100
0000
,
1000
0000
0000
0000
0000
0000
0100
0000
0000
0000
0000
0000
0020
0000
0000
0000
0000
0000
0000
0000
0000
0130
0000
0000
1000
0000
0000
0000
0000
0000
0010
0000
0000
0000
0000
0000
0200
0000
0000
0000
0000
0000
0000
0000
0300
0001
0000
0000
,
0010
0000
0001
0000
1000
0010
1000
0010
0100
0001
0010
0100
0010
0000
0001
0000
,
1000
0000
0100
0000
0020
0000
0000
0031
0010
0000
0100
0000
0010
0000
0001
0000
,
0100
0000
0010
0000
2000
0000
0000
3100
1000
0000
0001
0000
0100
0000
0010
0000
,
0100
0000
0001
0000
0020
0000
0000
0130
0010
0000
0001
0000
0200
0000
0000
0310
,
1000
0000
0000
0100
0000
0000
0010
0000
1000
0000
0010
0000
0001
0000
0100
0000
0010
0000
1000
0000
0000
0001
0000
0000
,
1000
0000
0100
0000
0010
0000
0001
1000
0100
0000
1000
0000
0010
0000
0100
0000
,
0001
0000
0010
0000
0100
0000
0010
0001
0100
0000
0010
0000
1000
0000
0100
0000
,
0010
0000
0001
0000
1000
0000
0010
0100
0010
0000
1000
0000
0001
0000
0100
0010
,
1000
0000
0100
0000
0010
0001
0010
0100
0010
0001
0100
0010
0100
0000
0010
0000
,
1000
0000
0100
0000
0010
0000
0001
0010
0100
0000
0010
0000
0001
0000
0100
0000
,
0010
0000
0100
0000
0001
0000
1000
0100
0010
0000
0100
0000
0010
0000
0001
0000
,
0100
0000
0010
0000
1000
0000
0100
1000
0001
0000
0100
0000
0010
0000
1000
0100
,
0010
0000
0000
0000
0000
0000
0001
0000
0000
0000
0000
0000
1000
0000
0000
0000
0100
0000
0000
0000
0001
0000
0000
0000
1000
0000
0000
0000
0010
0000
0000
0000
0001
0000
0000
0000
0200
0000
0000
0000
0000
0000
0000
0000
0000
0310
0000
0000
,
1000
0000
0001
0000
0002
0000
0000
1003
0100
0000
0010
0000
0020
0000
0000
0130
,
0010
0000
0001
0000
0002
0000
0000
2003
0000
0000
3200
0000
0320
0000
0000
0130
,
1000
0000
0001
0000
0002
0000
0000
0013
0100
0000
1000
0000
2000
0000
0000
3100
,
0010
0000
0000
0000
0000
0000
0001
0000
0000
0000
0000
0000
0100
0000
0000
0000
1000
0000
0000
0000
0100
0000
0000
0000
0001
0000
0000
0000
0010
0000
0000
0000
0100
0000
0000
0000
0020
0000
0000
0000
0000
0000
0000
0000
0000
0031
0000
0000
,
0010
0000
1000
0000
2000
0000
0000
3010
0001
0000
0100
0000
0200
0000
0000
0310
,
1000
0000
0100
0000
0200
0000
0000
0310
0001
0100
0010
1000
0200
0000
0000
1300
,
0100
0000
0000
0000
0000
0000
0010
0000
0000
0000
0000
0000
0020
0000
0000
0000
0000
0000
0000
0000
0000
0031
0000
0000
0100
0000
0000
0000
0000
0000
0010
0000
0000
0000
0000
0000
0110
0000
0000
0000
0000
0000
0000
0000
0101
0000
0000
0000
,
0000
1100
0000
0011
0000
1001
0000
0101
0000
0000
0000
0000
;

//---------------dance-single - ----------------
#NOTES:
     dance-single:
     :
     Hard:
     8:
     0.657463,0.899105,0.352662,0.934555,0.427603,522.000000,482.000000,40.000000,106.000000,0.000000,0.000000,0.657463,0.899105,0.352662,0.934555,0.427603,522.000000,482.000000,40.000000,106.000000,0.000000,0.000000:
0000
0000
0000
0000
,
0000
0000
0000
0000
,
0000
0000
0000
0000
,
0000
0000
0000
0000
,
1000
0000
0020
0000
,
0200
0030
2000
0300
,
0200
3000
0002
0300
,
0020
0003
0200
0030
,
0310
0001
0200
1000
,
0320
0001
2030
0010
,
3200
0001
2300
0010
,
3002
0010
0203
1000
,
0310
1000
0100
0010
0001
0100
0010
1000
,
0001
0010
0100
1000
0001
0100
0001
0010
,
0001
0000
0010
0000
1000
0000
0010
0000
0001
0000
0100
0000
0001
1000
0001
1000
,
0001
0010
0001
0010
0100
0010
0100
1000
0100
1000
0000
0000
,
1001
0000
0001
0000
0200
0001
0001
0000
,
0320
0000
0100
0000
2030
0001
0001
0000
,
3200
0000
1000
0000
0320
0001
0001
0000
,
0230
0000
0010
0000
2300
0001
0001
0000
,
3010
0000
0100
0000
0002
0100
0100
0000
,
0023
0000
1000
0000
0032
0100
0100
0000
,
0203
0000
0001
0000
0320
1000
1000
0000
,
2030
0000
0010
0000
3200
0001
0001
0000
,
1300
0000
0010
0000
0200
0001
0001
0000
,
0320
0000
0100
0000
2030
0100
0100
0000
,
3002
0000
1000
0000
0023
0100
0100
0000
,
0032
0000
0010
0000
0203
1000
1000
0000
,
0310
0000
1000
0000
0020
1000
1000
0000
,
0230
0000
0010
0000
0302
0010
0013
0000
,
1100
0011
0101
1010
,
1001
0000
1000
0000
1001
0000
0001
0000
1001
0000
1000
0000
0001
1000
0001
2000
,
0002
0000
0000
3003
0000
0000
0010
0100
0010
1000
0100
2000
,
0020
3030
0000
0120
0000
1030
0010
0100
,
0202
0000
0303
0000
0001
0010
0100
0010
,
0011
0000
0000
0110
0000
0000
2100
0000
0200
0000
0300
0000
3100
0000
0000
0000
,
0202
0000
0000
0000
0303
0000
0001
0000
0010
0000
0000
0100
0000
0000
0220
0000
,
0330
0000
0000
0101
0000
0000
0001
1000
0001
1000
0100
2000
,
0020
0000
0000
0000
3030
0000
0000
0000
0010
0000
0100
0000
0001
0100
0001
0200
,
0301
0000
0000
1010
0000
0000
0110
0000
0010
0000
0100
0010
0000
0000
1000
0000
,
2020
3030
0000
0201
0300
0001
0010
0100
,
0220
0330
0000
2200
3300
0000
1010
0000
,
1001
0000
0001
0000
1000
0100
1000
0000
0010
0000
0100
0001
0100
0000
0220
0000
,
0330
0000
0000
0000
2001
0000
0000
0000
0100
0000
0000
0100
0000
0000
3100
0000
,
0110
0000
0010
0000
1000
0000
0001
0000
0000
0000
0010
0100
0010
0000
0220
0000
,
0330
0000
1001
0000
1000
0010
0100
0001
,
0021
0000
0000
0000
0031
0000
1000
0000
0100
0000
0000
1000
0000
0000
0010
0000
,
1010
0000
1001
0000
0101
0000
0110
0000
0000
0200
0000
0000
,
0000
0320
0000
0230
,
0000
0302
0000
2003
,
0000
0010
0000
3200
,
0000
0001
0000
0320
,
0001
0100
1000
0032
,
1000
0000
0100
0000
0010
0000
1003
0010
,
0100
0000
0001
0000
1000
0001
1000
0001
1000
0001
1000
0001
0020
0000
0000
0000
,
0000
0000
0000
0000
0000
0000
0000
0000
0000
0130
0010
0100
,
0010
0100
0010
0001
0100
0001
1000
0010
1000
0001
0010
0100
,
1000
0000
0100
0000
0010
0000
0001
0000
1000
0000
0100
0000
0001
0000
0100
0000
1000
0000
0010
0000
0000
0100
0000
0000
,
0001
0000
0010
0000
0200
0000
0000
1300
0100
0000
0010
0000
0001
0000
1000
0000
,
0010
0000
0100
0000
0002
0000
0000
0013
0001
0000
0100
0000
0010
0000
1000
0000
,
0100
0000
0010
0000
0200
0000
0000
1300
0010
0000
0100
0000
0002
0000
0000
0013
,
0001
0100
0010
0000
1000
0000
0100
0010
,
0001
0000
1000
0000
0200
0000
0000
1300
0100
0000
0010
0000
0001
0000
0010
0000
,
0100
0000
0010
0000
0002
0000
0000
0103
0010
0000
1000
0000
0100
0000
1000
0000
,
0001
0000
0100
0000
0020
0000
0000
0130
0001
0000
0010
0000
0200
0000
0000
0310
,
0001
0000
0000
0100
0000
0000
0010
0000
0100
0000
0010
0000
1000
0000
0100
0000
0010
0000
0001
0000
0000
0100
0000
0000
,
0010
0000
1000
0000
0200
0000
0000
0310
1000
0000
0010
0000
0001
0000
0100
0000
,
0010
0000
1000
0000
0200
0000
0000
1300
0001
0000
0100
0000
0010
0000
0100
0000
,
1000
0000
0100
0000
0002
0000
0000
0013
0100
0000
0010
0000
0002
0000
0000
0103
,
0010
1000
0100
0000
1000
0000
0001
0100
,
0010
0000
1000
0000
0200
0000
0000
0310
0100
0000
0010
0000
0001
0000
0100
0000
,
1000
0000
0100
0000
0002
0000
0000
0013
0100
0000
0010
0000
0001
0000
0100
0000
,
0010
0000
0001
0000
0020
0000
0000
0130
0010
0000
1000
0000
0200
0000
0000
1300
,
0001
0000
0000
0000
0000
0000
0010
0000
0000
0000
0000
0000
0100
0000
0000
0000
0010
0000
0000
0000
0001
0000
0000
0000
0100
0000
0000
0000
0010
0000
0000
0000
1000
0000
0000
0000
0200
0000
0000
0000
0000
0000
0000
0000
0000
1300
0000
0000
,
0001
0000
0100
0000
0020
0000
0000
0130
0001
0000
0010
0000
0200
0000
0000
0310
,
0001
0000
0100
0000
0020
0000
0000
0230
0000
0000
0301
0000
2000
0000
0000
3100
,
1000
0000
0010
0000
0200
0000
0000
0301
0010
0000
0100
0000
0020
0000
0000
0031
,
0100
0000
0000
0000
0000
0000
0010
0000
0000
0000
0000
0000
0100
0000
0000
0000
0001
0000
0000
0000
0100
0000
0000
0000
0010
0000
0000
0000
1000
0000
0000
0000
0010
0000
0000
0000
0200
0000
0000
0000
0000
0000
0000
0000
0000
0301
0000
0000
,
0010
0000
0100
0000
0020
0000
0000
0031
0100
0000
0010
0000
2000
0000
0000
3100
,
0010
0000
0100
0000
2000
0000
0000
3001
0010
0000
0100
0010
0200
0000
0000
1300
,
0010
0000
0000
0000
0000
0000
0100
0000
0000
0000
0000
0000
0002
0000
0000
0000
0000
0000
0000
0000
0000
0103
0000
0000
0001
0000
0000
0000
0000
0000
0010
0000
0000
0000
0000
0000
0110
0000
0000
0000
0000
0000
0000
0000
1010
0000
0000
0000
,
0000
0110
0000
0101
0000
0110
0000
1001
0000
0000
0000
0000
;

//---------------dance-single - ----------------
#NOTES:
     dance-single:
     :
     Medium:
     5:
     0.438309,0.611391,0.246864,0.952188,0.096982,348.000000,320.000000,28.000000,108.000000,0.000000,0.000000,0.438309,0.611391,0.246864,0.952188,0.096982,348.000000,320.000000,28.000000,108.000000,0.000000,0.000000:
0000
0000
0000
0000
,
0000
0000
0000
0000
,
0000
0000
0000
0000
,
0000
0000
0000
0000
,
1000
0000
0020
0000
,
0200
0030
0002
0300
,
0020
0003
0200
0030
,
0020
0300
0002
0030
,
1003
0010
0200
0010
,
0302
0100
0023
0001
,
0230
0010
2300
0100
,
3020
1000
0230
0010
,
0301
0010
0001
0100
,
0010
1000
0010
0100
,
1000
0100
1000
0000
0001
0010
0001
0000
,
2000
3020
0230
0301
,
1001
0000
1000
0000
0000
0010
0100
0000
,
0001
0000
0010
0000
0000
0100
0010
0000
,
0001
0000
0100
0000
0000
0001
0100
0000
,
0010
0000
1000
0000
0000
0100
1000
0000
,
0010
0000
0100
0000
0000
0001
0010
0000
,
0100
0000
1000
0000
0000
0100
1000
0000
,
0010
0000
0100
0000
0000
0010
0100
0000
,
0001
0000
0010
0000
0000
0100
0010
0000
,
0100
0010
0002
0010
,
2003
0100
3020
1000
,
0230
0001
0320
0100
,
0230
0010
0302
0010
,
1003
0100
2000
0100
,
3020
1000
0230
0301
,
1010
0101
1010
0101
,
1000
0001
1000
0001
1000
0001
1000
0020
,
0200
0000
0000
0330
0000
0000
0000
0000
,
2020
3030
0000
0202
0000
0303
0000
0000
,
2200
0000
0000
3300
0000
0000
0000
0000
,
1010
0000
0000
0010
0000
0000
0120
0000
0100
0000
0000
0000
0130
0000
0000
0000
,
2002
0000
0000
3003
0000
0000
0000
0202
,
0303
0022
0033
0000
,
0220
0000
0000
0330
0000
0000
0000
0000
,
1100
0000
0000
1000
0000
0000
2002
0000
3003
0000
0000
0000
0000
0000
0000
0000
,
0202
0303
0000
2020
3030
0000
0000
0000
,
2200
3300
0000
0220
0330
0000
0011
0000
,
0202
0000
0000
0303
0000
0000
0000
0220
,
0330
0000
0000
0000
2100
0000
0000
0000
3010
0000
0000
0010
0000
0000
0020
0000
,
0200
0000
0000
0330
0000
0000
0000
0202
,
0303
0022
0033
0000
,
0220
0000
0000
0330
0000
0000
0000
0000
,
1000
0000
0100
0000
0010
0000
0001
0000
0000
0002
0000
0000
,
0000
0203
0000
0320
,
0000
0230
0000
0320
,
0000
0100
0000
2030
,
0000
0010
0000
3002
,
0010
0010
0010
2003
,
0100
0100
0100
3001
,
1000
0000
0001
1000
0001
1000
0020
0000
,
0000
0000
0000
0000
0000
0000
0000
0000
0000
1030
0000
0001
,
0000
1000
0000
0010
0000
0100
0000
0010
0000
0100
0000
0001
,
0000
0010
0000
0100
0010
0100
0010
0100
0010
0100
0000
0000
,
1000
0100
2000
0000
3001
0000
0010
0001
,
0010
0100
0020
0000
0130
0000
1000
0010
,
1000
0001
2000
0000
3001
0000
0200
0000
,
0310
0000
1000
0100
0010
0000
0100
0010
,
0100
1000
0200
0000
1300
0000
0001
0100
,
0001
0010
0002
0000
0103
0000
0010
1000
,
0010
0100
0020
0000
1030
0000
0002
0000
,
0103
0000
0002
0000
2003
0000
3010
0100
,
0010
1000
0020
0000
0130
0000
0010
1000
,
0001
0100
0020
0000
1030
0000
0100
0010
,
0001
0100
0020
0000
0130
0000
0020
0000
,
1030
0000
0001
0010
0100
0000
0010
0100
,
1000
0010
0200
0000
0301
0000
1000
0010
,
1000
0100
0020
0000
0130
0000
0010
0001
,
0100
0010
0200
0000
0310
0000
2000
0000
,
3001
0000
0000
0010
0000
0100
0000
0010
0000
0200
0000
0000
,
1300
0100
2000
0000
3010
0100
0020
0000
,
0130
0000
0001
0000
0200
0000
0000
0320
0000
0000
1030
0000
0001
0000
0000
0000
,
1000
0100
2000
0000
3100
0010
0200
0000
,
0310
0001
0020
0000
0032
0000
0103
0000
,
0010
1000
0200
0000
1300
0001
0200
0000
,
0301
0100
0002
0000
0013
0100
0020
0000
,
0130
0000
0000
0010
0000
0000
0002
0000
0000
0000
0000
0000
0103
0000
0000
0001
0000
0000
1000
0000
0000
0000
0100
0000
,
0000
0010
0000
0001
0000
0010
0000
0110
0000
0000
0000
0000
;

//---------------dance-single - ----------------
#NOTES:
     dance-single:
     :
     Easy:
     4:
     0.267016,0.431570,0.229230,0.731774,0.017633,212.000000,186.000000,26.000000,83.000000,0.000000,0.000000,0.267016,0.431570,0.229230,0.731774,0.017633,212.000000,186.000000,26.000000,83.000000,0.000000,0.000000:
// measure 0
0000
0000
0000
0000
,  // measure 1
0000
0000
0000
0000
,  // measure 2
0000
0000
0000
0000
,  // measure 3
0000
0000
0000
0000
,  // measure 4
1000
0000
0020
0000
,  // measure 5
0230
0000
0302
0000
,  // measure 6
0023
0000
0230
0000
,  // measure 7
0320
0000
0032
0000
,  // measure 8
1003
0000
0020
0000
,  // measure 9
0230
0000
0302
0000
,  // measure 10
0023
0000
0230
0000
,  // measure 11
0320
0000
0032
0000
,  // measure 12
1003
1000
0100
0100
,  // measure 13
0010
0010
0001
0001
,  // measure 14
0100
0010
1000
0001
,  // measure 15
0020
0000
0200
0330
,  // measure 16
0110
0000
0020
0000
,  // measure 17
0032
0000
2003
0000
,  // measure 18
3020
0000
0230
0000
,  // measure 19
0302
0000
0023
0000
,  // measure 20
0130
0000
0020
0000
,  // measure 21
0032
0000
2003
0000
,  // measure 22
3020
0000
0230
0000
,  // measure 23
0302
0000
2003
0000
,  // measure 24
3010
0100
0000
0001
,  // measure 25
1000
0001
0000
1000
,  // measure 26
0100
1000
0000
0001
,  // measure 27
0010
0001
0000
1000
,  // measure 28
0010
1000
0000
0010
,  // measure 29
0100
0010
0000
0100
,  // measure 30
0001
0001
0001
0001
,  // measure 31
1000
0001
1000
0002
,  // measure 32
2000
0000
0000
3003
0000
0000
0000
0000
,  // measure 33
0202
0303
0000
0220
0000
0330
0000
0000
,  // measure 34
2200
0000
0000
3300
0000
0000
0000
0000
,  // measure 35
1010
0000
0000
0220
0330
0000
0000
0000
,  // measure 36
0202
0000
0000
0303
0000
0000
0000
2002
,  // measure 37
3003
2200
3300
0000
,  // measure 38
0220
0000
0000
0330
0000
0000
0000
0000
,  // measure 39
0101
0000
0000
0220
0330
0000
0000
0000
,  // measure 40
2200
3300
0000
2002
3003
0000
0000
0000
,  // measure 41
0202
0303
0000
0022
0033
0000
1001
0000
,  // measure 42
2002
0000
0000
3003
0000
0000
0000
0220
,  // measure 43
0330
0000
0202
0303
0000
0000
0000
0000
,  // measure 44
2002
0000
0000
3003
0000
0000
0000
2020
,  // measure 45
3030
0000
0220
0330
0000
0000
0000
0000
,  // measure 46
0202
0000
0000
0303
0000
0000
0000
0000
,  // measure 47
1001
0000
0110
0200
,  // measure 48
0000
0302
0000
2003
,  // measure 49
0000
3200
0000
0320
,  // measure 50
0000
0100
0000
0032
,  // measure 51
0000
0010
0000
2003
,  // measure 52
0000
0010
0000
3002
,  // measure 53
0000
0100
0000
1003
,  // measure 54
0001
1000
0100
0020
,  // measure 55
0000
0000
0000
0031
,  // measure 56
0010
0000
0000
0100
0000
0000
1000
0000
0000
0001
0000
1000
,  // measure 57
0000
0001
0000
1000
0000
0001
0000
1000
0000
0001
0000
0000
,  // measure 58
0100
0001
0000
1000
,  // measure 59
0100
1000
0000
0010
,  // measure 60
0100
0010
0000
0100
,  // measure 61
0000
0001
0000
1000
,  // measure 62
0010
1000
0000
0001
,  // measure 63
0100
0001
0000
1000
,  // measure 64
0100
1000
0000
0010
,  // measure 65
0000
0100
0000
0001
,  // measure 66
0010
0100
0000
0010
,  // measure 67
0001
1000
0000
0010
,  // measure 68
1000
0010
0000
0100
,  // measure 69
0000
0001
0000
0010
,  // measure 70
0100
1000
0000
0001
,  // measure 71
1000
0010
0000
0100
,  // measure 72
0001
0010
0000
0100
,  // measure 73
0000
0010
0000
0001
,  // measure 74
0000
0100
0000
0010
,  // measure 75
0000
1000
0000
0100
,  // measure 76
0000
0010
0000
0100
,  // measure 77
0000
1000
0001
0100
,  // measure 78
0000
0010
0000
1000
,  // measure 79
0000
0100
0000
0010
,  // measure 80
0000
0100
0000
2000
,  // measure 81
0000
0000
0000
0002
0000
0000
0000
3003
0000
0000
0000
0000
;

//---------------dance-single - ----------------
#NOTES:
     dance-single:
     :
     Beginner:
     2:
     0.152400,0.213581,0.008817,0.000000,0.000000,121.000000,120.000000,1.000000,0.000000,0.000000,0.000000,0.152400,0.213581,0.008817,0.000000,0.000000,121.000000,120.000000,1.000000,0.000000,0.000000,0.000000:
// measure 0
0000
0000
0000
0000
,  // measure 1
0000
0000
0000
0000
,  // measure 2
0000
0000
0000
0000
,  // measure 3
0000
0000
0000
0000
,  // measure 4
0000
0000
0001
0000
,  // measure 5
1000
0000
0001
0000
,  // measure 6
1000
0000
0001
0000
,  // measure 7
1000
0000
0001
0000
,  // measure 8
0000
0000
0100
0000
,  // measure 9
0010
0000
0100
0000
,  // measure 10
0010
0000
0100
0000
,  // measure 11
0010
0000
0100
0000
,  // measure 12
0000
0000
0001
0000
,  // measure 13
1000
0000
0001
0000
,  // measure 14
1000
0000
0001
0000
,  // measure 15
1000
0000
0000
0000
,  // measure 16
1001
0000
0001
0000
,  // measure 17
1000
0000
0001
0000
,  // measure 18
1000
0000
0001
0000
,  // measure 19
1000
0000
0001
0000
,  // measure 20
0000
0000
0010
0000
,  // measure 21
0100
0000
0010
0000
,  // measure 22
0100
0000
0010
0000
,  // measure 23
0100
0000
0010
0000
,  // measure 24
0000
0000
0001
0000
,  // measure 25
0010
0000
0001
0000
,  // measure 26
0010
0000
0001
0000
,  // measure 27
0010
0000
0001
0000
,  // measure 28
0000
0000
1000
0000
,  // measure 29
0100
0000
1000
0000
,  // measure 30
0100
0000
1000
0000
,  // measure 31
0100
0000
1000
0000
,  // measure 32
0001
0000
0000
0000
,  // measure 33
0001
0000
0000
0000
,  // measure 34
1000
0000
0000
0000
,  // measure 35
1000
0000
0000
0000
,  // measure 36
0001
0000
0000
0000
0000
0000
0000
1000
,  // measure 37
0000
0000
0000
0000
,  // measure 38
0001
0000
0000
0000
,  // measure 39
1000
0000
0000
0000
,  // measure 40
0010
0000
0000
0000
,  // measure 41
0010
0000
0000
0000
,  // measure 42
0100
0000
0000
0000
0000
0000
0000
0100
,  // measure 43
0000
0000
0000
0000
,  // measure 44
0010
0000
0000
0000
0000
0000
0000
0100
,  // measure 45
0000
0000
0000
0000
,  // measure 46
0010
0000
0000
0000
,  // measure 47
0100
0000
0000
0010
,  // measure 48
0000
0010
0000
0010
,  // measure 49
0000
0010
0000
0100
,  // measure 50
0000
0100
0000
0100
,  // measure 51
0000
0100
0000
0001
,  // measure 52
0000
1000
0000
0001
,  // measure 53
0000
1000
0000
0001
,  // measure 54
0000
0100
0000
0010
,  // measure 55
0000
0000
0000
0100
,  // measure 56
0000
0010
0000
0100
,  // measure 57
0000
0010
0100
0010
,  // measure 58
0000
0000
0000
0100
,  // measure 59
0000
0000
0000
0001
,  // measure 60
0000
0000
0000
1000
,  // measure 61
0000
0100
0000
0010
,  // measure 62
0000
0000
0000
0100
,  // measure 63
0000
0000
0000
0010
,  // measure 64
0000
0000
0000
0001
,  // measure 65
0000
1000
0000
0001
,  // measure 66
0000
0000
0000
0100
,  // measure 67
0000
0000
0000
0010
,  // measure 68
0000
0000
0000
0100
,  // measure 69
0000
0001
0000
1000
,  // measure 70
0000
0000
0000
0100
,  // measure 71
0000
0000
0000
1000
,  // measure 72
0000
0000
0000
0010
,  // measure 73
0000
0100
0000
0001
,  // measure 74
0000
1000
0000
0001
,  // measure 75
0000
0100
0000
0010
,  // measure 76
0000
0100
0000
0001
,  // measure 77
0000
0010
0000
0100
,  // measure 78
0000
0010
0000
0001
,  // measure 79
0000
0100
0000
0010
,  // measure 80
0000
0100
0000
0001
;
