#VERSION:0.83;
#TITLE:Children;
#SUBTITLE:(Dream Version);
#ARTIST:Robert Miles;
#TITLETRANSLIT:;
#SUBTITLETRANSLIT:;
#ARTISTTRANSLIT:;
#GENRE:;
#CREDIT:;
#MUSIC:Children (Dream Version).ogg;
#BANNER:banner.png;
#BACKGROUND:background.png;
#JACKET:jacket.png;#CDTITLE:;
#SAMPLESTART:42.015;
#SAMPLELENGTH:14.006;
#SELECTABLE:YES;
#OFFSET:0.000;
#BPMS:0.000=137.080;
#STOPS:;
#BGCHANGES:;
#FGCHANGES:;

//--------------- dance-single - ----------------
#NOTEDATA:;
#STEPSTYPE:dance-single;
#DESCRIPTION:;
#DIFFICULTY:Hard;
#METER:6;
#RADARVALUES:0,0,0,0,0;
#NOTES:
0000
0000
0000
0000
,
0000
0000
0000
0000
,
0000
0000
0000
0000
,
0000
0000
0000
0000
,
0000
0000
0000
0000
,
0000
0000
0000
0000
,
0000
0000
0000
0000
,
0000
0000
0000
0000
0000
0000
0100
0100
,
0010
0000
0100
0000
0001
0100
0000
0001
,
0010
0001
1000
0000
0100
0000
1000
0010
,
1000
0100
1000
0000
0001
0200
0000
0000
,
0000
0000
0000
0300
0000
0000
0000
0001
,
0010
0001
1000
0001
0000
0000
1000
0000
,
0010
0000
1000
0000
0001
0000
0010
0001
,
0000
1000
0001
0000
0100
0020
0000
0000
,
0000
0000
0000
0000
0000
0030
0000
0000
,
0100
0000
0100
0000
,
0010
0000
0010
0000
,
1000
0000
1000
0000
,
0001
0000
0001
0000
,
0100
0001
0100
0010
,
1000
0100
1000
0001
,
1000
0001
1000
0100
0010
0001
0010
0100
,
1000
0000
0001
0000
1000
0000
0010
0000
0100
0000
0010
0000
0100
0010
0100
0010
,
0200
0001
1000
0301
,
2000
0000
0010
0000
0100
0000
3001
0010
,
0002
1000
0100
1003
,
0020
0000
1000
0000
0001
0000
1030
0001
,
0200
0001
1000
0301
,
2000
0000
0010
0000
0100
0000
3010
0100
,
0002
0010
0100
0013
,
0200
0000
0001
0000
1000
0000
0301
1000
,
0002
0100
0010
0103
,
0020
0000
1000
0000
0001
0000
1030
0001
,
0200
0001
1000
0301
,
2000
0000
0001
0000
0100
0000
3001
0100
,
0001
0000
1000
0010
0000
0000
1000
0000
,
0010
0000
1000
0000
0010
0100
0010
0000
,
1000
0001
1000
0001
,
0220
0000
0000
0000
0000
0330
0000
0000
,
0001
0000
0100
0000
0001
0000
1000
0010
,
1000
0100
0001
0100
,
1000
0001
0000
0100
0000
0010
0000
0100
,
0101
0100
0001
1000
,
0010
0000
0001
0000
0010
0000
1000
0001
,
1000
0001
0100
0010
,
0100
0001
0000
0100
0000
0010
1000
0010
,
1010
0010
0100
0101
,
0001
0000
1001
0000
1000
0100
0010
0100
,
2000
0010
0100
3010
,
2000
0000
0001
0000
0100
0000
3001
0100
,
0020
1000
0001
1030
,
0200
0000
1000
0000
0001
0000
1300
0001
,
2000
0100
0010
3100
,
0020
0000
0001
0000
1000
0000
0031
0100
,
0002
1000
0010
1003
,
0020
0000
1000
0000
0001
0000
1030
0001
,
0200
0001
1000
0301
,
2000
0000
0100
0000
0010
0000
3100
1000
,
0020
0100
0001
0130
,
0002
0000
0100
0000
0010
0000
0103
0010
,
2000
0100
0010
3100
,
0020
0000
0001
0000
1000
0000
0031
0100
,
0020
1000
0001
1030
,
2002
0000
0000
0000
,
0000
0000
0000
3003
;

//--------------- dance-single - ----------------
#NOTEDATA:;
#STEPSTYPE:dance-single;
#DESCRIPTION:;
#DIFFICULTY:Challenge;
#METER:8;
#RADARVALUES:0,0,0,0,0;
#NOTES:
0000
0000
0000
0000
,
0000
0000
0000
0000
,
0000
0000
0000
0000
,
0000
0000
0000
0000
,
0200
0000
0000
0300
,
0000
0000
0000
0000
,
0020
0000
0000
0030
,
0000
0000
0000
0000
0000
0000
0000
0000
0000
0000
0000
0000
0100
0010
0100
0010
,
0100
0001
1000
0000
0001
1000
0000
0010
,
0100
0010
0100
0000
0002
0000
1003
0100
,
1000
0001
1000
0000
0010
0200
0000
0000
,
0000
0000
0000
0000
0000
0000
0300
0000
0000
0000
0000
0000
0010
0100
0010
0100
,
0010
1000
0100
1000
0000
0000
0100
0000
,
1000
0000
0100
0000
1000
0000
0001
1000
,
0000
0001
0010
0000
0001
0020
0000
0000
,
0000
0000
0000
0000
,
0031
0001
0001
0001
,
1000
1000
1000
1000
,
0100
0100
0100
0100
,
0010
0010
0010
0010
,
0001
0010
1000
0010
0001
0100
1000
0100
,
0001
1000
0100
0001
0100
1000
0010
0001
,
0010
1000
0001
1000
0010
0100
0010
0100
,
0001
1000
0001
1000
0001
0100
0010
0100
0010
1000
0100
1000
0100
1000
0001
1000
,
0001
0100
0010
0100
0001
0100
0010
0000
,
1000
0100
0001
0100
1000
0100
1000
0000
,
0001
0100
1000
0100
0001
0100
0001
0000
,
1000
0010
0001
0010
1000
0010
1000
0000
,
0001
0010
1000
0010
0001
0010
0001
0000
,
1000
0001
0010
0100
1000
0001
0010
0000
,
0001
1000
0100
0010
0001
0010
0100
0000
,
0010
0000
0001
0000
0010
0000
0001
0000
0100
0000
0010
0000
0100
0001
0100
0001
,
0100
0010
0100
0001
1000
0100
1000
0000
,
0001
0010
0001
0100
0001
0010
0001
0000
,
1000
0100
1000
0010
1000
0100
1000
0000
,
0010
0100
0010
0100
0001
0010
0001
0000
,
0100
0010
0100
0010
1000
0100
1000
0000
,
0100
0010
0100
0010
1000
0001
1000
0000
,
0010
0100
0010
0100
0001
1000
0001
0000
,
2002
0000
0000
3003
,
0100
0000
0000
0000
0100
0000
0000
0000
0010
0000
0000
0000
0010
1000
0100
1000
,
0100
1000
0001
0100
,
0010
0100
0000
0010
0000
0100
0001
0100
,
0102
1000
0100
1003
,
0010
0000
0000
0000
1000
0000
0000
0000
0001
0000
0000
0000
0100
0001
0100
0001
,
0100
0010
1000
0100
,
1000
0100
0000
1000
0000
0001
0100
0001
,
0202
0000
0000
0000
0303
0000
1000
0010
2000
0000
0000
0000
3001
0000
0000
0000
,
0001
0100
0001
0000
1000
0010
1000
0000
0010
0100
0010
0000
1000
0001
1000
0001
,
1000
0010
0100
0001
0100
0010
0100
0000
,
0010
1000
0100
1000
0100
1000
0100
0000
,
1000
0010
0100
0010
0100
0001
0010
0000
,
0001
0100
0001
0100
0001
0100
0010
0000
,
0100
0010
1000
0100
1000
0100
1000
0000
,
0100
0010
0001
0010
0100
0010
0001
0000
,
1000
0010
1000
0001
0100
1000
0100
0000
,
0001
0000
0100
0000
0010
0000
0100
0000
0001
0000
0100
0000
0001
0100
0001
0100
,
0001
0010
0100
0010
1000
0100
1000
0000
,
0100
0000
0000
0000
0000
0000
0000
0000
0000
0000
0000
0000
0000
0000
0000
0000
0000
0000
0000
0000
0000
0000
0000
0000
0010
0000
0000
0000
0000
0000
0000
0000
0000
0000
0000
0000
0000
0000
0000
0000
0000
0000
0000
0000
0000
0000
0000
0000
0100
0000
0000
0000
0000
0000
0000
0000
0000
0000
0000
0000
0000
0000
0000
0000
0000
0000
0000
0000
0000
0000
0000
0000
2000
3000
0000
0000
0000
0000
0000
0000
0000
0000
0000
0000
0000
0000
0000
0000
0000
0000
0000
0000
0000
0000
0000
0000
0010
0000
0000
0000
0000
0000
0000
0000
0000
0000
0000
0000
0000
0000
0000
0000
0000
0000
0000
0000
0000
0000
0000
0000
0100
0000
0000
0000
0000
0000
0000
0000
0000
0000
0000
0000
0000
0000
0000
0000
0000
0000
0000
0000
0000
0000
0000
0000
0010
0000
0000
0000
0000
0000
0000
0000
0000
0000
0000
0000
0000
0000
0000
0000
0000
0000
0000
0000
0000
0000
0000
0000
0000
0000
0000
0000
0000
0000
0000
0000
0000
0000
0000
0000
0000
0000
0000
0000
0000
0000
0000
0000
0000
0000
0000
0000
,
1000
0100
0001
0100
1000
0100
1000
0000
,
0001
1000
0100
0010
0100
1000
0001
0000
,
1000
0100
0010
0100
0010
0001
0100
0000
,
0010
1000
0010
0100
0010
0100
0010
0000
,
0100
0010
0100
0010
1000
0100
1000
0000
,
0220
0000
0000
0000
,
0000
0000
0000
0000
0000
0000
0000
0000
0000
0000
0000
0000
0000
0330
0000
0000
;
