#TITLE:CUT TO THE FEELING;
#SUBTITLE:;
#ARTIST:CARLY RAE JEPSEN;
#TITLETRANSLIT:;
#SUBTITLETRANSLIT:;
#ARTISTTRANSLIT:;
#GENRE:;
#CREDIT:;
#BANNER:[Round 1] - CUT TO THE FEELING.png;
#BACKGROUND:[Round 1] - CUT TO THE FEELING-bg.png;
#LYRICSPATH:;
#CDTITLE:cdtitle.png;
#MUSIC:[Round 1] - CUT TO THE FEELING.ogg;
#OFFSET:-1.402000;
#SAMPLESTART:29.560207;
#SAMPLELENGTH:13.000000;
#SELECTABLE:YES;
#DISPLAYBPM:115.000000;
#BPMS:0.000000=115.000000
;
#STOPS:
;
#BGCHANGES:
;
#KEYSOUNDS:;
#ATTACKS:;

//---------------dance-single - ----------------
#NOTES:
     dance-single:
     :
     Easy:
     3:
     0.221777,0.367107,0.374412,0.191772,0.000000,170.000000,129.000000,41.000000,21.000000,0.000000,0.000000,0.221777,0.367107,0.374412,0.191772,0.000000,170.000000,129.000000,41.000000,21.000000,0.000000,0.000000:
0000
0000
0000
0000
,
0000
0000
0000
0000
,
0000
0000
0000
0000
,
0000
0000
0000
0000
,
0001
1000
0001
0000
,
1000
0001
1000
0000
,
0010
0000
0100
0000
,
0010
0000
0100
0000
,
0100
0010
0100
0000
,
0010
0100
0010
0000
,
1000
0000
0001
0000
,
1000
0000
0001
0000
,
2000
0000
0002
3000
,
2000
0003
0001
3001
,
1001
1100
1001
0000
,
1001
0101
1001
0000
,
1010
1001
1010
0000
,
0011
1001
0011
0000
,
2000
0010
3100
0000
,
0001
0000
0000
0000
,
0002
0010
0103
0000
,
1000
0000
0000
0000
,
0000
0110
0000
1001
,
0000
0000
0000
1001
,
0010
0010
0010
0000
,
0100
0000
0100
0000
,
0010
0010
0010
0000
,
0100
0000
0100
0000
,
0001
0001
0001
0000
,
1000
0000
1000
0000
,
0001
0001
0001
0000
,
1000
0000
2000
0000
,
0000
0000
0001
0000
,
0100
0100
0100
3100
,
1100
1001
0011
0000
,
0101
1001
1010
0000
,
1010
1001
0101
0000
,
0011
1001
1100
0000
,
2000
0010
0100
0001
,
3100
0000
1000
1000
,
0002
0010
0100
1000
,
0013
0001
0001
0001
,
1001
1001
1001
1001
,
1001
1001
1001
0000
,
0110
0110
0110
0110
,
0110
0110
0110
0000
,
2000
3200
2300
3002
,
0203
0300
0010
0010
,
0200
0302
0023
0032
,
2003
3200
0320
0032
,
0000
0003
0000
0000
;

//---------------dance-single - ----------------
#NOTES:
     dance-single:
     :
     Medium:
     5:
     0.314402,0.366193,0.146112,0.063924,0.036528,241.000000,225.000000,16.000000,7.000000,0.000000,0.000000,0.314402,0.366193,0.146112,0.063924,0.036528,241.000000,225.000000,16.000000,7.000000,0.000000,0.000000:
0000
0000
0000
0000
,
0000
0000
0000
0000
,
0000
0000
0000
0000
,
0000
0000
0000
0000
,
0001
0000
0000
0000
0001
0000
0000
0000
0001
0000
0000
0001
0000
0001
0000
0000
,
1000
0000
0000
0000
1000
0000
0000
0000
1000
0000
0000
1000
0000
1000
0000
0000
,
0001
0010
0100
1000
,
0001
0010
0100
1000
,
0010
0000
0000
0000
0010
0000
0000
0000
0010
0000
0000
0010
0000
0010
0000
0000
,
0100
0000
0000
0000
0100
0000
0000
0000
0100
0000
0000
0100
0000
0100
0000
0000
,
1000
0000
0010
0000
0100
0001
1000
0000
,
0010
0100
0010
0010
,
2000
0100
0002
3000
,
0023
0000
0001
0130
,
1100
0000
1000
0000
0100
1000
0001
0000
,
0010
0001
0011
0000
,
0101
0000
0001
0000
0100
0001
1000
0000
,
2000
0100
0010
3001
,
0100
1000
0100
1000
0100
1000
0100
1000
,
0100
0010
0001
0001
,
0100
0001
0100
0001
0100
0001
0100
0001
,
0100
0010
1000
1000
,
0000
0101
0000
1001
,
0000
0000
0000
1100
,
0010
0000
0100
0000
0010
0010
0010
0000
,
1000
0000
0001
0000
1000
1000
1000
0000
,
0001
0000
0010
0000
0001
0001
0001
0000
,
1000
0000
0100
0000
1000
1000
1000
0000
,
0010
0000
0100
0000
0001
1000
0001
0000
,
0010
0000
0100
0000
1000
0100
1000
0000
,
0001
0000
1000
0000
0010
0100
0010
0000
,
0000
0000
0010
0000
0100
0001
0100
0000
,
0101
0000
0101
0000
,
0101
0101
0101
0101
,
1010
0000
1000
0000
0100
1000
0001
0000
,
0101
0000
0100
0000
0010
1000
0001
0000
,
0011
0000
0001
0000
0010
0100
1000
0000
,
1100
0000
1000
0000
0100
0010
0001
0000
,
0100
0010
0100
0010
0100
0010
1000
0010
,
1000
0000
0002
0013
,
0001
0010
0001
0010
0001
0010
0100
0010
,
0100
0000
2000
3001
,
0100
0010
0100
0000
0001
0100
0001
0000
,
0010
0001
0010
0000
0100
0010
0100
0000
,
1000
0100
1000
0000
0010
1000
0010
0000
,
0100
0010
0100
0000
0001
0100
0001
0000
,
1000
0100
0010
0001
1000
0100
0010
0001
,
1000
0010
0100
0001
,
0001
0100
0010
1000
0001
0100
0010
1000
,
0001
0000
0010
0000
0100
1000
0100
0020
,
0000
0031
0000
0000
0000
0000
0000
0000
;

//---------------dance-single - ----------------
#NOTES:
     dance-single:
     :
     Hard:
     7:
     0.370498,0.480629,0.374412,0.228300,0.095886,284.000000,243.000000,41.000000,25.000000,0.000000,0.000000,0.370498,0.480629,0.374412,0.228300,0.095886,284.000000,243.000000,41.000000,25.000000,0.000000,0.000000:
0000
0000
0000
0000
,
0000
0000
0000
0000
,
0000
0000
0000
0000
,
0000
0000
0000
0000
,
1100
0000
0000
0000
1100
0000
0000
0000
1100
0000
0000
1001
0000
1100
0000
0000
,
0011
0000
0000
0000
0011
0000
0000
0000
0011
0000
0000
1001
0000
0011
0000
0000
,
1000
0000
0000
0000
0001
0000
0000
0000
0100
0000
0000
0100
0000
0100
0000
0000
,
0001
0000
0000
0000
1000
0000
0000
0000
0010
0000
0000
0010
0000
0010
0000
0000
,
1001
0000
0000
0000
1001
0000
0000
0000
1001
0000
0000
0101
0000
1001
0000
0000
,
1010
0000
0000
0000
1010
0000
0000
0000
1010
0000
0000
1001
0000
1010
0000
0000
,
0001
0000
0000
0000
0010
0000
0000
0000
0001
0000
0000
0010
0000
0001
0000
0000
,
1000
0000
0000
0000
0100
0000
0000
0000
1000
0000
0000
0100
0000
1000
0000
0000
,
2000
3100
0002
0103
,
2000
3010
0201
0301
,
0002
0010
1003
0000
2000
0010
3001
0000
,
0100
0000
0010
0000
1000
0001
0100
0000
,
0002
0100
1003
0000
2000
0100
3001
0000
,
0002
0000
0000
0000
0010
0000
0000
0000
0103
0000
0000
1000
0000
0000
0001
0000
,
0000
0100
0010
0010
1000
1000
0100
0100
,
0020
0000
0030
0000
0001
0010
0100
1000
,
0000
0001
0100
0100
0010
0010
1000
1000
,
0200
0000
0300
0000
1000
0100
0010
0001
,
1000
0101
0010
1100
,
0010
0100
0001
0011
,
0200
1300
0010
1100
,
0010
0000
0100
0001
0010
0000
0110
0000
,
0002
0013
0100
1100
,
1000
0000
0001
0000
0010
0000
0000
0000
0100
0000
1000
0010
0000
0000
0000
0000
,
0002
0103
0010
1001
,
1000
0000
0001
0100
0010
0000
1000
0000
,
0002
0013
0100
0110
,
0100
0000
1000
0000
0010
0000
0000
0000
0100
0000
0001
0010
0000
0000
0000
0000
,
1001
0000
1001
0000
,
1001
1001
2010
3001
,
0012
1000
0103
0000
2010
0001
3100
0000
,
1000
0000
0100
0010
0001
0000
1000
0000
,
0102
1000
0013
0000
2100
0001
3010
0000
,
0002
0000
0000
0000
0100
0000
0000
0000
1003
0000
0000
0010
0000
0000
0100
0000
,
0000
0001
1000
0010
1000
0100
1000
0001
,
0010
0010
0002
0103
,
0000
1000
0001
0010
0001
0100
0001
1000
,
0010
1000
1000
1000
,
0011
0001
0100
1000
0100
0001
0010
0100
,
1000
0001
0100
0001
0010
0001
0100
0000
,
1010
1000
0100
0001
0100
1000
0010
0100
,
0002
0000
0000
0000
0010
0000
0000
0000
0103
0000
0000
1000
0000
0000
0001
0000
,
0000
1000
0010
0100
0010
0100
0001
0100
,
0010
0010
1002
0013
,
0000
0010
0100
1000
0100
1000
0001
0100
,
0010
0000
1000
0000
1000
0010
0100
0002
,
0000
1003
0000
0000
0000
0000
0000
0000
;

//---------------dance-single - ----------------
#NOTES:
     dance-single:
     :
     Beginner:
     1:
     0.070447,0.182640,0.091320,0.100452,0.000000,54.000000,44.000000,10.000000,11.000000,0.000000,0.000000,0.070447,0.182640,0.091320,0.100452,0.000000,54.000000,44.000000,10.000000,11.000000,0.000000,0.000000:
// measure 0
0000
0000
0000
0000
,  // measure 1
0000
0000
0000
0000
,  // measure 2
0000
0000
0000
0000
,  // measure 3
0000
0000
0000
0000
,  // measure 4
0001
0000
0001
0000
,  // measure 5
0001
0000
0001
0000
,  // measure 6
0000
0000
0000
0000
,  // measure 7
0000
0000
0000
0000
,  // measure 8
0100
0000
0100
0000
,  // measure 9
0100
0000
0100
0000
,  // measure 10
0000
0000
0000
0000
,  // measure 11
0000
0000
0000
0000
,  // measure 12
2002
0000
0000
0000
,  // measure 13
0000
0000
0000
0000
,  // measure 14
3003
0000
0000
0000
,  // measure 15
0010
0000
0000
0000
,  // measure 16
0110
0000
0000
0000
,  // measure 17
0100
0000
0000
0000
,  // measure 18
0002
0000
0000
0000
,  // measure 19
0003
0000
0000
0000
,  // measure 20
0002
0000
0000
0000
,  // measure 21
0003
0000
0000
0000
,  // measure 22
0000
0010
0000
0010
,  // measure 23
0000
0000
0000
0010
,  // measure 24
0010
0000
0000
0000
,  // measure 25
0100
0000
0100
0000
,  // measure 26
0100
0000
0000
0000
,  // measure 27
0001
0000
0001
0000
,  // measure 28
0001
0000
0000
0000
,  // measure 29
1000
0000
1000
0000
,  // measure 30
1000
0000
0000
0000
,  // measure 31
0001
0000
0000
0000
,  // measure 32
0002
0000
0000
0000
,  // measure 33
0003
0000
0001
0001
,  // measure 34
0001
0000
0000
0000
,  // measure 35
0000
0000
0000
0000
,  // measure 36
1000
0000
0000
0000
,  // measure 37
0000
0000
0000
0000
,  // measure 38
2002
0000
0000
0000
,  // measure 39
3003
0000
0000
0000
,  // measure 40
2002
0000
0000
0000
,  // measure 41
3003
0000
0000
0000
,  // measure 42
1001
0000
1001
0000
,  // measure 43
1001
0000
0000
0000
,  // measure 44
0110
0000
0110
0000
,  // measure 45
0110
0000
0000
0000
,  // measure 46
2000
0000
0000
0000
,  // measure 47
3000
0000
0000
0000
,  // measure 48
0020
0000
0000
0000
,  // measure 49
0030
0000
0000
0000
,  // measure 50
0010
0000
0000
0000
;
