#TITLE:Automaton;
#SUBTITLE:;
#ARTIST:Jamiroquai;
#TITLETRANSLIT:;
#SUBTITLETRANSLIT:;
#ARTISTTRANSLIT:;
#CREDIT:SupremeX;
#BANNER:Automaton.png;
#BACKGROUND:Automaton-bg.png;
#LYRICSPATH:;
#CDTITLE:SX.png;
#MUSIC:Automaton.ogg;
#OFFSET:-0.040;
#SAMPLESTART:44.600;
#SAMPLELENGTH:12.000;
#SELECTABLE:YES;
#BPMS:0.000=108.010;
#STOPS:;
#BGCHANGES:0.000=Automaton.avi=1.000=0=0=1,
17.500=Automaton.avi=1.000=0=0=1,
99999=-nosongbg-=1.000=0=0=0 // don't automatically add -songbackground-
;

//---------------dance-single - ----------------
#NOTES:
     dance-single:
     :
     Hard:
     8:
     0.513,0.532,0.339,0.011,0.487: // measure 1
0000
0000
0000
0000
,  // measure 2
0000
0000
0000
0000
,  // measure 3
0000
0000
0000
0000
,  // measure 4
0000
0000
0000
0000
,  // measure 5
0000
0000
0000
0000
0001
0000
1000
0100
1000
0000
0000
0100
0000
0000
1000
0001
,  // measure 6
1000
0000
0000
0100
0000
0000
0010
0001
0010
0000
0000
0001
0000
0000
0100
0000
,  // measure 7
0100
0000
0000
0010
0000
0000
1000
0010
1000
0000
0000
0100
0000
0000
0010
0001
,  // measure 8
0010
0000
0000
0100
0000
0000
1000
0100
1000
0010
1000
0010
1000
0010
0200
0000
,  // measure 9
0000
0000
0310
0000
0100
0000
0001
1000
0001
0000
0000
0100
0000
0000
0010
1000
,  // measure 10
0010
0000
0000
1000
0000
0000
0001
0100
0001
0100
0001
0000
1000
0000
0010
0000
,  // measure 11
1000
0000
0000
0100
0000
0000
0001
1000
0001
0000
0000
0010
0000
0000
0100
1000
,  // measure 12
0100
0000
0000
0010
0000
0000
0001
1000
0001
1000
0010
0100
0010
0000
0100
0000
,  // measure 13
0110
0000
0000
0001
0000
0000
0010
1000
0100
0000
0000
0100
0000
0000
0100
1000
,  // measure 14
0100
0000
0000
0100
0000
0000
1000
0001
1000
0000
0010
0000
0100
0000
0001
0000
,  // measure 15
1000
0000
0000
1001
0000
0000
0010
0100
0010
0000
0000
1000
0000
0000
0001
0100
,  // measure 16
0001
0000
0000
0010
0000
0000
0100
1000
0100
0000
0010
0000
0001
0000
0100
0000
,  // measure 17
0101
0000
0000
0010
0000
0000
0100
1000
0100
0000
0000
0001
0000
0000
1000
0010
,  // measure 18
1000
0000
0000
0100
0000
0000
0010
0100
0010
0000
0100
0000
0001
0000
1000
0000
,  // measure 19
1001
0000
0000
1100
0000
0000
0001
1000
0001
0000
0000
0001
0000
0000
0010
0100
,  // measure 20
0010
1000
0100
0010
0001
1000
0100
1100
,  // measure 21
1001
0100
0010
1000
0110
0001
0101
1000
,  // measure 22
0100
0010
0011
1000
1001
0010
0110
1000
,  // measure 23
0010
1000
0110
0001
1001
0100
0010
0100
,  // measure 24
0110
0000
0001
1000
0001
0000
1000
0100
1000
0000
0010
0100
0010
0100
0001
1000
,  // measure 25
0001
0000
0010
0000
0100
0000
1000
0000
1100
0000
0100
0000
0110
0000
0001
0010
,  // measure 26
0001
0100
0001
0100
0000
0000
0100
0010
1000
0100
1000
0100
0000
0000
0010
0000
,  // measure 27
0100
0000
0010
0000
0110
0000
1000
0000
0100
0000
0010
0001
0000
0000
0100
0010
,  // measure 28
0100
0001
1000
0001
0100
0010
1000
0001
,  // measure 29
0100
0000
0010
0000
1000
0000
0001
1000
0000
0000
0000
0000
0000
0000
0010
0000
,  // measure 30
0100
0000
0010
0100
0010
0000
0100
0000
0001
0000
1000
0000
1100
0000
0001
0000
,  // measure 31
0010
0100
1100
1000
1100
0010
0001
0010
,  // measure 32
0011
0001
0010
0100
1000
0100
0010
0001
,  // measure 33
1001
0100
0010
0100
0110
0001
0010
0100
,  // measure 34
1100
0000
0100
0000
1001
0000
0000
0000
0010
0000
0100
0000
0001
1000
0000
1001
,  // measure 35
0000
0000
0100
0000
0000
0000
0010
1000
0010
0000
0000
1000
0000
0000
0001
0100
,  // measure 36
0001
0000
0000
0100
0000
0000
0001
1000
0100
1000
0100
1000
0100
0000
0010
0000
,  // measure 37
0011
0000
0000
1001
0000
0000
1000
0100
1000
0000
0000
0100
0000
0000
1000
0100
,  // measure 38
1000
0000
0000
0010
0000
0000
0100
0001
0100
0001
0100
0001
0100
0000
0010
0000
,  // measure 39
0110
0000
0000
0110
0000
0000
1000
0001
1000
0000
0000
0100
0000
0000
0010
1000
,  // measure 40
0010
0000
0000
0100
0000
0000
0001
1000
0001
0000
0000
0100
0000
0000
0001
0100
,  // measure 41
0001
0000
0000
1100
0000
0000
0000
0000
0000
0000
0000
0000
0000
0000
0000
0000
;

//---------------dance-single - ----------------
#NOTES:
     dance-single:
     :
     Medium:
     5:
     0.257,0.272,0.106,0.000,0.000:
0000
0000
0000
0000
,
0000
0000
0000
0000
,
0000
0000
0000
0000
,
0000
0000
0000
0000
,
1000
0010
0100
0001
,
1000
0000
0010
0000
0100
0000
0001
1000
,
0001
0100
0010
1000
,
0001
0000
0100
0000
0010
1000
0010
0100
,
0000
1000
0001
0100
,
0010
0000
1000
0000
0001
0100
0010
1000
,
0010
0100
0001
1000
,
0010
0000
0100
0000
0001
1000
0010
0100
,
0001
1000
0010
0100
,
0001
0000
1000
0000
0010
1000
0010
0100
,
0001
1000
0010
0100
,
0001
0000
1000
0000
0010
0000
0100
0001
,
0100
0010
0010
1000
,
1000
0000
0100
0000
0010
0000
0001
0100
,
0001
1000
0010
0100
,
0001
1000
0010
0100
,
0001
0000
1000
0010
1000
0000
0000
0100
,
0010
0100
0010
0000
0010
0000
0010
0000
,
0010
0100
0001
0100
0010
0000
1000
0000
,
0001
0010
0001
0000
0100
0010
0100
0000
,
0001
0001
1000
0000
,
0010
1000
0001
0100
,
0010
1000
0001
1001
,
1001
0010
0100
0010
,
1000
0001
1000
0010
0100
0000
0000
0000
,
0001
0000
1000
0000
0010
0100
0010
1000
,
0001
0100
0010
1000
,
0001
0000
0100
0000
0010
0000
1000
0001
,
0100
0010
1000
0001
,
1000
0010
0100
0000
0001
0000
1001
0000
,
1001
0000
0000
0110
0000
0000
0000
1010
,
0000
0000
0000
0101
0000
0000
1000
0000
,
0010
0100
0101
1000
,
1010
0001
0101
0010
,
1000
0001
1000
0010
,
0100
0001
1000
0000
;

//---------------dance-single - ----------------
#NOTES:
     dance-single:
     :
     Easy:
     3:
     0.170,0.191,0.000,0.000,0.000:
0000
0000
0000
0000
,
0000
0000
0000
0000
,
0000
0000
0000
0000
,
0000
0000
0000
0000
,
0000
0000
0000
0000
0100
0000
0000
0010
,
0000
0000
0000
1000
0000
0000
0001
0000
,
0100
0010
1000
0010
,
0100
0001
1000
0010
,
0100
0000
0001
0000
1000
0000
0000
0010
,
0000
0000
0000
0100
0000
0000
0001
0000
,
1000
0000
0010
0100
0000
0000
0000
0100
,
0000
0000
0000
0001
0000
0000
1000
0000
,
0010
0000
0100
0001
0000
0000
0000
0001
,
0000
0000
0000
1000
0000
0000
0010
0000
,
0100
0000
0001
1000
0000
0000
0000
1000
,
0000
0000
0000
0010
0000
0000
0100
0000
,
0010
0000
0100
0001
0000
0000
0000
0001
,
0000
0010
0100
1000
,
0010
0000
0000
0100
0000
0000
0000
0100
,
0000
0001
1000
0010
,
0100
0010
0100
0000
,
0001
1000
0010
1000
,
0001
0100
0010
1000
,
0001
0000
0000
0000
,
1000
0010
0100
0000
,
0001
0100
0010
1000
,
0000
0000
1000
0010
,
0100
0001
1000
1000
,
0010
0100
0001
0000
,
0100
0000
0000
0010
,
1000
0010
0100
0001
,
0100
0010
1000
0001
,
0100
0010
0010
0000
,
1000
0001
0100
0010
,
0010
0000
0000
1000
0000
0000
0000
1000
,
0000
0000
0000
0010
0000
0000
0100
0000
,
0100
0000
0000
0001
0000
0000
0000
0001
,
0000
0000
0000
0100
0000
0000
0000
0000
,
0010
1000
0100
0010
,
0001
1000
1000
0010
,
0100
0000
0000
0000
;

//---------------dance-single - Copied from----------------
#NOTES:
     dance-single:
     Copied from:
     Beginner:
     1:
     0.071,0.083,0.000,0.000,0.000:
0000
0000
0000
0000
,
0000
0000
0000
0000
,
0000
0000
0000
0000
,
0000
0000
0000
0000
,
0000
0000
0000
1000
0000
0000
0000
1000
,
0000
0000
0000
1000
0000
0000
0000
0000
,
0000
0000
0000
0010
0000
0000
0000
0010
,
0000
0000
0000
0010
0000
0000
0000
0000
,
0000
0000
0000
0100
0000
0000
0000
0100
,
0000
0000
0000
0100
0000
0000
0000
0000
,
0000
0000
0000
0001
0000
0000
0000
0001
,
0000
0000
0000
0001
0000
0000
0000
0000
,
0000
0000
0000
1000
0000
0000
0000
1000
,
0000
0000
0000
1000
0000
0000
0000
0000
,
0000
0000
0000
0010
0000
0000
0000
0010
,
0000
0000
0000
0010
0000
0000
0000
0000
,
0000
0000
0000
0100
0000
0000
0000
0100
,
0000
0000
0000
0100
0000
0000
0000
0000
,
0000
0000
0000
0001
0000
0000
0000
0001
,
0000
0000
0000
0001
0000
0000
0000
0000
,
1000
0000
0000
0000
,
1000
0000
0000
0000
,
0000
0000
0001
0000
,
0001
0000
0000
0000
,
0000
0100
0000
0000
,
0100
0000
0000
0000
,
0010
0000
0000
0000
,
0010
0000
0000
0000
,
0000
0000
1000
0000
,
0010
0000
0000
0000
,
0000
1000
0000
0000
,
0010
0000
0000
0000
,
0000
0100
0000
0000
,
0001
0000
0000
0000
,
0000
0000
0000
1000
0000
0000
0000
1000
,
0000
0000
0000
1000
0000
0000
0000
0000
,
0000
0000
0000
0010
0000
0000
0000
0010
,
0000
0000
0000
0010
0000
0000
0000
0000
,
0000
0000
0000
0100
0000
0000
0000
0100
,
0000
0000
0000
0100
0000
0000
0000
0000
;
