#TITLE:Atom Bomb;
#SUBTITLE:;
#ARTIST:Red Vox;
#TITLETRANSLIT:;
#SUBTITLETRANSLIT:;
#ARTISTTRANSLIT:;
#GENRE:;
#CREDIT:;
#BANNER:Atom Bomb.png;
#BACKGROUND:Atom Bomb-bg.png;
#LYRICSPATH:;
#CDTITLE:;
#MUSIC:Atom Bomb.ogg;
#OFFSET:1.034800;
#SAMPLESTART:36.269146;
#SAMPLELENGTH:14.222225;
#LASTBEATHINT:0.012119;
#SELECTABLE:YES;
#DISPLAYBPM:135.000000;
#BPMS:0.000000=135.000000
,68.000000=135.259995
,84.000000=135.000000
,196.000000=136.000000
,200.000000=135.690002
;
#STOPS:
;
#BGCHANGES:;
#KEYSOUNDS:;
#ATTACKS:;

//---------------dance-single - ----------------
#NOTES:
     dance-single:
     :
     Hard:
     8:
     0.479147,0.587069,0.281013,0.181299,0.072520,370.000000,339.000000,31.000000,20.000000,0.000000,0.000000,0.479147,0.587069,0.281013,0.181299,0.072520,370.000000,339.000000,31.000000,20.000000,0.000000,0.000000:
0000
0000
0000
0010
,
0210
0000
0000
0001
0300
0001
0010
0001
,
0100
0000
0100
0010
0000
0010
1000
0001
,
1000
0100
2000
0000
0000
3000
0000
0001
,
0010
0100
1000
0100
0000
0000
1000
0000
,
1002
0000
0000
0010
0003
0010
0100
1000
,
0100
0000
0100
1000
0000
1000
0001
0010
,
0001
0010
0200
0000
0000
0300
0000
0010
,
0100
1000
0001
0010
0000
0000
0001
0000
,
0021
0000
0000
0100
0030
0100
1000
0001
,
1000
0000
1000
0010
0000
0010
0100
0001
,
0100
0010
0020
0000
0000
0030
0000
1000
,
0001
1000
0100
0010
0000
0000
0001
0000
,
1200
0000
0000
0010
0300
0010
0001
0010
,
0001
0000
0001
1000
0000
1000
0100
1000
,
0010
0000
0100
0010
0000
0100
0000
0001
,
1000
0001
1000
0010
0000
0000
0100
0010
,
0110
0100
0001
0101
0000
0000
0001
1000
,
1001
1000
0010
1010
0000
0000
0100
0001
,
0101
0001
0010
0011
0000
0000
1000
0010
,
0100
0001
0001
0100
0001
0001
1001
0000
,
2000
0000
0010
0010
3000
0100
0010
0000
,
0200
0000
0010
0010
0300
1000
0010
1000
,
0001
0100
0020
0000
1000
0000
1030
0001
,
0100
0001
0010
0001
0000
0001
0011
0000
,
0020
0000
0100
0100
0030
1000
0100
0000
,
2000
0000
0001
0001
3000
0010
0001
0010
,
0100
1000
0200
0000
0001
0000
0301
0000
,
0010
0001
1000
0100
0000
0100
1100
0000
,
0002
0000
0010
0010
0003
0100
0010
0000
,
0200
0000
1000
1000
0300
0010
1000
0010
,
0100
0001
0020
0000
0100
0000
0130
0000
,
1000
0010
0100
0001
0000
0001
0101
0000
,
0200
0000
0010
0010
0300
1000
0010
0000
,
2000
0000
0001
0001
3000
0100
0001
0100
,
0010
1000
0100
0000
0010
0001
0100
0000
,
0001
1000
0010
0000
0100
0001
0010
0000
,
1001
0000
1000
0010
0000
0010
0100
0010
,
0110
0000
0100
0001
0000
0001
1000
0001
,
0010
0001
0010
0000
0100
0010
0100
0000
,
1000
0100
1000
0000
0001
1000
0001
0000
,
0101
0000
0100
0010
0000
0010
1000
0010
,
1010
0000
1000
0001
0000
0001
0010
0001
,
0101
0100
0010
0000
0110
0010
1000
0000
,
1010
1000
0001
0000
1001
0001
0100
0000
,
0101
0100
0010
1000
0000
1000
0001
1000
,
1010
0010
0100
0001
0000
0001
1000
0010
,
1000
1000
0010
0000
0100
0100
0001
0000
,
0010
0010
0100
0000
1000
1000
1001
0000
,
0010
0100
0001
0010
0000
0010
0001
1000
,
1010
0010
0100
0010
0000
0010
1000
0001
,
0101
0100
0100
0000
0110
0010
0010
0000
,
1010
1000
1000
0000
1001
0001
0001
0000
,
0100
0000
0001
0100
0000
0010
0100
0000
0001
0100
0000
0010
1000
0000
0001
0000
,
1000
0000
0100
1000
0000
0001
1000
0000
0100
1000
0000
0001
0010
0000
0001
0000
,
0010
0000
0100
0010
0000
0001
0010
0000
0100
0010
0000
0001
0010
0000
0100
0000
,
1000
0000
0001
0100
0000
0010
0100
0000
0001
0010
0000
0001
1000
0000
0010
0000
,
0220
0000
0000
0000
,
0000
0000
0000
0000
0000
0000
0000
0330
;

//---------------dance-single - ----------------
#NOTES:
     dance-single:
     :
     Medium:
     5:
     0.295258,0.315460,0.154104,0.389793,0.000000,228.000000,211.000000,17.000000,43.000000,0.000000,0.000000,0.295258,0.315460,0.154104,0.389793,0.000000,228.000000,211.000000,17.000000,43.000000,0.000000,0.000000:
// measure 0
0000
0000
0000
1000
,  // measure 1
0002
0000
0000
0000
0003
1000
0100
0000
,  // measure 2
0010
0000
0010
0100
0000
0000
0010
0000
,  // measure 3
0001
0100
0002
0000
0000
0003
0000
0100
,  // measure 4
0010
0000
1000
0010
0000
0000
0100
0000
,  // measure 5
0020
0000
0000
0000
0030
1000
0001
0000
,  // measure 6
1000
0000
1000
0010
0000
0000
0100
0000
,  // measure 7
0010
1000
0020
0000
0000
0030
0000
0000
,  // measure 8
1000
0000
0001
0100
0000
0000
0001
0000
,  // measure 9
2000
0000
0000
0000
3000
0010
0100
0000
,  // measure 10
0010
0000
0010
1000
0000
0000
0001
0000
,  // measure 11
1000
0010
2000
0000
0000
3000
0000
0001
,  // measure 12
0100
0000
0100
0001
0000
0000
0010
0000
,  // measure 13
0200
0000
0000
0000
0300
0010
0001
0000
,  // measure 14
0010
0000
0010
1000
0000
0000
0010
0000
,  // measure 15
0100
0000
0100
0001
0000
0000
0100
0000
,  // measure 16
0010
0000
0100
0010
0000
0000
1000
0000
,  // measure 17
1100
0000
0000
2100
0000
0000
3001
0000
,  // measure 18
1001
0000
0000
1002
0000
0000
0013
0000
,  // measure 19
0110
0000
0000
0210
0000
0000
1300
0000
,  // measure 20
1020
0100
0130
0110
,  // measure 21
0200
0001
0301
0010
,  // measure 22
0002
1000
1003
0010
,  // measure 23
0100
0200
0010
0310
,  // measure 24
1000
0000
0000
0100
0000
0000
1100
0000
,  // measure 25
2000
0010
3010
0100
,  // measure 26
0002
0100
0103
0001
,  // measure 27
0010
0002
1000
1003
,  // measure 28
0001
0000
0000
0100
0000
0000
0101
0000
,  // measure 29
0200
0010
0301
0010
,  // measure 30
2000
0001
3100
0001
,  // measure 31
0100
0020
1000
1030
,  // measure 32
0010
0000
0000
0100
0000
0000
0110
0000
,  // measure 33
0002
0100
0013
0100
,  // measure 34
0020
1000
0130
1000
,  // measure 35
0100
0100
0001
0001
,  // measure 36
1000
1000
0010
0010
,  // measure 37
1002
0000
0000
1000
0000
0000
0103
0000
,  // measure 38
0010
1000
1000
0010
,  // measure 39
0002
0103
2000
3100
,  // measure 40
0002
0103
2000
3100
,  // measure 41
0210
0000
0000
0010
0000
0000
1300
0000
,  // measure 42
0001
1000
1000
0001
,  // measure 43
0020
0031
0200
0301
,  // measure 44
0020
0031
0200
0301
,  // measure 45
0021
0000
0000
0001
0000
0000
0130
0000
,  // measure 46
1000
0100
0100
1000
,  // measure 47
0020
1030
0002
1003
,  // measure 48
0020
1030
0002
1003
,  // measure 49
2010
0000
0000
0010
0000
0000
3001
0000
,  // measure 50
0100
0010
0010
0100
,  // measure 51
0200
0301
0002
1003
,  // measure 52
2000
3010
0010
0110
,  // measure 53
0001
0100
0001
0001
,  // measure 54
0100
0010
0100
0100
,  // measure 55
0010
1000
0010
0010
,  // measure 56
1000
0100
0001
0010
,  // measure 57
2002
0000
0000
0000
,  // measure 58
3003
0000
0000
0000
;

//---------------dance-single - ----------------
#NOTES:
     dance-single:
     :
     Easy:
     3:
     0.170939,0.206681,0.108779,0.108779,0.000000,132.000000,120.000000,12.000000,12.000000,0.000000,0.000000,0.170939,0.206681,0.108779,0.108779,0.000000,132.000000,120.000000,12.000000,12.000000,0.000000,0.000000:
0000
0000
0000
0000
,
1000
0000
0000
0001
,
1000
0000
1000
0000
,
0010
0010
0000
0000
,
0100
0000
1000
0000
,
0100
0000
0000
0010
,
0100
0000
0100
0000
,
0001
0000
0001
0000
,
1000
0000
0010
0000
,
1000
0000
0000
0100
,
1000
0000
1000
0000
,
0100
0100
0000
0000
,
0001
0000
0010
0000
,
0001
0000
0000
0100
,
0001
0000
0001
0000
,
1000
0000
1000
0000
,
0010
0000
0110
0000
,
0001
0002
0000
0003
,
1000
2000
0000
3000
,
0010
0020
0000
0030
,
0200
0000
0300
0000
,
0110
0000
0000
0000
,
0001
0000
0100
0000
,
0001
0002
0000
0003
,
1000
0000
0001
0000
,
1001
0000
0000
0000
,
0010
0000
1000
0000
,
0010
0020
0000
0030
,
0100
0000
0010
0000
,
0110
0000
0000
0000
,
1000
0000
0100
0000
,
1000
2000
0000
3000
,
0010
0000
0001
0000
,
1001
0000
0000
0000
,
0100
0000
1000
0000
,
0200
0300
0002
0003
,
0020
0030
2002
3003
,
0100
0010
0000
0010
,
1000
0010
0000
0010
,
0100
0000
0001
0000
,
0010
0000
0110
0000
,
0001
1000
0000
1000
,
0100
1000
0000
1000
,
0001
0000
1000
0000
,
0010
0000
0110
0000
,
1000
1000
0100
0000
,
0001
0001
0100
0000
,
0010
0000
0100
0000
,
0001
0000
1001
0000
,
0010
0001
0010
0000
,
0100
0010
0100
0000
,
0001
0000
1000
0000
,
0110
0000
1001
0000
,
1000
1000
0001
0000
,
0010
0010
0100
0000
,
0001
0001
0010
0000
,
0100
0100
1000
0000
,
1001
0000
0000
0000
;

//---------------dance-single - ----------------
#NOTES:
     dance-single:
     :
     Beginner:
     1:
     0.104894,0.155011,0.063455,0.072520,0.000000,81.000000,74.000000,7.000000,8.000000,0.000000,0.000000,0.104894,0.155011,0.063455,0.072520,0.000000,81.000000,74.000000,7.000000,8.000000,0.000000,0.000000:
0000
0000
0000
0000
,
0002
0000
0003
0000
,
1000
0000
0000
0000
,
0001
0000
0000
0000
,
0010
0000
0010
0000
,
0020
0000
0030
0000
,
0100
0000
0000
0000
,
1000
0000
0000
0000
,
0100
0000
0100
0000
,
0200
0000
0300
0000
,
0001
0000
0000
0000
,
0010
0000
0000
0000
,
1000
0000
1000
0000
,
2000
0000
3000
0000
,
0001
0000
0000
0000
,
0010
0000
0000
0000
,
0010
0000
0000
0000
,
1001
0000
0000
0000
,
0110
0000
0000
0000
,
1001
0000
0000
0000
,
0100
0000
0100
0000
,
0100
0000
0000
0000
,
0010
0000
0000
0000
,
1000
0000
0000
0000
,
0001
0000
0001
0000
,
0001
0000
0000
0000
,
0100
0000
0000
0000
,
0010
0000
0000
0000
,
1000
0000
1000
0000
,
1000
0000
0000
0000
,
0001
0000
0000
0000
,
1000
0000
0000
0000
,
0010
0000
0010
0000
,
0010
0000
0000
0000
,
0100
0000
0000
0000
,
0001
0000
0001
0000
,
1000
0000
1000
0000
,
1001
0000
0000
0000
,
0010
0000
0000
0000
,
0100
0000
0100
0000
,
0100
0000
0100
0000
,
0110
0000
0000
0000
,
1000
0000
0000
0000
,
0001
0000
0001
0000
,
0001
0000
0001
0000
,
1001
0000
0000
0000
,
0100
0000
0000
0000
,
0010
0000
0010
0000
,
0010
0000
0010
0000
,
0110
0000
0000
0000
,
0001
0000
0000
0000
,
1000
0000
1000
0000
,
1000
0000
1000
0000
,
0020
0000
0030
0000
,
0200
0000
0300
0000
,
0002
0000
0003
0000
,
2000
0000
3000
0000
,
0010
0000
0000
0000
;
