#TITLE:Roses;
#SUBTITLE:(feat. ROZES);
#ARTIST:The Chainsmokers;
#TITLETRANSLIT:;
#SUBTITLETRANSLIT:;
#ARTISTTRANSLIT:;
#GENRE:Future Bass;
#CREDIT:CuzcoBlocko;
#BANNER:;
#BACKGROUND:;
#LYRICSPATH:;
#CDTITLE:cdtitle.png;
#MUSIC:[Round 3] - Roses (feat. ROZES).ogg;
#OFFSET:0.000;
#SAMPLESTART:61.779;
#SAMPLELENGTH:12.000;
#SELECTABLE:YES;
#DISPLAYBPM:100.000;
#BPMS:0.000=100.000,
100.000=50.000,
101.500=-50.000,
109.500=50.000,
118.000=150.000,
118.375=100.000,
118.875=50.000,
119.000=100.000,
134.000=50.000,
134.250=100.000,
134.500=200.000,
135.000=100.000,
150.000=-50.000,
158.000=50.000,
166.250=100.000,
166.500=200.000,
167.000=100.000,
198.000=50.000,
198.250=150.000,
199.000=50.000,
199.125=150.000,
199.500=50.000,
199.625=150.000,
200.000=50.000,
200.250=150.000,
201.000=50.000,
201.125=150.000,
201.500=50.000,
201.625=150.000,
202.000=50.000,
202.188=150.000,
202.750=50.000,
202.813=150.000,
203.000=50.000,
203.125=150.000,
203.500=50.000,
203.625=150.000,
204.000=50.000,
204.125=150.000,
204.500=50.000,
204.625=150.000,
205.375=50.000,
205.625=150.000,
206.000=50.000,
206.250=150.000,
207.000=50.000,
207.125=150.000,
207.500=50.000,
207.625=150.000,
208.000=50.000,
208.250=150.000,
209.000=50.000,
209.125=150.000,
209.500=50.000,
209.625=150.000,
210.000=50.000,
210.125=150.000,
210.500=50.000,
210.563=150.000,
210.750=50.000,
210.813=150.000,
211.000=50.000,
211.125=150.000,
211.500=50.000,
211.625=150.000,
212.000=50.000,
212.125=150.000,
212.500=50.000,
212.625=150.000,
213.000=50.000,
213.250=150.000,
214.000=100.000,
229.500=50.000;
#STOPS:;
#BGCHANGES:;
#KEYSOUNDS:;
#ATTACKS:;

//---------------dance-single - Intriguing song for sure...----------------
#NOTES:
     dance-single:
     ITG 09 X 13:
     Hard:
     9:
     0.507097,0.715695,0.440705,0.801282,0.296474,443.000000,388.000000,55.000000,100.000000,25.000000,0.000000,0.507097,0.715695,0.440705,0.801282,0.296474,443.000000,388.000000,55.000000,100.000000,25.000000,0.000000:
0000
0000
0000
0000
,
0000
0000
0000
0000
,
0100
0000
1001
M100
0010
1000
0001
0010
,
0100
0000
0010
0001
1000
0000
0100
0000
0010
0000
0001
0000
2000
0000
0000
0000
,
3100
0000
1001
010M
0010
0001
1000
0020
,
0100
0000
0000
0130
0001
0000
0100
0000
0020
0000
0000
0000
2M3M
0000
0000
0000
,
3100
0000
1001
1000
0010
0100
0001
0020
,
0100
0000
0130
1000
0100
0000
0100
0000
0010
0000
0001
0000
0100
0000
0020
0000
,
1000
0000
1030
0001
0100
0000
0100
0000
0000
0000
0000
0000
0010
0000
0000
0000
,
0001
0000
0001
0000
0100
0000
0100
0000
1000
0000
1000
0000
0M2M
0000
0000
0030
,
0110
0000
1000
0100
1000
0000
1000
0100
1000
0000
0100
0000
0M00
0000
0001
0100
,
0001
0000
0001
0100
0001
0000
0001
0100
0001
0000
0100
0000
0010
1000
0010
0000
,
4000
0000
0000
0001
0000
0000
0000
0000
0000
0001
0000
0000
0000
0000
0000
0001
,
0000
0000
0000
0001
0000
0000
3040
0000
0000
0100
0000
0000
0000
0000
0000
0130
,
0001
0100
0010
0100
0001
0000
0001
0100
0010
0000
0100
0000
0001
0010
0100
0010
,
0001
0000
1000
0100
1000
0000
1000
0100
1000
0000
0100
0000
0010
0001
0010
0000
,
0400
0000
0000
0010
0000
0000
0000
0000
0000
0010
0000
0000
0000
0000
0000
0310
,
1000
0000
1000
0000
0100
0000
0100
0000
0001
0000
0001
0000
0020
0000
0000
0030
,
0110
0000
0002
2003
3100
0000
2000
3000
0002
0003
0002
0203
0310
0000
1000
0001
,
1000
0000
1000
0001
1000
0000
1010
0000
0010
1000
0010
0000
1010
0000
0010
1000
,
0001
0000
2000
3002
0103
0000
0002
0003
2000
3000
2000
3002
0013
0000
0200
0300
,
0001
0000
0002
0003
0010
0000
0010
0000
1000
0000
1000
0000
0200
0000
0010
0300
,
0110
0000
2000
3002
0103
0000
0102
0003
2000
3001
2000
3200
0310
0000
0011
0001
,
1000
0000
1000
0100
1000
0000
0011
0000
0001
0010
0001
0000
0011
0000
0001
1000
,
0001
1000
0020
0230
0301
1000
0200
0310
0002
1003
0002
0203
0310
1000
0200
0310
,
M010
0000
000M
M000
0M00
0000
00M0
0000
0M00
M000
000M
0000
0MM0
0000
0000
0000
M00M
0000
0000
0000
0000
0000
0000
0000
M000
0000
0000
0000
00M0
0000
0000
0000
,
0M00
0000
0000
0000
0000
0000
0000
0000
000M
0000
0000
0000
00M0
0000
0000
0000
0MM0
0000
0000
0000
00M0
00M0
00MM
00M0
00MM
0000
0000
0000
M000
0000
0000
0000
,
M0M0
0000
0000
0000
,
0000
0000
0000
0000
,
0000
0000
0000
0000
1001
0000
1000
0010
,
0100
0000
0000
0000
0001
0000
0010
0000
0110
0000
0020
0001
0031
0000
1000
0000
,
1010
0020
0130
0010
1001
0000
0001
0010
,
0100
0000
0000
0000
1000
0000
0010
0000
0110
0000
0020
1000
1030
0000
0001
0000
,
0011
0000
0000
0000
0000
0000
0000
0000
0020
0000
0000
0000
0000
0000
0000
0000
0130
0000
0000
0000
0000
0000
0000
0000
2000
0000
0000
0000
0000
0000
0000
0000
3010
0000
0000
0000
0000
0000
0000
0000
MMMM
0000
0000
0000
0000
0000
0000
0000
0002
0003
0000
0000
0000
0000
0000
0000
0011
0000
0000
0000
0000
0000
0000
0000
,
0100
0000
0000
0000
0000
0000
0000
0000
0000
0000
0000
0000
0000
0000
0000
0000
2000
3000
0000
0000
0000
0000
0000
0000
0010
0000
0000
0000
0000
0000
0000
0000
0110
0000
0000
0000
0000
0000
0000
0000
0020
0000
0000
0000
1000
0000
0000
0000
2030
3000
0000
0000
0000
0000
0000
0000
1001
0000
0000
0000
0000
0000
0000
0000
,
0011
0000
0000
0000
0000
0000
0000
0000
0020
0000
0000
0000
0100
0000
0000
0000
0130
0000
0000
0000
0000
0000
0000
0000
1000
0000
0000
0000
0000
0000
0000
0000
1001
0000
0000
0000
0000
0000
0000
0000
0000
0000
0000
0000
0000
0000
0000
0000
2000
3000
0000
0000
0000
0000
0000
0000
1010
0000
0000
0000
0000
0000
0000
0000
,
0100
0000
0000
0000
0000
0000
0000
0000
0000
0000
0000
0000
0000
0000
0000
0000
0002
0003
0000
0000
0000
0000
0000
0000
0100
0000
0000
0000
0000
0000
0000
0000
1000
0000
0000
0000
0000
0000
0000
0000
1000
0000
0000
0000
0000
0000
0000
0000
0020
0030
0000
0000
0000
0000
0000
0000
0010
0000
0000
0000
0000
0000
0000
0000
,
0001
0001
0200
0010
0310
0000
M00M
0000
,
0000
0000
0000
0000
,
0000
0000
0000
0000
,
0000
0000
0000
0000
,
0000
0000
0000
0000
0000
0000
0000
0000
0010
M00M
0MM0
0000
1001
0000
0002
0000
,
0203
0000
0300
0000
0101
0000
2000
0000
3200
0000
0300
1000
1200
0000
1300
0000
,
0200
0000
0320
0030
0011
0000
0002
1000
2003
0000
3010
0000
0110
0000
0020
0000
,
2030
0000
3000
0000
1100
0000
0200
0000
0320
0000
0030
0001
0021
0000
0130
0000
,
0020
0000
0000
0000
0000
0000
0000
0000
0032
0000
0000
0000
0003
0000
0000
0000
1001
0000
0000
0000
0000
0000
0000
0000
2000
0000
0000
0000
0000
0000
0000
0000
3010
0000
0000
0000
0000
0000
0000
0000
0100
0000
0000
0000
0000
0000
0000
0000
0102
0003
0000
0000
0000
0000
0000
0000
0020
0000
0000
0000
0000
0000
0000
0000
,
0130
0000
0000
0000
0000
0000
0000
0000
1000
0000
0000
0000
0000
0000
0000
0000
2001
3000
0000
0000
0000
0000
0000
0000
0020
0000
0000
0000
0000
0000
0000
0000
0230
0000
0000
0000
0000
0000
0000
0000
0301
0000
0000
0000
1000
0000
0000
0000
2200
3000
0000
0000
0000
0000
0000
0000
0310
0000
0000
0000
0000
0000
0000
0000
,
0200
0000
0000
0000
0000
0000
0000
0000
1300
0000
0000
0000
0010
0000
0000
0000
0100
0000
0000
0000
0000
0000
0000
0000
0002
0000
0000
0000
0000
0000
0000
0000
1000
0000
0000
0000
0000
0000
0000
0000
0023
0000
0000
0000
0000
0000
0030
0000
0120
0030
0000
0000
0000
0000
0000
0000
0002
0000
0000
0000
0000
0000
0000
0000
,
0203
0000
0000
0000
0000
0000
0000
0000
0300
0000
0000
0000
0000
0000
0000
0000
2010
3000
0000
0000
0000
0000
0000
0000
0200
0000
0000
0000
0000
0000
0000
0000
0301
0000
0000
0000
0000
0000
0000
0000
0001
0000
0000
0000
0000
0000
0000
0000
0020
0030
0000
0000
0000
0000
0000
0000
0010
0000
0000
0000
0000
0000
0000
0000
,
1000
1000
0100
0010
1001
0000
0001
0011
,
0010
0000
0000
0000
0100
0000
1000
0000
1001
0000
0000
0001
0010
0000
0100
0000
,
1100
1000
0M1M
0100
0101
0000
0010
1010
,
1000
0000
0000
0000
0001
0000
0100
0000
0110
0000
0010
1000
0001
0000
0011
0000
,
1010
0000
1000
0000
0200
0000
0000
0300
0110
0000
0001
0000
1000
0000
1020
0000
,
0230
0000
0000
0000
0301
0000
0000
0000
1000
0000
0000
0000
0020
0000
0000
0030
0210
0000
0000
0000
0301
0000
1000
0000
0200
0000
0000
0300
0011
0000
0000
0000
,
0210
0000
2300
0001
3001
0000
0200
0000
0010
0000
1300
0000
0100
0000
0102
0000
,
2003
0000
0000
0000
3100
0000
0000
0000
0001
0000
0000
0000
0200
0000
0000
0300
0120
0000
0000
0000
0031
0000
1000
0000
0020
0000
0000
0030
0101
0000
0000
0000
,
0120
0000
1030
0001
0020
0000
0200
0000
0300
0000
0030
0000
0000
0000
0000
0000
;

//---------------dance-single - Yea.----------------
#NOTES:
     dance-single:
     ITG 09 X 13 (no rolls):
     Edit:
     9:
     0.531135,0.715695,0.440705,0.801282,0.296474,464.000000,409.000000,55.000000,100.000000,25.000000,0.000000,0.531135,0.715695,0.440705,0.801282,0.296474,464.000000,409.000000,55.000000,100.000000,25.000000,0.000000:
0000
0000
0000
0000
,
0000
0000
0000
0000
,
0100
0000
1001
M100
0010
1000
0001
0010
,
0100
0000
0010
0001
1000
0000
0100
0000
0010
0000
0001
0000
2000
0000
0000
0000
,
3100
0000
1001
010M
0010
0001
1000
0020
,
0100
0000
0000
0130
0001
0000
0100
0000
0020
0000
0000
0000
2M3M
0000
0000
0000
,
3100
0000
1001
1000
0010
0100
0001
0020
,
0100
0000
0130
1000
0100
0000
0100
0000
0010
0000
0001
0000
0100
0000
0020
0000
,
1000
0000
1030
0001
0100
0000
0100
0000
0000
0000
0000
0000
0010
0000
0000
0000
,
0001
0000
0001
0000
0100
0000
0100
0000
1000
0000
1000
0000
0M2M
0000
0000
0030
,
0110
0000
1000
0100
1000
0000
1000
0100
1000
0000
0100
0000
0M00
0000
0001
0100
,
0001
0000
0001
0100
0001
0000
0001
0100
0001
0000
0100
0000
0010
1000
0010
0000
,
1000
0000
1000
0001
1000
0000
1000
0000
1000
0001
1000
0000
1000
0000
1000
0001
,
1000
0000
1000
0001
1000
0000
0010
0000
0010
0100
0010
0000
0010
0000
0010
0100
,
0001
0100
0010
0100
0001
0000
0001
0100
0010
0000
0100
0000
0001
0010
0100
0010
,
0001
0000
1000
0100
1000
0000
1000
0100
1000
0000
0100
0000
0010
0001
0010
0000
,
0100
0000
0100
0010
0100
0000
0100
0000
0100
0010
0100
0000
0100
0000
0100
0010
,
1000
0000
1000
0000
0100
0000
0100
0000
0001
0000
0001
0000
0020
0000
0000
0030
,
0110
0000
0002
2003
3100
0000
2000
3000
0002
0003
0002
0203
0310
0000
1000
0001
,
1000
0000
1000
0001
1000
0000
1010
0000
0010
1000
0010
0000
1010
0000
0010
1000
,
0001
0000
2000
3002
0103
0000
0002
0003
2000
3000
2000
3002
0013
0000
0200
0300
,
0001
0000
0002
0003
0010
0000
0010
0000
1000
0000
1000
0000
0200
0000
0010
0300
,
0110
0000
2000
3002
0103
0000
0102
0003
2000
3001
2000
3200
0310
0000
0011
0001
,
1000
0000
1000
0100
1000
0000
0011
0000
0001
0010
0001
0000
0011
0000
0001
1000
,
0001
1000
0020
0230
0301
1000
0200
0310
0002
1003
0002
0203
0310
1000
0200
0310
,
M010
0000
000M
M000
0M00
0000
00M0
0000
0M00
M000
000M
0000
0MM0
0000
0000
0000
M00M
0000
0000
0000
0000
0000
0000
0000
M000
0000
0000
0000
00M0
0000
0000
0000
,
0M00
0000
0000
0000
0000
0000
0000
0000
000M
0000
0000
0000
00M0
0000
0000
0000
0MM0
0000
0000
0000
00M0
00M0
00MM
00M0
00MM
0000
0000
0000
M000
0000
0000
0000
,
M0M0
0000
0000
0000
,
0000
0000
0000
0000
,
0000
0000
0000
0000
1001
0000
1000
0010
,
0100
0000
0000
0000
0001
0000
0010
0000
0110
0000
0020
0001
0031
0000
1000
0000
,
1010
0020
0130
0010
1001
0000
0001
0010
,
0100
0000
0000
0000
1000
0000
0010
0000
0110
0000
0020
1000
1030
0000
0001
0000
,
0011
0000
0000
0000
0000
0000
0000
0000
0020
0000
0000
0000
0000
0000
0000
0000
0130
0000
0000
0000
0000
0000
0000
0000
2000
0000
0000
0000
0000
0000
0000
0000
3010
0000
0000
0000
0000
0000
0000
0000
MMMM
0000
0000
0000
0000
0000
0000
0000
0002
0003
0000
0000
0000
0000
0000
0000
0011
0000
0000
0000
0000
0000
0000
0000
,
0100
0000
0000
0000
0000
0000
0000
0000
0000
0000
0000
0000
0000
0000
0000
0000
2000
3000
0000
0000
0000
0000
0000
0000
0010
0000
0000
0000
0000
0000
0000
0000
0110
0000
0000
0000
0000
0000
0000
0000
0020
0000
0000
0000
1000
0000
0000
0000
2030
3000
0000
0000
0000
0000
0000
0000
1001
0000
0000
0000
0000
0000
0000
0000
,
0011
0000
0000
0000
0000
0000
0000
0000
0020
0000
0000
0000
0100
0000
0000
0000
0130
0000
0000
0000
0000
0000
0000
0000
1000
0000
0000
0000
0000
0000
0000
0000
1001
0000
0000
0000
0000
0000
0000
0000
0000
0000
0000
0000
0000
0000
0000
0000
2000
3000
0000
0000
0000
0000
0000
0000
1010
0000
0000
0000
0000
0000
0000
0000
,
0100
0000
0000
0000
0000
0000
0000
0000
0000
0000
0000
0000
0000
0000
0000
0000
0002
0003
0000
0000
0000
0000
0000
0000
0100
0000
0000
0000
0000
0000
0000
0000
1000
0000
0000
0000
0000
0000
0000
0000
1000
0000
0000
0000
0000
0000
0000
0000
0020
0030
0000
0000
0000
0000
0000
0000
0010
0000
0000
0000
0000
0000
0000
0000
,
0001
0001
0200
0010
0310
0000
M00M
0000
,
0000
0000
0000
0000
,
0000
0000
0000
0000
,
0000
0000
0000
0000
,
0000
0000
0000
0000
0000
0000
0000
0000
0010
M00M
0MM0
0000
1001
0000
0002
0000
,
0203
0000
0300
0000
0101
0000
2000
0000
3200
0000
0300
1000
1200
0000
1300
0000
,
0200
0000
0320
0030
0011
0000
0002
1000
2003
0000
3010
0000
0110
0000
0020
0000
,
2030
0000
3000
0000
1100
0000
0200
0000
0320
0000
0030
0001
0021
0000
0130
0000
,
0020
0000
0000
0000
0000
0000
0000
0000
0032
0000
0000
0000
0003
0000
0000
0000
1001
0000
0000
0000
0000
0000
0000
0000
2000
0000
0000
0000
0000
0000
0000
0000
3010
0000
0000
0000
0000
0000
0000
0000
0100
0000
0000
0000
0000
0000
0000
0000
0102
0003
0000
0000
0000
0000
0000
0000
0020
0000
0000
0000
0000
0000
0000
0000
,
0130
0000
0000
0000
0000
0000
0000
0000
1000
0000
0000
0000
0000
0000
0000
0000
2001
3000
0000
0000
0000
0000
0000
0000
0020
0000
0000
0000
0000
0000
0000
0000
0230
0000
0000
0000
0000
0000
0000
0000
0301
0000
0000
0000
1000
0000
0000
0000
2200
3000
0000
0000
0000
0000
0000
0000
0310
0000
0000
0000
0000
0000
0000
0000
,
0200
0000
0000
0000
0000
0000
0000
0000
1300
0000
0000
0000
0010
0000
0000
0000
0100
0000
0000
0000
0000
0000
0000
0000
0002
0000
0000
0000
0000
0000
0000
0000
1000
0000
0000
0000
0000
0000
0000
0000
0023
0000
0000
0000
0000
0000
0030
0000
0120
0030
0000
0000
0000
0000
0000
0000
0002
0000
0000
0000
0000
0000
0000
0000
,
0203
0000
0000
0000
0000
0000
0000
0000
0300
0000
0000
0000
0000
0000
0000
0000
2010
3000
0000
0000
0000
0000
0000
0000
0200
0000
0000
0000
0000
0000
0000
0000
0301
0000
0000
0000
0000
0000
0000
0000
0001
0000
0000
0000
0000
0000
0000
0000
0020
0030
0000
0000
0000
0000
0000
0000
0010
0000
0000
0000
0000
0000
0000
0000
,
1000
1000
0100
0010
1001
0000
0001
0011
,
0010
0000
0000
0000
0100
0000
1000
0000
1001
0000
0000
0001
0010
0000
0100
0000
,
1100
1000
0M1M
0100
0101
0000
0010
1010
,
1000
0000
0000
0000
0001
0000
0100
0000
0110
0000
0010
1000
0001
0000
0011
0000
,
1010
0000
1000
0000
0200
0000
0000
0300
0110
0000
0001
0000
1000
0000
1020
0000
,
0230
0000
0000
0000
0301
0000
0000
0000
1000
0000
0000
0000
0020
0000
0000
0030
0210
0000
0000
0000
0301
0000
1000
0000
0200
0000
0000
0300
0011
0000
0000
0000
,
0210
0000
2300
0001
3001
0000
0200
0000
0010
0000
1300
0000
0100
0000
0102
0000
,
2003
0000
0000
0000
3100
0000
0000
0000
0001
0000
0000
0000
0200
0000
0000
0300
0120
0000
0000
0000
0031
0000
1000
0000
0020
0000
0000
0030
0101
0000
0000
0000
,
0120
0000
1030
0001
0020
0000
0200
0000
0300
0000
0030
0000
0000
0000
0000
0000
;

//---------------dance-single - Hi.----------------
#NOTES:
     dance-single:
     ITG 06 X 10:
     Medium:
     6:
     0.345696,0.412861,0.200321,0.296474,0.028045,302.000000,277.000000,25.000000,37.000000,4.000000,0.000000,0.345696,0.412861,0.200321,0.296474,0.028045,302.000000,277.000000,25.000000,37.000000,4.000000,0.000000:
0000
0000
0000
0000
,
0000
0000
0000
0000
,
1000
0000
0010
0100
0000
0000
0010
0000
,
1000
0000
0000
0100
0010
0000
0100
0000
1000
0000
0000
0000
0010
0000
00M0
0000
,
0001
0000
0010
0100
0000
0000
0010
0000
,
0001
0000
0000
0100
0010
0000
0100
0000
0001
0000
0000
0000
0011
0000
000M
0000
,
0100
0000
1000
0100
0000
0000
0010
0000
,
0001
0000
0000
0100
0010
0000
0100
0000
0001
0000
0000
0000
0010
0000
00M0
0000
,
0100
0000
0001
0010
0000
0000
0001
0000
,
0200
0000
0000
0000
2300
0000
0000
0000
3020
0000
0000
0030
0011
0000
0000
0000
,
2000
0001
0001
0000
,
3200
0010
0010
1300
,
0002
0000
1000
0000
1000
1000
0000
1000
,
1000
0000
1000
0023
0100
0100
0000
0100
,
0032
1000
1000
0000
,
0203
0010
0010
0301
,
2000
0000
0001
0000
0001
0001
0000
0001
,
3200
0302
0023
1030
,
0001
0010
0001
1000
0001
0100
0001
0000
,
1001
1100
0011
0110
,
1000
0010
1000
0001
1000
0100
1000
0001
,
0101
1100
1010
0011
,
1000
0010
1000
0001
1000
0100
1000
0001
,
0100
0001
1000
0001
0010
0001
1000
0001
,
0100
0100
0010
0010
1000
1000
0100
0200
,
0020
0000
0000
M33M
M00M
0000
0000
0000
,
0000
0000
0000
0000
,
0000
0000
0000
0000
,
0000
0000
0000
0000
,
0000
0000
0000
0000
1001
0000
0001
0010
,
0100
0000
1000
0010
0010
0001
1000
0010
,
0010
0001
1000
0020
0100
0000
1030
0010
,
0100
0000
0001
0010
0010
1000
0001
0010
,
0010
1000
0001
0020
0200
0330
1001
0001
,
0100
0000
1001
1000
0100
0010
0010
1000
,
0100
0010
0010
2000
0100
3000
1001
1000
,
0100
0000
1001
0001
0200
0000
1300
1000
,
0010
0010
0002
0000
M1M3
0000
M000
0000
,
0000
0000
0000
0000
,
0000
0000
0000
0000
,
0000
0000
0000
0000
,
0000
0000
0000
0000
0100
0M00
1000
0010
,
0100
0000
0001
1000
1100
0000
0101
0000
,
1100
1000
0001
0100
0100
1000
0001
0010
,
0100
0000
1000
0100
0110
0000
1001
0000
,
1001
1000
0000
0100
1000
0000
0001
0010
,
0100
0000
1000
0001
0101
0000
1100
0000
,
0101
0001
1000
0100
0100
0001
1000
0010
,
0100
0000
0001
0100
0020
0000
0031
0001
,
0100
0100
1000
0100
0001
0000
0100
0001
,
0100
0000
0000
0000
1000
0000
0100
0000
1000
0000
0000
1000
0010
0000
1000
0000
,
0010
0100
0201
0000
1300
0000
0100
1000
,
0100
0000
0000
0000
0001
0000
1000
0000
0010
0000
0000
0010
0001
0000
0100
0000
,
0100
1000
0010
0000
0001
0000
0010
2000
,
3200
0000
0300
0000
0010
0000
0200
0000
2300
0000
3000
0010
2000
0000
3001
0000
,
2000
3200
0310
0020
1000
0030
0010
0002
,
0203
0000
0300
0000
0010
0000
0200
0000
0302
0000
0003
0010
0002
0000
1003
0000
,
0002
0013
0100
0000
0000
0000
0000
0000
;

//---------------dance-single - Eh... I don't know.----------------
#NOTES:
     dance-single:
     ITG 01 X 02:
     Beginner:
     1:
     0.105311,0.159856,0.032051,0.000000,0.000000,92.000000,88.000000,4.000000,0.000000,0.000000,0.000000,0.105311,0.159856,0.032051,0.000000,0.000000,92.000000,88.000000,4.000000,0.000000,0.000000,0.000000:
0000
0000
0000
0000
,
0000
0000
0000
0000
,
0001
0000
0000
0000
,
0001
0000
0010
0000
,
0100
0000
0000
0000
,
1000
0000
0010
0000
,
0100
0000
0000
0000
,
0100
0000
0001
0000
,
1000
0000
0000
0000
,
1000
0000
1000
0000
,
0001
0000
0000
0000
,
0100
0000
0000
0000
,
0010
0000
0000
0000
,
0000
0000
0000
0000
,
1000
0000
0000
0000
,
0100
0000
0000
0000
,
0010
0000
0000
0000
,
0001
0000
0001
0000
,
0100
0000
0000
0000
,
0100
0000
0000
0000
,
0010
0000
0000
0000
,
0010
0000
0010
0000
,
1000
0000
1000
0000
,
0001
0000
0001
0000
,
0010
0010
0010
0000
,
0000
0000
0000
0000
,
0000
0000
0000
0000
,
0000
0000
0000
0000
,
0000
0000
0000
0000
,
0000
0000
1001
0000
,
1000
0000
0010
0000
,
0010
0000
1000
0000
,
0001
0000
0010
0000
,
0010
0000
0110
0000
,
0001
0000
0100
0000
,
0100
0000
0010
0000
,
1000
0000
0100
0000
,
0100
0000
0110
0000
,
0000
0000
0000
0000
,
0000
0000
0000
0000
,
0000
0000
0000
0000
,
0000
0000
0110
0000
,
0001
0000
0100
0100
,
0100
0000
0001
0000
,
0100
0000
0010
0010
,
0010
0000
1001
0000
,
1000
0000
0100
0100
,
0100
0000
0010
0000
,
0100
0000
1000
1000
,
1000
0000
0001
0000
,
0100
0000
0010
0010
,
0010
0000
1000
0000
,
0001
0000
0010
0010
,
0010
0000
0100
0000
,
1000
0000
0001
0001
,
0001
0000
0010
0000
,
0100
0000
1000
1000
,
1000
0000
0000
0000
;
