#VERSION:0.83;
#TITLE:Bailando (feat. Descemer Bueno & Gente de Zona);
#SUBTITLE:;
#ARTIST:Enrique Iglesias;
#TITLETRANSLIT:;
#SUBTITLETRANSLIT:;
#ARTISTTRANSLIT:;
#GENRE:Reggaeton;
#ORIGIN:;
#CREDIT:;
#BANNER:;
#BACKGROUND:;
#PREVIEWVID:;
#JACKET:;
#CDIMAGE:;
#DISCIMAGE:;
#LYRICSPATH:;
#CDTITLE:;
#MUSIC:Bailando (feat. Descemer Bueno & Gente de Zona).mp3;
#OFFSET:-0.059454;
#SAMPLESTART:103.879883;
#SAMPLELENGTH:15.000000;
#SELECTABLE:YES;
#BPMS:0.000=182.000;
#STOPS:;
#DELAYS:;
#WARPS:;
#TIMESIGNATURES:0.000=4=4;
#TICKCOUNTS:0.000=4;
#COMBOS:0.000=1;
#SPEEDS:0.000=1.000=0.000=0;
#SCROLLS:0.000=1.000;
#FAKES:;
#LABELS:0.000=Song Start;
#BGCHANGES:;
#KEYSOUNDS:;
#ATTACKS:
;

//---------------dance-single - ----------------
#NOTEDATA:;
#CHARTNAME:;
#STEPSTYPE:dance-single;
#DESCRIPTION:;
#CHARTSTYLE:;
#DIFFICULTY:Beginner;
#METER:1;
#RADARVALUES:0.061678,0.110335,0.007995,0.000000,0.000000,54.000000,53.000000,1.000000,0.000000,0.000000,0.000000,0.000000,0.000000,0.000000,0.061678,0.110335,0.007995,0.000000,0.000000,54.000000,53.000000,1.000000,0.000000,0.000000,0.000000,0.000000,0.000000,0.000000;
#CREDIT:RIME;
#NOTES:
0000
0000
0000
0000
,
0000
0000
0000
0000
,
0000
0000
0000
0000
,
0000
0000
0000
0000
,
1000
0000
0000
0000
,
0000
0000
0000
0000
,
1000
0000
0000
0000
,
0000
0000
0000
0000
,
0001
0000
0000
0000
,
0000
0000
0000
0000
,
0001
0000
0000
0000
,
0000
0000
0000
0000
,
0010
0000
0000
0000
,
0000
0000
0000
0000
,
0010
0000
0000
0000
,
0000
0000
0000
0000
,
0100
0000
0000
0000
,
0000
0000
0000
0000
,
0100
0000
0000
0000
,
0000
0000
0000
0000
,
1000
0000
0000
0000
,
0000
0000
0000
0000
,
0001
0000
0000
0000
,
0000
0000
0000
0000
,
1000
0000
0000
0000
,
0000
0000
0000
0000
,
0001
0000
0000
0000
,
0000
0000
0000
0000
,
0010
0000
0000
0000
,
0000
0000
0000
0000
,
0100
0000
0000
0000
,
0000
0000
0000
0000
,
0010
0000
0000
0000
,
0000
0000
0000
0000
,
0100
0000
0000
0000
,
0000
0000
0000
0000
,
1000
0000
0000
0000
,
1000
0000
0000
0000
,
1000
0000
0000
0000
,
0000
0000
0000
0000
,
0001
0000
0000
0000
,
0001
0000
0000
0000
,
0001
0000
0000
0000
,
0000
0000
0000
0000
,
0010
0000
0000
0000
,
0010
0000
0000
0000
,
0010
0000
0000
0000
,
0000
0000
0000
0000
,
0100
0000
0000
0000
,
0100
0000
0000
0000
,
0100
0000
0000
0000
,
0000
0000
0000
0000
,
0010
0000
0000
0000
,
0000
0000
0000
0000
,
0010
0000
0000
0000
,
0000
0000
0000
0000
,
0001
0000
0000
0000
,
0000
0000
0000
0000
,
0001
0000
0000
0000
,
0000
0000
0000
0000
,
1000
0000
0000
0000
,
0000
0000
0000
0000
,
1000
0000
0000
0000
,
0000
0000
0000
0000
,
0100
0000
0000
0000
,
0000
0000
0000
0000
,
0100
0000
0000
0000
,
0000
0000
0000
0000
,
0010
0000
0000
0000
,
0010
0000
0000
0000
,
0010
0000
0000
0000
,
0000
0000
0000
0000
,
0100
0000
0000
0000
,
0100
0000
0000
0000
,
0100
0000
0000
0000
,
0000
0000
0000
0000
,
1000
0000
0000
0000
,
1000
0000
0000
0000
,
1000
0000
0000
0000
,
0000
0000
0000
0000
,
0001
0000
0000
0000
,
0001
0000
0000
0000
,
0001
0000
0000
0000
,
0000
0000
0000
0000
,
1000
0000
0000
0000
,
0000
0000
0000
0000
,
1000
0000
0000
0000
,
0000
0000
0000
0000
,
0001
0000
0000
0000
,
0000
0000
0000
0000
,
0001
0000
0000
0000
,
0000
0000
0000
0000
,
1001
0000
0000
0000
;

//---------------dance-single - ----------------
#NOTEDATA:;
#CHARTNAME:;
#STEPSTYPE:dance-single;
#DESCRIPTION:;
#CHARTSTYLE:;
#DIFFICULTY:Easy;
#METER:2;
#RADARVALUES:0.156479,0.220669,0.087948,0.095943,0.000000,137.000000,126.000000,11.000000,12.000000,0.000000,0.000000,0.000000,0.000000,0.000000,0.156479,0.220669,0.087948,0.095943,0.000000,137.000000,126.000000,11.000000,12.000000,0.000000,0.000000,0.000000,0.000000,0.000000;
#CREDIT:RIME;
#NOTES:
0000
0000
0000
0000
,
0000
0000
0000
0000
,
0000
0000
0000
0000
,
0000
0000
0000
0000
,
1000
0000
0001
0000
,
1000
0000
0001
0000
,
0100
0000
0010
0000
,
0100
0000
0010
0000
,
1000
0000
0010
0000
,
1000
0000
0010
0000
,
0100
0000
0001
0000
,
0100
0000
0001
0000
,
1000
0000
0001
0000
,
1000
0000
0001
0000
,
0010
0000
0100
0000
,
0010
0000
0100
0000
,
1000
0000
0100
0000
,
1000
0000
0100
0000
,
0010
0000
0001
0000
,
0011
0000
0000
0000
,
0001
0000
0001
0000
,
0001
0000
0100
0000
,
0010
0000
0000
0000
,
0010
0000
0000
0000
,
1000
0000
1000
0000
,
1000
0000
0100
0000
,
0010
0000
0000
0000
,
0010
0000
0000
0000
,
0001
0000
0001
0000
,
0001
0000
1000
0000
,
0010
0000
0000
0000
,
0010
0000
0000
0000
,
1000
0000
1000
0000
,
1000
0000
0001
0000
,
0100
0000
0000
0000
,
0100
0000
0000
0000
,
0020
0000
0000
0000
,
2030
0000
0000
0000
,
3020
0000
0000
0000
,
2030
0000
0000
0000
,
3001
0000
1000
0000
,
0001
0000
1000
0000
,
1001
0000
0000
0000
,
0001
0000
0000
0000
,
0020
0000
0000
0000
,
0032
0000
0000
0000
,
0023
0000
0000
0000
,
0032
0000
0000
0000
,
1003
0000
0001
0000
,
1000
0000
0001
0000
,
1001
0000
0000
0000
,
1000
0000
0000
0000
,
0100
0000
0000
0000
,
0100
0000
0000
0000
,
0010
0000
0000
0000
,
0001
0000
0000
0000
,
1000
0000
1000
0000
,
1000
0000
0000
0000
,
0001
0000
0001
0000
,
0001
0000
0000
0000
,
0100
0000
0000
0000
,
0100
0000
0000
0000
,
0010
0000
0000
0000
,
1000
0000
0000
0000
,
0001
0000
0001
0000
,
0001
0000
0000
0000
,
1000
0000
1000
0000
,
1000
0000
0000
0000
,
1001
0000
0000
0000
,
0110
0000
0000
0000
,
1001
0000
0000
0000
,
1001
0000
0000
0000
,
0001
0000
0100
0000
,
0001
0000
0000
0000
,
1000
0000
0100
0000
,
1000
0000
0000
0000
,
1001
0000
0000
0000
,
0110
0000
0000
0000
,
1001
0000
0000
0000
,
1001
0000
0000
0000
,
0001
0000
0010
0000
,
0001
0000
0000
0000
,
1000
0000
0010
0000
,
1000
0000
0000
0000
,
0000
0000
0000
0002
0000
0000
0000
0000
,
1003
0000
0000
0000
,
0000
0000
0000
2000
0000
0000
0000
0000
,
3001
0000
0000
0000
,
0000
0000
0000
0000
0000
1000
0000
0000
,
0000
2000
0000
0000
3002
0000
0000
1003
,
0000
0000
0000
0000
,
0001
0000
0010
0000
,
0100
0000
0000
0000
;

//---------------dance-single - ----------------
#NOTEDATA:;
#CHARTNAME:;
#STEPSTYPE:dance-single;
#DESCRIPTION:;
#CHARTSTYLE:;
#DIFFICULTY:Medium;
#METER:7;
#RADARVALUES:0.396337,0.478117,0.151910,0.151910,0.003998,347.000000,328.000000,19.000000,19.000000,0.000000,0.000000,0.000000,0.000000,0.000000,0.396337,0.478117,0.151910,0.151910,0.003998,347.000000,328.000000,19.000000,19.000000,0.000000,0.000000,0.000000,0.000000,0.000000;
#CREDIT:RIME;
#NOTES:
0000
0000
0000
0000
,
0000
0000
0000
0000
,
0000
0000
0000
0000
,
0000
0000
0000
0000
,
1000
0000
0000
0001
1000
0000
0000
0000
,
0010
0000
0000
0000
0100
0000
0000
0001
,
0100
0000
0001
0000
,
1000
0100
0010
0001
,
1000
0010
0000
0010
0000
0000
1000
0000
,
0000
0000
0001
0000
0000
0000
0001
0000
0000
0000
0000
0000
,
1000
0000
0100
0000
,
0010
0100
0000
0000
0010
0000
0000
0000
,
0011
0000
0001
1000
,
1010
0000
1000
0001
,
0101
0000
0001
0000
,
0010
0100
0000
0000
1000
0000
1000
0000
,
0002
0100
1000
0103
,
0000
0000
0001
1000
,
0001
0000
0010
0100
,
1000
0000
0000
0010
0010
0000
0000
0000
,
0000
1000
0000
0000
0001
0000
0010
0000
,
0100
1000
0100
0001
,
0100
0000
0010
0001
,
0100
0000
0010
1000
,
0000
0100
0000
0000
0010
0000
0001
0000
,
0010
0100
0010
1000
,
0010
0000
0001
0000
0001
0000
1000
0001
,
1000
0010
0100
0001
,
0000
1000
0000
0000
1000
0000
0001
0000
,
0010
0000
0010
0000
0100
0000
1000
0001
,
0000
1000
0000
1010
0000
0000
0000
0000
,
0010
1000
0001
0010
,
0000
0100
0010
0100
,
1000
1000
0001
0100
,
1000
0000
0100
0000
,
0001
0000
0010
0000
0100
0010
0000
0010
,
0000
0002
0000
1003
0000
0001
0000
0001
,
0000
0200
0000
0310
0000
0100
0000
0100
,
0000
0001
1000
0001
0000
0010
0000
0010
,
0000
0100
0010
0100
0000
1000
0000
1000
,
0000
0001
0000
0001
0000
0100
0010
0100
,
0000
0001
0000
0001
0000
1000
0000
1000
,
0000
0100
0000
0010
0000
0010
0000
0010
,
0000
0100
0000
1000
0001
1000
0000
0010
,
0000
0010
0000
0100
0000
0100
0000
0001
,
0000
0001
0000
1000
0000
0001
1000
0001
,
0000
0010
0000
0010
0000
0100
0000
0100
,
0000
1000
0000
0001
0000
0001
1000
0001
,
0000
1000
0001
1000
0000
0010
0100
0010
,
0000
0100
0010
0100
0000
0010
0100
0010
,
0000
1000
0000
0000
0001
0000
0010
0000
,
0100
0000
0000
0010
0010
0000
0001
0000
,
2001
0010
0001
3010
,
2010
0001
0010
3001
,
1002
0100
1000
0103
,
0102
1000
0100
1003
,
0000
0001
0000
0000
0010
0000
0000
0100
,
0000
1000
0000
0000
0010
0000
0000
0100
,
0000
0001
0000
0000
0100
0000
0000
0020
,
0000
1030
0000
0010
1000
0000
0001
0000
,
0012
1000
0010
1003
,
2001
0010
0001
3010
,
1020
0100
1000
0130
,
0210
0000
0001
0000
0010
0000
0301
0100
,
0000
0010
0000
0000
1000
0000
0000
0001
,
0000
0010
0000
0000
0100
0000
0000
1000
,
0000
0010
0000
0000
0100
0000
0000
0001
,
0000
1000
0001
1000
0001
0000
0010
0000
,
0110
0000
0000
0100
1000
0000
0001
0000
,
1001
0000
0000
0001
0100
0000
0010
0000
,
0110
0000
0000
0010
1000
0000
0001
0000
,
1000
0001
0000
1000
0001
0000
0010
0200
,
0000
0000
0000
1300
0000
0000
0000
0000
,
0100
1000
0000
1000
0001
0000
0100
0002
,
0000
0000
0000
0013
0000
0000
0000
0000
,
0000
0001
1000
0001
1000
0000
0010
0000
,
0110
0000
0000
0010
1000
0000
0001
0000
,
1001
0000
0000
0001
0010
0000
0100
0000
,
0110
0000
0000
0100
1000
0000
0001
0000
,
1000
0001
0000
1000
0001
0000
0100
0002
,
0000
0000
0000
0013
0000
0000
0000
0000
,
0001
0010
0000
0001
0010
0000
0100
2000
,
0000
0000
0000
3001
0000
0000
0000
0000
,
1000
0000
0000
0010
0010
0000
0100
0000
,
0002
0000
0000
1003
0000
0001
0000
0010
,
0100
0010
0100
0000
0000
0000
0000
0000
,
2000
0000
0000
3001
0000
1000
0000
0010
,
0100
0010
0100
0000
0000
0000
0000
0000
,
0002
0000
0000
0010
0000
0100
0000
0100
,
0000
1000
0000
1003
0001
0000
1000
0001
,
0000
0000
0000
0001
0010
0000
0000
0000
,
0001
0010
0100
1000
,
1001
0000
0000
0000
;

//---------------dance-single - ----------------
#NOTEDATA:;
#CHARTNAME:;
#STEPSTYPE:dance-single;
#DESCRIPTION:;
#CHARTSTYLE:;
#DIFFICULTY:Hard;
#METER:9;
#RADARVALUES:0.645332,0.625230,0.263844,0.263844,0.095943,565.000000,532.000000,33.000000,33.000000,0.000000,0.000000,0.000000,0.000000,0.000000,0.645332,0.625230,0.263844,0.263844,0.095943,565.000000,532.000000,33.000000,33.000000,0.000000,0.000000,0.000000,0.000000,0.000000;
#CREDIT:RIME;
#NOTES:
0000
0000
0000
0000
,
0000
0000
0000
0000
,
0000
0000
0000
0000
,
1000
0000
0000
0001
0000
0000
0010
0000
0100
0000
0000
1000
0000
0000
0001
0000
,
1000
0000
0000
0000
0010
0000
0100
0000
0010
0000
0000
0010
0000
0000
0010
0000
,
1000
0000
0000
0000
0001
0000
0010
0000
0011
0000
0000
0000
0001
0000
1000
0010
,
0100
0000
0001
1000
0001
0010
0100
1000
,
0010
0000
0000
0000
0000
0000
0000
0000
0100
0000
0000
0000
0000
0000
0000
0000
0000
0000
0001
0000
0000
0000
0000
0000
1000
0000
0000
0000
0000
0000
0000
0000
0000
0100
0000
0000
0000
0000
0000
0000
0000
0000
0010
0000
0000
0000
0000
0000
,
0100
0000
1000
0001
0000
1000
0001
0010
,
0100
0000
0010
0001
0100
0010
0010
1000
,
0002
0000
0010
1000
0010
0000
0103
0000
,
0001
0000
0000
0000
0000
0000
0000
0000
0010
0000
0000
0000
0000
0000
0000
0000
0100
0000
0000
0000
0000
0000
0000
0000
1000
0000
0000
0000
0000
0000
0000
0000
0000
0001
0000
0000
0000
0000
0000
0000
0000
0000
0100
0000
0000
0000
0000
0000
,
0110
0000
0010
1000
0001
0010
0010
0100
,
0110
0000
0010
0001
0100
0010
0000
1000
,
0001
0000
0010
0001
0100
0000
0010
1000
,
0001
0000
0000
0010
0000
0000
0000
0000
0000
0010
0000
0000
0010
0000
0000
0000
0100
0000
0000
0000
0000
1000
0000
0000
,
0001
1000
0001
0000
0100
0000
0010
0000
0000
0000
1000
0000
0010
0000
0000
0000
,
1010
0000
1000
0001
0001
0100
0100
1000
,
1000
0000
0100
0001
0001
0010
0010
0000
,
0110
0000
0100
1000
1000
0000
0001
0000
,
0100
0002
0000
1003
0001
0010
1000
0010
,
0100
0010
0100
0010
0001
0000
1000
0000
,
0010
0100
0001
1000
0000
0000
0100
0000
,
0010
0100
1000
0001
0000
0000
0100
0000
,
0001
0200
0000
0310
0100
0001
0100
0001
,
1000
0100
0001
0100
1000
0000
0010
0000
,
1010
0000
0000
0000
0010
0000
1000
0000
0001
0000
0000
0010
0000
0000
0001
0000
,
0000
0100
0000
0010
1000
0000
0001
0000
,
0010
0200
0010
0310
0100
1000
0001
0100
,
0010
0100
0010
1000
0001
0000
0010
0002
,
1000
1003
0000
1001
0000
0000
0001
0000
,
0010
0100
1000
0010
0000
0000
0100
0000
,
0010
2000
0001
3001
1000
0100
0001
0100
,
1000
0010
0001
0010
0100
0000
0001
0000
,
0100
0001
0010
0100
0000
0000
1000
0000
,
0100
1000
0010
0100
0001
1000
0100
0020
,
0000
0130
0010
0001
0000
0100
0000
0200
,
0000
0310
0100
0001
0000
1000
0000
2000
,
0000
3001
1000
0100
0000
0010
0000
0020
,
0000
0031
0010
0100
0000
1000
0100
0010
,
0000
0001
0010
1000
0000
0001
0100
1000
,
0000
0001
0100
0010
0000
1000
0100
0010
,
0000
0010
0000
0001
0001
0010
0100
1000
,
0000
0001
0000
1001
0000
0101
0000
0102
,
0000
1003
0001
0010
0000
0110
0000
0210
,
0000
1300
0000
0100
0000
0110
0000
0120
,
0000
0031
0010
0100
0000
0110
0000
1001
,
0000
0001
1000
0010
0000
0100
0010
1000
,
0000
0001
0010
1000
0000
0001
0100
1000
,
0000
0001
0100
0010
0000
1000
0100
0010
,
0000
0110
0000
0100
1000
0000
0001
0100
,
0010
2000
0000
0001
3001
1000
0100
0010
,
0001
0100
0010
0010
1000
0100
0010
0001
,
0100
0100
0010
1000
0100
0010
0001
0100
,
0010
0010
1000
0100
0010
0001
0100
0010
,
1000
1000
0001
1000
0100
0000
0010
0100
,
0010
0000
0000
0001
0000
0000
0001
0000
0100
0000
0000
0010
0000
0000
1000
0000
,
0000
1001
0000
0001
0010
0000
0100
0020
,
0130
0000
0010
0000
0000
0000
0001
0000
0010
0000
0000
0100
0000
0000
2000
0000
,
3001
1000
0000
0010
0010
1000
0100
0001
,
1000
0010
0100
0100
1000
0001
0100
1000
,
0001
0001
0010
1000
0001
0010
0100
1000
,
0010
0010
0100
0001
1000
0100
0001
1000
,
0010
0010
0100
1000
0010
0100
0000
0001
,
0100
0000
0000
0001
0000
0000
1000
0000
0001
0000
0000
0010
0000
0000
0100
0000
,
0000
0000
1000
0000
0000
0000
0010
0000
2000
0000
0000
0000
3001
0000
1000
0001
,
1000
0000
0100
0000
0000
0000
0010
0000
0100
0000
0000
1000
0000
0000
0010
0000
,
0000
0100
0010
1010
1001
0000
0001
0000
,
0011
0010
0000
0100
1000
0000
0001
0000
,
0101
0100
0000
0010
1000
0000
0001
0000
,
1001
0001
0000
0010
0100
0000
1000
0000
,
1100
0000
1000
0100
1000
0000
0100
0000
0010
0000
0000
0000
0001
0000
1000
0000
,
0001
0000
0100
0000
0000
0000
0010
0000
0100
0000
0000
0001
0000
0000
1000
0000
,
0000
0100
0010
0001
0100
0000
0010
0100
,
0010
1000
1000
0001
0010
0000
0100
0010
,
0000
0001
0010
0110
0011
0000
0001
0000
,
0101
0100
0000
0010
1000
0000
0001
0000
,
0011
0010
0000
0100
1000
0000
0001
0000
,
1001
1000
0000
0010
0100
0000
0001
0000
,
0011
0000
0010
0001
0010
0000
0100
0000
1000
0000
0000
0000
0001
0000
0100
0000
,
0020
0000
0000
1030
0000
0000
0010
0000
,
0100
0000
0000
0010
0000
0000
1000
0000
0001
0000
0000
0000
0010
0000
0001
0000
,
0200
0000
0310
0200
0010
0000
0301
0000
,
0101
0000
0100
0001
0001
0000
1000
0000
,
1100
0000
0100
0020
0000
0032
0000
1003
,
0001
0010
0200
0000
2300
0000
3002
0000
,
0103
0000
0001
0020
0000
0230
0000
1300
,
0100
0010
0200
0000
2300
0000
3002
0000
,
0103
0000
0001
1000
0000
0001
0010
0002
,
0000
0023
0000
0130
0020
0000
0031
0010
,
0100
0000
0010
0100
1000
0000
0001
0000
,
0100
0000
0001
0100
0001
0000
1000
0000
0100
0000
0000
0000
0010
0000
0000
0000
,
0110
0000
0000
0000
;
