#TITLE:Temperature;
#SUBTITLE:;
#ARTIST:Sean Paul;
#TITLETRANSLIT:;
#SUBTITLETRANSLIT:;
#ARTISTTRANSLIT:;
#GENRE:;
#CREDIT:;
#BANNER:Temperature.png;
#BACKGROUND:Temperature-bg.png;
#LYRICSPATH:;
#CDTITLE:;
#MUSIC:Temperature.mp3;
#OFFSET:-0.057300;
#SAMPLESTART:25.972000;
#SAMPLELENGTH:15.000000;
#SELECTABLE:YES;
#BPMS:0.000000=124.999992
;
#STOPS:
;
#BGCHANGES:;
#KEYSOUNDS:;
#ATTACKS:;

//---------------dance-single - ----------------
#NOTES:
     dance-single:
     Uh oh:
     Challenge:
     9:
     0.620247,0.643336,0.325349,0.437539,0.521681,387.000000,358.000000,29.000000,39.000000,0.000000,6.000000,0.620247,0.643336,0.325349,0.437539,0.521681,387.000000,358.000000,29.000000,39.000000,0.000000,6.000000:
0000
0000
0000
0000
,
0000
0000
0000
0000
,
0000
0000
0001
1000
0010
1000
0001
0000
0000
0000
0001
1000
0010
1000
0001
0000
,
0000
0000
0001
1000
0010
1000
0001
0000
0000
0001
0100
0000
0101
0000
0000
0000
,
0101
0000
0000
0001
0010
0000
0100
0000
1100
0000
0000
1000
0100
0000
0000
0100
,
1000
0000
0000
1000
0010
0000
0100
0000
0110
0000
0000
0010
0100
0000
0000
0100
,
0001
0000
0000
0000
0000
0000
0000
0000
0001
0000
1000
0000
0100
0000
0010
0000
0100
0000
0000
1000
0000
0000
0001
0000
0100
0000
0000
0000
0001
0000
0010
0000
,
0001
0000
0000
0000
1000
0000
0100
0000
1000
0000
0000
0010
0000
0000
0100
0000
0001
0000
1000
0000
0000
0000
0001
0000
1000
0000
0000
0000
0020
0000
0000
0000
,
0230
0000
0000
0000
0301
0000
0010
0000
0001
0000
0000
1000
0000
0000
0010
0000
1000
0000
0000
0001
0000
0000
0010
0000
0000
0000
0100
0000
0000
0000
1000
0000
,
0001
0000
1000
0000
0010
0100
0010
0000
1000
0000
0001
0010
0001
0000
2000
0000
,
3200
0000
1300
0000
1000
0000
0001
0100
0001
0000
1000
0000
1000
0000
0010
0100
,
0000
0010
0100
0000
0001
0000
1000
0000
0001
0010
0000
0010
0100
0000
2000
0000
,
3200
0000
1300
0000
0010
0100
0010
1000
0100
0000
0010
0001
1000
0001
0100
0010
,
1000
0010
0000
1000
0010
0000
0100
0000
0000
0000
0100
0000
0010
1000
0000
1000
,
0100
0000
0010
0000
0011
0000
0000
0000
0011
0000
0001
0000
0001
1000
0010
0000
,
1010
1000
0100
0010
0000
0001
0001
0001
,
1001
0000
1010
1000
1001
0001
0100
0100
,
0110
0010
1000
0100
1200
0000
0310
0000
,
0000
0000
0100
0000
0100
0000
1000
0100
1000
0000
0001
0010
0000
0001
0010
0000
,
0001
0100
0001
1000
0001
0010
0100
0000
1000
0000
0010
1000
0000
0000
0200
0000
,
0320
0000
0130
0000
0100
0000
1000
0000
0001
0000
0100
0010
0000
0100
0010
0000
,
0100
0000
0001
0000
1000
0100
0010
0000
0100
0000
1000
0001
0000
0000
0200
0000
,
0320
0000
0030
0100
0001
0000
1000
0000
0100
0000
0010
0100
0000
1000
0100
1000
,
0010
0000
1000
0000
0100
0000
0010
0000
0001
0000
0100
0001
0000
0000
0020
0000
,
0230
0000
1300
0000
1000
0100
0010
0001
1000
0000
0001
0100
0000
0000
0001
0000
,
0001
0010
0100
1000
0001
0000
1000
0010
0000
0000
1000
0000
0100
1000
0000
1000
,
0010
0000
0100
0000
0101
0000
0000
0000
0101
0000
0001
0000
0001
1000
0100
0000
,
1100
1000
0010
0100
0000
0001
0001
0001
,
1001
0000
1100
1000
1001
0001
0010
0010
,
0110
0100
1000
0010
0000
0200
0320
0030
,
1010
0000
1000
0010
1000
0000
0001
0000
1000
0000
0100
0010
0000
0100
0010
0000
,
0001
0000
1000
0010
1000
0000
0001
0000
1000
0000
0100
0010
0000
0100
0020
0000
,
0230
0000
1300
0100
1000
0000
0001
0000
0100
0000
0010
1000
0000
0010
1000
0000
,
0001
0000
0010
0100
0010
0000
0001
0000
1000
0000
0010
0100
0000
0010
0200
0000
,
0320
0000
1030
0100
0010
0000
0100
0000
1000
0000
0001
0100
0000
0001
0010
0000
,
0001
0000
1000
0010
0100
0000
0001
0000
1000
0000
0100
1000
0000
0010
0200
0000
,
0320
0000
1030
0100
0010
0000
0100
0000
1000
0000
0001
0010
0000
0001
0100
0000
,
0001
0000
0001
0000
0001
1000
0010
0100
,
0102
1003
0102
1003
,
2001
3100
2001
3100
,
2001
3010
2001
3010
,
2002
3003
2002
3003
,
2000
0020
0100
3130
,
2000
0002
0100
3103
,
0002
0020
0100
0133
,
0022
0000
0033
0000
0001
0010
0100
1000
;
