#VERSION:0.83;
#TITLE:Rockstar;
#SUBTITLE:;
#ARTIST:Post Malone;
#TITLETRANSLIT:;
#SUBTITLETRANSLIT:;
#ARTISTTRANSLIT:;
#GENRE:Rap;
#ORIGIN:;
#CREDIT:;
#BANNER:Rockstar.png;
#BACKGROUND:;
#PREVIEWVID:;
#JACKET:Rockstar-jacket.png;
#CDIMAGE:;
#DISCIMAGE:;
#LYRICSPATH:;
#CDTITLE:;
#MUSIC:Rockstar.ogg;
#OFFSET:-0.020000;
#SAMPLESTART:76.119995;
#SAMPLELENGTH:15.000000;
#SELECTABLE:YES;
#BPMS:0.000=160.015;
#STOPS:;
#DELAYS:;
#WARPS:;
#TIMESIGNATURES:0.000=4=4;
#TICKCOUNTS:0.000=4;
#COMBOS:0.000=1;
#SPEEDS:0.000=1.000=0.000=0;
#SCROLLS:0.000=1.000;
#FAKES:;
#LABELS:0.000=Song Start;
#BGCHANGES:;
#KEYSOUNDS:;
#ATTACKS:
;

//---------------dance-single - ----------------
#NOTEDATA:;
#CHARTNAME:;
#STEPSTYPE:dance-single;
#DESCRIPTION:;
#CHARTSTYLE:;
#DIFFICULTY:Easy;
#METER:3;
#RADARVALUES:0.244381,0.298951,0.033217,0.132867,0.000000,206.000000,202.000000,4.000000,16.000000,0.000000,0.000000,0.000000,0.000000,0.000000,0.244381,0.298951,0.033217,0.132867,0.000000,206.000000,202.000000,4.000000,16.000000,0.000000,0.000000,0.000000,0.000000,0.000000;
#CREDIT:RIME;
#NOTES:
0000
0000
0000
0000
,
0000
0000
0000
0000
,
0000
0000
0000
0000
,
0000
0000
0000
0000
,
0100
0000
0001
0000
,
1000
0000
0100
0100
,
0010
0000
0001
0000
,
1000
0010
0100
0001
,
1000
0000
0001
0000
,
0010
0000
0100
0100
,
0010
0000
0001
0000
,
1000
0010
0100
0001
,
1000
0000
0001
0000
,
0010
0000
0100
0100
,
0010
0000
0001
0000
,
1000
0100
0010
0001
,
0000
1000
0000
0001
,
0000
0010
0100
0100
,
1000
0000
0001
0000
,
1000
0010
0100
0001
,
0010
0000
0100
0000
,
1000
1000
0001
0001
,
0100
0000
0010
0000
,
1000
0100
0010
0001
,
0000
0100
0000
0010
,
0000
1000
0001
0001
,
0010
0000
0001
0000
,
1000
0010
0100
0001
,
1000
0000
0100
0010
,
0000
0100
1000
1000
,
0001
0000
0100
0000
,
0001
0010
0100
1000
,
0001
0000
1000
1000
,
0001
0000
0001
0000
0010
0000
0000
0010
,
0000
0001
0001
1000
,
1000
0000
0010
0000
0010
0000
0000
0100
,
0000
0001
1000
0001
,
0000
0000
0010
0000
0100
0000
0000
0010
,
0000
0001
1000
0001
,
0000
1001
0000
0110
,
0000
0010
0001
0010
,
0001
0001
1000
1000
,
0010
0100
0100
0001
,
1000
0000
1000
0000
0100
0000
0000
0010
,
0000
0001
1000
0001
,
0000
0000
0100
0000
0010
0000
0000
0100
,
0000
0001
1000
0001
,
0000
1001
0000
0110
,
0020
0000
0000
0000
,
0030
0000
0100
0000
,
0100
1000
0100
1000
,
1000
0001
0100
0010
,
1000
0000
0001
0000
,
0010
0000
0100
0100
,
0010
0000
0001
0000
,
1000
0010
0100
0001
,
1000
0000
0001
0000
,
0100
0000
0010
0010
,
1000
0000
0001
0000
,
1000
0010
0100
0001
,
1000
0000
0100
0000
,
0001
0000
0100
0100
,
0010
0000
0001
0000
,
1000
0010
0100
0001
,
0010
0000
0100
0000
,
2000
0000
3001
1000
,
0001
0000
0100
0000
,
0020
0000
0130
0010
,
0100
0000
0001
0000
,
0020
0000
0130
0010
,
0100
0000
1000
0000
,
0002
0023
0230
2300
,
3002
0000
0000
0000
,
0203
0000
0000
0000
,
0320
0000
0000
0000
,
2030
0000
0000
0000
,
3002
0000
0000
0000
,
0023
0000
0000
0000
,
2030
0000
0000
0000
,
3200
0000
0000
0000
,
0300
0000
0000
0000
;

//---------------dance-single - ----------------
#NOTEDATA:;
#CHARTNAME:;
#STEPSTYPE:dance-single;
#DESCRIPTION:;
#CHARTSTYLE:;
#DIFFICULTY:Beginner;
#METER:1;
#RADARVALUES:0.079483,0.131206,0.016608,0.083042,0.000000,67.000000,65.000000,2.000000,10.000000,0.000000,0.000000,0.000000,0.000000,0.000000,0.079483,0.131206,0.016608,0.083042,0.000000,67.000000,65.000000,2.000000,10.000000,0.000000,0.000000,0.000000,0.000000,0.000000;
#CREDIT:RIME;
#NOTES:
0000
0000
0000
0000
,
0000
0000
0000
0000
,
0000
0000
0000
0000
,
0000
0000
0000
0000
,
0010
0000
0000
0000
,
0100
0000
0000
0000
,
0010
0000
0000
0000
,
0100
0000
0000
0000
,
1000
0000
0000
0000
,
0001
0000
0000
0000
,
1000
0000
0000
0000
,
0001
0000
0000
0000
,
0100
0000
0000
0000
,
0001
0000
0000
0000
,
0100
0000
0000
0000
,
0001
0000
0000
0000
,
1000
0000
0000
0000
,
0010
0000
0000
0000
,
1000
0000
0000
0000
,
0010
0000
0000
0000
,
1000
0000
0000
0000
,
0001
0000
0000
0000
,
1000
0000
0000
0000
,
0001
0000
0000
0000
,
0010
0000
0000
0000
,
0001
0000
0000
0000
,
0010
0000
0000
0000
,
0001
0000
0000
0000
,
1000
0000
0000
0000
,
0001
0000
0000
0000
,
1000
0000
0000
0000
,
0001
0000
0000
0000
,
0100
0000
0000
0000
,
0100
0000
0000
0000
,
0010
0000
0000
0000
,
1000
0000
0000
0000
,
0200
0000
0000
0000
,
0300
0000
0000
0000
,
0020
0000
0000
0000
,
0030
0000
0000
0000
,
0100
0000
0000
0000
,
0100
0000
0000
0000
,
0010
0000
0000
0000
,
0001
0000
0000
0000
,
0200
0000
0000
0000
,
0300
0000
0000
0000
,
0020
0000
0000
0000
,
0030
0000
0000
0000
,
0220
0000
0000
0000
,
0330
0000
0000
0000
,
0000
0000
0000
0000
,
0000
0000
0000
0000
,
0100
0000
0000
0000
,
0001
0000
0000
0000
,
0100
0000
0000
0000
,
0001
0000
0000
0000
,
1000
0000
0000
0000
,
0001
0000
0000
0000
,
1000
0000
0000
0000
,
0001
0000
0000
0000
,
1000
0000
0000
0000
,
0100
0000
0000
0000
,
1000
0000
0000
0000
,
0100
0000
0000
0000
,
0110
0000
0000
0000
,
0010
0000
0000
0000
,
0100
0000
0000
0000
,
0010
0000
0000
0000
,
0001
0000
0000
0000
,
1000
0000
0000
0000
,
0001
0000
0000
0000
,
1000
0000
0000
0000
,
0020
0000
0000
0000
,
0030
0000
0000
0000
,
0200
0000
0000
0000
,
0300
0000
0000
0000
,
0020
0000
0000
0000
,
0030
0000
0000
0000
,
0200
0000
0000
0000
,
0300
0000
0000
0000
;

//---------------dance-single - ----------------
#NOTEDATA:;
#CHARTNAME:;
#STEPSTYPE:dance-single;
#DESCRIPTION:;
#CHARTSTYLE:;
#DIFFICULTY:Hard;
#METER:8;
#RADARVALUES:0.554009,0.597902,0.124563,0.357081,0.041521,467.000000,452.000000,15.000000,43.000000,0.000000,0.000000,0.000000,0.000000,0.000000,0.554009,0.597902,0.124563,0.357081,0.041521,467.000000,452.000000,15.000000,43.000000,0.000000,0.000000,0.000000,0.000000,0.000000;
#CREDIT:RIME;
#NOTES:
// measure 0
0000
0000
0000
0000
,  // measure 1
0000
0000
0000
0000
,  // measure 2
0000
0000
0000
0000
,  // measure 3
0000
0000
0000
0000
,  // measure 4
0010
0110
0000
0110
,  // measure 5
0000
0010
1000
0000
0001
0010
0100
1000
,  // measure 6
0001
0100
0010
0001
0010
1000
0001
0010
,  // measure 7
1000
1000
0010
0100
1000
0000
0002
0100
,  // measure 8
1003
0000
0001
0100
0001
0000
1000
0100
,  // measure 9
1000
0100
0100
0000
0010
0010
0100
0100
,  // measure 10
1000
0100
0001
1000
0010
0001
0100
0001
,  // measure 11
1000
0010
0100
0001
0010
0000
0200
1000
,  // measure 12
0310
0000
0100
1000
0100
0000
0010
0001
,  // measure 13
0010
0100
0100
0000
0010
0001
0100
0010
,  // measure 14
1000
0001
0010
0100
0001
0100
1000
0010
,  // measure 15
0100
0000
0000
0000
0000
0000
0001
0000
0000
0000
0000
0000
1000
0001
0000
0000
0000
0000
0001
0000
0000
0000
0000
0000
0001
0000
0000
0000
0000
0000
0000
0000
0000
0000
0000
0000
0020
0000
0000
0000
0000
0000
0001
0000
0000
0000
0000
0000
,  // measure 16
0130
0010
0010
0011
,  // measure 17
0001
1000
0010
0000
0100
0010
0010
1000
,  // measure 18
0001
0010
0001
0100
0010
1000
0001
0010
,  // measure 19
0100
0100
0010
0100
1000
0000
0020
0100
,  // measure 20
1030
0000
0010
0100
0010
0000
0110
0000
,  // measure 21
0000
0100
0001
0000
0010
0010
0100
1000
,  // measure 22
0010
0001
0010
0100
0001
1000
1000
0100
,  // measure 23
0100
0001
0100
0010
0001
1000
0020
0100
,  // measure 24
1030
0000
0010
0100
0010
0000
0110
0000
,  // measure 25
0000
0010
1000
0000
0001
0010
0100
0010
,  // measure 26
0001
0000
1000
1000
0010
0100
0010
0010
,  // measure 27
1000
0000
0001
0010
1000
0000
0020
0100
,  // measure 28
0031
0000
0010
0001
0010
0000
0011
0000
,  // measure 29
0000
0001
1000
0000
0010
0010
1000
0100
,  // measure 30
0010
0100
1000
0001
0100
1000
0100
0001
,  // measure 31
0010
0010
0100
1000
0001
0000
0200
0010
,  // measure 32
1300
0000
0100
0000
0001
0001
0100
1000
,  // measure 33
0001
0001
0010
1000
0100
0100
0010
0200
,  // measure 34
0000
0000
1300
0100
0001
0001
1000
0010
,  // measure 35
0001
0001
1000
1000
0010
0100
0001
0020
,  // measure 36
0000
0000
0000
0130
0010
0002
1000
0000
0000
1003
0000
0000
,  // measure 37
0000
0001
0001
1000
0010
0100
0010
2000
,  // measure 38
0000
0000
0000
3001
1000
0200
0010
0000
0000
0310
0000
0000
,  // measure 39
0000
0100
0110
0000
0100
0000
1100
0000
,  // measure 40
1000
0000
0001
0100
1000
1000
0001
0010
,  // measure 41
1000
1000
0001
0001
0010
0100
0010
0001
,  // measure 42
0200
0000
0310
0010
0100
0010
1000
1000
,  // measure 43
0001
0010
1000
0010
0100
1000
0001
0200
,  // measure 44
0000
0000
0000
0310
0100
0002
1000
0000
0000
1003
0000
0000
,  // measure 45
0001
0010
0001
0100
0010
0010
1000
0002
,  // measure 46
0000
0000
0000
0013
0001
0200
0010
0000
0000
0310
0000
0000
,  // measure 47
0100
0001
0101
0000
0001
0000
1001
0000
,  // measure 48
1000
0100
0110
0020
,  // measure 49
0031
0000
0000
0000
0000
0000
0000
0000
0000
0000
0000
0000
0000
0000
0000
0000
0010
0000
0000
0000
0001
0000
0000
0000
0020
0030
0000
0000
0002
0003
0000
0000
,  // measure 50
0100
0000
0000
0000
0010
0000
0000
0000
1000
0000
0000
0000
0100
0000
0000
0000
2000
3000
0000
0000
0200
0300
0000
0000
0010
0000
0000
0000
0010
0000
0000
0000
,  // measure 51
0100
1000
0001
0100
0010
0000
0200
0010
,  // measure 52
0301
0101
0001
1001
,  // measure 53
1000
0100
0100
0000
0010
0100
1000
0010
,  // measure 54
0001
0010
0010
0100
0001
1000
0100
0010
,  // measure 55
1000
0010
0001
0100
1000
0000
0200
0010
,  // measure 56
1300
0000
1000
0100
0001
0000
0101
0000
,  // measure 57
0001
0000
0000
0000
0010
0000
0000
0000
0010
0000
0000
0000
0000
0000
0000
0000
0001
0000
0000
0000
1000
0000
0000
0000
0002
0003
0000
0000
2000
3000
0000
0000
,  // measure 58
0010
0010
1000
0100
0001
0001
1000
0010
,  // measure 59
0001
0100
1000
0100
0010
0000
2000
0001
,  // measure 60
3010
0000
1000
0100
1000
0000
1100
0000
,  // measure 61
0100
0010
0010
0000
0001
0010
0100
1000
,  // measure 62
0001
0100
1000
0001
0010
0100
0001
1000
,  // measure 63
0100
0000
0000
0000
0000
0000
0100
0000
0000
0000
0000
0000
0010
0100
0000
0000
0000
0000
0100
0000
0000
0000
0000
0000
0100
0000
0000
0000
0000
0000
0000
0000
0000
0000
0000
0000
0020
0000
0000
0000
0000
0000
0001
0000
0000
0000
0000
0000
,  // measure 64
0130
0100
0010
0100
1000
0000
0200
1000
,  // measure 65
0310
0100
0010
0000
0020
0001
0130
0000
,  // measure 66
0010
0001
0001
1000
0010
0000
0200
0010
,  // measure 67
0301
0100
0010
0000
0100
0001
1000
0000
,  // measure 68
0100
0000
0010
0100
0010
0000
0002
1000
,  // measure 69
0013
0001
0001
0000
0020
0100
0031
0010
,  // measure 70
0200
1000
1000
0000
0310
0000
0100
0010
,  // measure 71
0002
1000
2003
0000
3010
1000
0001
0100
,  // measure 72
0020
0000
0000
0000
,  // measure 73
0000
0000
0000
0130
,  // measure 74
0020
0000
0000
1030
,  // measure 75
2000
3020
0230
0000
,  // measure 76
0302
0000
0000
0000
,  // measure 77
0000
0000
0000
0000
,  // measure 78
2000
0000
0000
0000
,  // measure 79
0000
0000
0000
0000
,  // measure 80
3003
0000
0000
0000
;

//---------------dance-single - ----------------
#NOTEDATA:;
#CHARTNAME:;
#STEPSTYPE:dance-single;
#DESCRIPTION:;
#CHARTSTYLE:;
#DIFFICULTY:Medium;
#METER:6;
#RADARVALUES:0.376062,0.398602,0.116259,0.232518,0.016608,317.000000,303.000000,14.000000,28.000000,0.000000,0.000000,0.000000,0.000000,0.000000,0.376062,0.398602,0.116259,0.232518,0.016608,317.000000,303.000000,14.000000,28.000000,0.000000,0.000000,0.000000,0.000000,0.000000;
#CREDIT:;
#NOTES:
// measure 0
0000
0000
0000
0000
,  // measure 1
0000
0000
0000
0000
,  // measure 2
0000
0000
0000
0000
,  // measure 3
0000
0000
0000
0000
,  // measure 4
0010
0110
0000
0110
,  // measure 5
0000
0010
1000
0000
0001
0010
0100
0000
,  // measure 6
0010
0000
0001
0000
0010
0001
1000
0000
,  // measure 7
0010
0000
0010
0000
1000
0000
0002
1003
,  // measure 8
0001
0000
0100
0001
1000
0000
0100
0000
,  // measure 9
0000
1000
0100
0000
0020
0030
0200
0300
,  // measure 10
1000
0100
0010
0000
0100
0000
0010
0000
,  // measure 11
0001
1000
0010
0000
0100
0000
0020
1030
,  // measure 12
0010
0100
0100
0010
,  // measure 13
0000
0100
0001
0000
0010
0001
1000
0000
,  // measure 14
0001
0001
0010
0100
,  // measure 15
0010
0000
0002
1003
0001
0000
1000
0000
,  // measure 16
0010
0010
0010
1010
,  // measure 17
0000
1000
0001
0000
0010
0100
0010
0000
,  // measure 18
0001
0001
1000
1000
,  // measure 19
0010
0000
0100
0010
1000
0000
0002
0000
,  // measure 20
0013
0001
0001
1000
,  // measure 21
0000
0010
1000
0000
0100
0010
0100
0000
,  // measure 22
1000
1000
0001
0001
,  // measure 23
0100
0001
0100
0000
0010
0000
2000
0000
,  // measure 24
3001
1000
1000
1001
,  // measure 25
0000
0001
0010
0000
0100
0010
0100
0000
,  // measure 26
1000
1000
0010
0100
,  // measure 27
0001
0000
1000
0001
1000
0000
0200
0000
,  // measure 28
0310
0100
1000
1100
,  // measure 29
0000
1000
0001
0000
0100
0001
0100
0000
,  // measure 30
0010
0010
1000
0001
,  // measure 31
0010
0000
0100
0010
0100
0000
2000
0000
,  // measure 32
3001
0000
1001
0001
,  // measure 33
0100
0000
1000
0000
0100
0001
0100
0001
,  // measure 34
0000
0001
1000
0100
,  // measure 35
0001
0000
0100
0000
1000
0100
1000
0200
,  // measure 36
0000
0000
0000
0000
0000
0020
0300
0000
0000
0130
0000
0000
,  // measure 37
0000
0010
0100
0000
0010
0001
0010
0002
,  // measure 38
0000
0000
0000
0000
0000
2000
0003
0000
0000
3001
0000
0000
,  // measure 39
1000
1100
0000
1001
,  // measure 40
0000
0001
0100
0001
,  // measure 41
0010
0000
0010
0000
0100
1000
0100
1000
,  // measure 42
0000
0010
0010
0100
,  // measure 43
0100
0000
0001
0000
1000
0001
1000
0002
,  // measure 44
0000
0000
0000
0000
0000
0020
0003
0000
0000
0130
0000
0000
,  // measure 45
0000
0000
0010
0000
0001
1000
0001
2000
,  // measure 46
0000
0000
0000
0000
0000
0020
3000
0000
0000
0130
0000
0000
,  // measure 47
0010
0110
0000
0101
,  // measure 48
0001
0010
0100
1000
,  // measure 49
0001
0000
0100
0100
,  // measure 50
0001
1000
0001
0000
0010
0000
0001
0000
,  // measure 51
0010
0000
0100
1000
0001
0000
0200
0000
,  // measure 52
0310
0110
0000
0110
,  // measure 53
0000
0010
1000
0000
0001
0010
0100
0000
,  // measure 54
0010
0000
0001
0000
0010
0001
1000
0000
,  // measure 55
0010
0000
0010
0000
1000
0000
0002
1003
,  // measure 56
0001
0000
0100
0001
1000
0000
0100
0000
,  // measure 57
0000
1000
0100
0000
0020
0030
0200
0300
,  // measure 58
1000
0100
0010
0000
0100
0000
0010
0000
,  // measure 59
0001
1000
0010
0000
0100
0000
0020
1030
,  // measure 60
0010
0100
0100
0010
,  // measure 61
0000
0100
0001
0000
0010
0001
1000
0000
,  // measure 62
0001
0001
0010
0100
,  // measure 63
0010
0000
0002
1003
0001
0000
1000
0000
,  // measure 64
0010
1000
0010
1000
0010
0000
0100
0000
,  // measure 65
0000
0000
0001
0000
0010
0001
0010
0000
,  // measure 66
0001
0010
0001
0010
0001
0000
0100
0000
,  // measure 67
0000
0010
1000
0000
0100
1000
0100
0000
,  // measure 68
0010
0100
0010
0100
0010
0000
0001
0000
,  // measure 69
0000
1000
0001
0000
0100
0010
0100
0000
,  // measure 70
0002
0000
1000
1000
,  // measure 71
0010
0010
0100
1003
,  // measure 72
2002
0000
0000
0000
,  // measure 73
0000
0000
0000
0000
,  // measure 74
0000
0000
0000
0000
,  // measure 75
0000
0000
3003
0000
,  // measure 76
0220
0000
0000
0000
,  // measure 77
0000
0000
0000
0000
,  // measure 78
0000
0000
0000
0000
,  // measure 79
0000
0000
0000
0000
,  // measure 80
0330
0000
0000
0000
;
