#VERSION:0.83;
#TITLE:Reese's Puffs;
#SUBTITLE:;
#ARTIST:TheLaxOne;
#TITLETRANSLIT:;
#SUBTITLETRANSLIT:;
#ARTISTTRANSLIT:;
#GENRE:;
#ORIGIN:;
#CREDIT:;
#BANNER:[Round 2] - Reese's Puffs-bn.png;
#BACKGROUND:[Round 2] - Reese's Puffs-bg.png;
#PREVIEWVID:;
#JACKET:[Round 2] - Reese's Puffs-jacket.png;
#CDIMAGE:;
#DISCIMAGE:;
#LYRICSPATH:;
#CDTITLE:cdtitle.png;
#MUSIC:[Round 2] - Reese's Puffs.ogg;
#OFFSET:-2.075000;
#SAMPLESTART:6.075000;
#SAMPLELENGTH:12.000000;
#SELECTABLE:YES;
#BPMS:0.000=120.000;
#STOPS:;
#DELAYS:;
#WARPS:;
#TIMESIGNATURES:0.000=4=4;
#TICKCOUNTS:0.000=4;
#COMBOS:0.000=1;
#SPEEDS:0.000=1.000=0.000=0;
#SCROLLS:0.000=1.000;
#FAKES:;
#LABELS:0.000=Song Start;
#BGCHANGES:;
#KEYSOUNDS:;
#ATTACKS:
;

//---------------dance-single - ----------------
#NOTEDATA:;
#CHARTNAME:;
#STEPSTYPE:dance-single;
#DESCRIPTION:;
#CHARTSTYLE:;
#DIFFICULTY:Challenge;
#METER:6;
#RADARVALUES:0.477349,0.544801,0.000000,0.435841,0.208840,184.000000,184.000000,0.000000,24.000000,4.000000,0.000000,0.000000,0.000000,0.000000,0.477349,0.544801,0.000000,0.435841,0.208840,184.000000,184.000000,0.000000,24.000000,4.000000,0.000000,0.000000,0.000000,0.000000;
#CREDIT:;
#NOTES:
// measure 0
0000
0000
0000
0000
,  // measure 1
M000
000M
M000
000M
,  // measure 2
1000
0010
0100
0010
1000
0200
0010
0310
,  // measure 3
0001
0100
0010
0100
0001
0020
0100
0130
,  // measure 4
1000
0001
0010
0001
1000
0010
0100
0001
,  // measure 5
0100
0001
1000
0020
0230
0320
2030
3002
,  // measure 6
0003
1000
0001
0000
0001
0000
0010
0000
0100
0000
1000
0100
2000
0000
0000
0000
,  // measure 7
3000
0000
0010
0100
0010
0000
1000
0000
0100
0000
0010
0000
0002
0000
0000
0000
,  // measure 8
0003
0001
1000
0000
1000
0000
0010
0000
0100
0000
0001
0100
0002
0000
0003
0100
,  // measure 9
0010
0100
0001
0010
1000
0010
0001
1000
,  // measure 10
0001
0100
1000
1000
0100
0001
0100
0010
,  // measure 11
1000
0001
1000
0000
0100
0000
0010
0000
0002
0000
2000
0000
0000
0000
3003
0000
,  // measure 12
1000
0000
0010
0000
0001
0000
0001
0000
0010
0000
1000
0000
0010
0100
0010
0000
,  // measure 13
2000
0000
0000
0000
3001
0000
0010
0000
0100
1000
0100
0000
0010
0000
0002
0000
,  // measure 14
0003
0000
1000
0100
1000
0100
0010
0000
0100
0000
1000
0000
0010
0000
0000
0100
,  // measure 15
0001
0100
0001
0000
0010
0000
0001
0000
0100
0010
0100
0000
0010
0000
1000
0000
,  // measure 16
0000
1000
0001
1000
0100
0000
1000
0000
0010
1000
0010
0000
0200
0000
0300
0001
,  // measure 17
0010
0100
0010
0100
1000
0100
1000
0010
0100
0010
1000
0000
0002
0000
0000
0000
,  // measure 18
0013
0100
0001
0100
0010
1000
0010
0001
,  // measure 19
0100
0010
0001
0010
0100
1000
0100
0010
,  // measure 20
0100
0001
0100
0010
1000
0010
0100
0001
,  // measure 21
0100
0001
1000
0200
0320
0032
0023
0230
,  // measure 22
1300
0001
1000
0200
0000
0310
0100
1000
,  // measure 23
0001
1000
0001
0020
0000
0130
0010
0001
,  // measure 24
2000
0000
0000
0000
,  // measure 25
3000
0000
0000
0000
;
