#VERSION:0.83;
#TITLE:New Bae;
#SUBTITLE:;
#ARTIST:Vic Mensa;
#TITLETRANSLIT:;
#SUBTITLETRANSLIT:;
#ARTISTTRANSLIT:;
#GENRE:Hip-Hop;
#ORIGIN:;
#CREDIT:;
#BANNER:nb-bn.png;
#BACKGROUND:nb-bg.png;
#PREVIEWVID:;
#JACKET:nb-jacket.png;
#CDIMAGE:;
#DISCIMAGE:;
#LYRICSPATH:;
#CDTITLE:cdtitle.png;
#MUSIC:new bae.ogg;
#OFFSET:-0.001000;
#SAMPLESTART:27.356001;
#SAMPLELENGTH:18.000000;
#SELECTABLE:YES;
#BPMS:0.000=105.000;
#STOPS:;
#DELAYS:;
#WARPS:;
#TIMESIGNATURES:0.000=4=4;
#TICKCOUNTS:0.000=4;
#COMBOS:0.000=1;
#SPEEDS:0.000=1.000=0.000=0;
#SCROLLS:0.000=1.000;
#FAKES:;
#LABELS:0.000=Song Start;
#BGCHANGES:;
#KEYSOUNDS:;
#ATTACKS:
;

//---------------dance-single - too much partying on d'usse----------------
#NOTEDATA:;
#CHARTNAME:X-Scale 13;
#STEPSTYPE:dance-single;
#DESCRIPTION:too much partying on d'usse;
#CHARTSTYLE:;
#DIFFICULTY:Hard;
#METER:9;
#RADARVALUES:0.535586,0.534198,0.067989,0.048563,0.548767,386.000000,379.000000,7.000000,5.000000,0.000000,0.000000,0.000000,0.000000,0.000000,0.535586,0.534198,0.067989,0.048563,0.548767,386.000000,379.000000,7.000000,5.000000,0.000000,0.000000,0.000000,0.000000,0.000000;
#CREDIT:;
#NOTES:
// measure 0
0000
0000
0000
0000
,  // measure 1
0000
0000
0000
0000
,  // measure 2
0000
0000
0000
0000
,  // measure 3
0000
0000
0000
0000
,  // measure 4
0100
0000
0001
1000
0001
0000
0100
0000
0010
0000
1000
0000
0010
0000
0001
0000
,  // measure 5
0010
1000
0100
1000
0010
0000
0010
0100
,  // measure 6
0001
0000
0010
0100
1000
0000
0001
0000
0100
0000
0001
0000
0010
0000
1000
0000
,  // measure 7
0010
0001
0100
0001
1000
0000
1000
0100
,  // measure 8
0010
1000
0010
0001
0010
0100
1000
0001
,  // measure 9
0010
1000
0100
0010
0100
0000
0100
0001
,  // measure 10
1000
0100
0010
0001
0010
1000
0010
0001
,  // measure 11
0010
0100
0001
0100
1000
0010
1000
0000
,  // measure 12
1010
0000
0000
0000
0000
0000
0000
0000
0000
0000
0000
0000
0000
0000
0000
0000
0000
0000
0000
0000
0000
0000
0000
0000
0100
0000
0000
0000
0000
0000
0000
0000
0000
0000
0000
0000
0000
0000
0000
0000
0000
0000
0000
0000
0000
0000
0000
0000
0010
0000
0000
0000
0000
0000
0000
0000
0000
0000
0000
0000
0000
0000
0000
0000
0000
0000
0000
0000
0000
0000
0000
0000
0100
0000
0000
0000
0000
0000
0000
0000
0001
0000
0000
0000
0000
0000
0000
0000
0100
0000
0000
0000
0000
0000
0000
0000
0001
0000
0000
0000
0000
0000
0100
0000
0000
0000
0000
0000
0000
0000
0000
0000
0000
0000
0000
0000
0000
0000
0000
0000
0001
0000
0000
0000
0000
0000
0000
0000
0000
0000
0000
0000
0000
0000
0000
0000
0000
0000
0000
0000
0000
0000
0000
0000
1000
0000
0000
0000
0000
0000
0000
0000
0000
0000
0000
0000
0000
0000
0000
0000
0000
0000
0000
0000
0000
0000
0000
0000
0100
0000
0000
0000
0000
0000
0000
0000
0000
0000
0000
0000
0000
0000
0000
0000
0000
0000
0000
0000
0000
0000
0000
0000
,  // measure 13
1000
0010
0100
0001
0010
0100
1000
0100
0010
0001
0010
0001
,  // measure 14
1000
0000
0001
0000
0100
0000
0010
0000
0001
0000
0010
0000
1000
0010
1000
0000
,  // measure 15
0100
0010
0001
1000
1000
0001
0001
0010
,  // measure 16
0100
0000
0000
0000
0000
0000
0000
0000
0000
0010
0000
0000
0001
0000
0000
0000
0000
0000
1000
0000
0010
0000
1000
0000
0010
0000
0000
0000
0000
0000
0100
0000
0000
0000
0000
0000
0001
0000
0000
0000
0000
0000
1000
0000
0000
0000
0000
0000
,  // measure 17
0001
1000
0010
0001
0010
0100
0001
0010
0100
1000
0100
1000
,  // measure 18
0010
0000
0000
0000
0000
0000
1000
0000
0010
0000
0100
0000
0001
0000
0000
1000
0000
0000
0001
0000
0000
0010
0000
0000
,  // measure 19
0100
0000
0000
0001
0100
0000
1000
0000
0010
0000
0100
0000
0001
0000
1000
0000
,  // measure 20
1001
0000
0000
0001
0000
0000
1000
0000
0000
0010
0100
0010
0100
0000
0000
0001
0000
0000
1000
0000
0001
0000
0010
0000
,  // measure 21
0100
0010
0001
0010
1000
0010
0100
0010
0001
0010
0100
0010
,  // measure 22
0001
0000
0000
1000
0000
0000
0001
0000
0000
0100
0000
0000
0001
0000
0000
1000
0000
0000
2000
0000
3000
0000
1000
0000
,  // measure 23
0001
0100
0010
1000
0010
0001
0010
0100
0001
0010
1000
0100
,  // measure 24
0010
0000
0000
0100
0000
0000
0001
0000
0000
1000
0001
1000
0001
0000
0000
0010
0000
0000
0100
0000
0010
0000
0100
0000
,  // measure 25
1000
0010
0100
0001
0100
1000
0100
0001
0010
0001
0100
0010
,  // measure 26
0100
0000
0000
0001
0000
0000
1000
0000
0000
0010
0000
0000
1000
0000
0000
0001
0000
0000
1000
0000
0010
0000
0001
0000
,  // measure 27
0010
0000
0100
0000
0001
0000
0010
0000
0100
0000
1000
0000
0010
0000
0000
0100
0000
0000
0001
0000
0000
1000
0000
0000
,  // measure 28
1001
0000
0000
0001
0000
0000
1000
0000
0010
0000
1000
0000
0010
0000
0100
0000
0001
0000
0010
0000
0000
0001
0000
0000
,  // measure 29
0100
0000
0000
0001
0000
0000
1000
0000
0001
0000
1000
0000
0001
0000
0010
0000
0100
0000
1000
0000
0000
0001
0000
0000
,  // measure 30
1000
0000
0000
0100
0000
0000
1000
0000
0001
0000
0010
0000
0001
0000
1000
0000
0100
0000
1000
0000
0000
1000
0000
0000
,  // measure 31
0001
0000
0000
0000
0010
0000
1000
0000
0010
0000
0000
0010
0000
0001
0000
0010
0000
0000
0000
0000
0010
0000
1000
0000
0010
0000
0000
0000
0001
0000
0000
0000
,  // measure 32
0011
0000
0000
0001
0000
0000
0100
0000
0010
0000
0001
0000
0010
0000
1000
0000
0001
0000
0100
0000
0000
0100
0000
0000
,  // measure 33
0001
0000
0000
0001
0000
0000
1000
0000
0100
0000
0001
0000
0100
0000
1000
0000
0001
0000
0100
0000
0000
0100
0000
0000
,  // measure 34
0010
1000
0010
0001
0010
0100
0010
1000
0100
1000
0001
0010
,  // measure 35
0100
0000
0010
0000
0001
0000
1000
0000
0010
0000
0100
0000
0001
0000
0010
0000
0100
0000
1000
0000
0000
0010
0000
0000
,  // measure 36
1010
0000
0000
1000
0000
0000
0001
0000
0000
0100
0010
0100
0010
0000
0000
0020
0000
0000
1000
0000
0000
0001
0000
0000
,  // measure 37
1030
0010
0001
0010
1000
0200
0001
1000
,  // measure 38
1300
0000
0000
0100
0000
0000
1000
0000
0001
0000
1000
0000
0001
1000
0000
0000
0000
0000
1001
0000
0000
1000
0000
0000
,  // measure 39
0001
0010
0001
0100
1000
0100
0001
0010
,  // measure 40
0011
0000
0000
0001
0000
0000
1000
0000
0000
0010
0100
0010
0100
0000
0000
0200
0000
0000
0001
0000
0000
1000
0000
0000
,  // measure 41
0301
0100
0001
0010
0100
2000
0010
0001
,  // measure 42
3001
1000
0010
0001
0010
0100
0001
0100
,  // measure 43
0010
1000
0100
0010
1000
0010
0001
0100
,  // measure 44
0001
0000
0000
0000
;

//---------------dance-single - fock i think i need a new bae----------------
#NOTEDATA:;
#CHARTNAME:X-Scale 10;
#STEPSTYPE:dance-single;
#DESCRIPTION:fock i think i need a new bae;
#CHARTSTYLE:;
#DIFFICULTY:Medium;
#METER:7;
#RADARVALUES:0.381570,0.405991,0.097127,0.048563,0.043707,275.000000,265.000000,10.000000,5.000000,0.000000,0.000000,0.000000,0.000000,0.000000,0.381570,0.405991,0.097127,0.048563,0.043707,275.000000,265.000000,10.000000,5.000000,0.000000,0.000000,0.000000,0.000000,0.000000;
#CREDIT:;
#NOTES:
0000
0000
0000
0000
,
0000
0000
0000
0000
,
0000
0000
0000
0000
,
0000
0000
0000
0000
,
0001
0000
1000
0001
1000
0001
0000
0010
,
0100
0010
0000
1000
0100
0000
0100
0001
,
0010
0000
0001
1000
0001
1000
0000
0010
,
0100
0010
0000
0001
0100
0000
0100
1000
,
0010
0000
0000
0010
0100
1000
0100
0001
,
0010
0100
0010
0001
0010
0000
0010
0001
,
0100
0000
0001
0100
0010
0001
0010
1000
,
0010
0100
0001
0010
0100
0000
0100
0000
,
0110
0100
0010
0100
0010
0000
0001
1000
,
0001
0010
0100
0010
0001
1000
0010
0100
,
0001
0000
0010
0000
0100
0000
0010
0000
0100
0000
0000
0000
1000
0100
1000
0000
,
0001
0010
0001
0010
0100
0010
0001
0010
,
0100
0000
0000
0001
0100
0000
1000
0000
1100
0000
0000
0000
0010
0000
1000
0000
,
0001
0010
0100
0010
1000
0010
0001
0001
,
1000
0000
1000
1000
0010
0000
0001
0010
,
0100
0000
0000
0100
0010
0000
0100
0000
0001
0000
1000
0000
0002
0000
0003
0000
,
1001
1000
0001
0000
0001
0000
1000
0100
,
0010
0100
1000
0000
0001
0100
0001
0010
,
0011
0001
1000
0000
1000
0000
0001
0100
,
1000
0100
0001
0000
1000
0100
0010
0100
,
0110
0010
0001
0000
0001
0000
0100
1000
,
0100
0001
0010
0000
0100
1000
0010
1000
,
1010
0010
0100
0000
0100
0000
0001
1000
,
0100
1000
0001
0000
0010
0100
0010
0001
,
0011
0000
0100
0001
0100
0000
0010
1000
,
0010
0000
1000
0100
1000
0000
0001
1000
,
0001
0000
0010
0001
0010
0000
0100
1000
,
0100
0000
0000
0000
1000
0000
0010
0000
1000
0000
0000
1000
0000
0010
0000
1000
0000
0000
0000
0000
1000
0000
0010
0000
1000
0000
0000
0000
0001
0000
0000
0000
,
1001
0000
0100
0001
0100
0000
0001
1000
,
0001
0000
1000
0100
0010
0000
0100
0010
,
0001
0000
0001
0010
0100
0000
0010
0100
,
1000
0000
0001
0100
0010
0000
0010
0100
,
0110
0000
0010
0100
0001
2000
0010
0000
,
3000
0000
1000
0100
0010
0002
0000
0100
,
0103
0000
0000
0000
0000
0000
0001
0000
0000
1000
0000
0000
0100
1000
0000
0000
0000
0000
0100
0000
0000
0010
0000
0000
,
1000
0010
0100
0010
0001
0100
0001
0100
,
0101
0000
0010
0100
0001
0002
1000
0000
,
0003
0000
0001
1000
0010
0200
0000
0001
,
0301
0000
1000
0000
0010
1000
0010
1000
,
0010
0100
0001
0000
0001
0100
0001
0100
,
0001
0000
0000
0000
;

//---------------dance-single - imagine playing DDR drunk----------------
#NOTEDATA:;
#CHARTNAME:X-Scale 6;
#STEPSTYPE:dance-single;
#DESCRIPTION:imagine playing DDR drunk;
#CHARTSTYLE:;
#DIFFICULTY:Easy;
#METER:4;
#RADARVALUES:0.285831,0.276994,0.019425,0.165116,0.000000,206.000000,204.000000,2.000000,17.000000,0.000000,0.000000,0.000000,0.000000,0.000000,0.285831,0.276994,0.019425,0.165116,0.000000,206.000000,204.000000,2.000000,17.000000,0.000000,0.000000,0.000000,0.000000,0.000000;
#CREDIT:;
#NOTES:
0000
0000
0000
0000
,
0000
0000
0000
0000
,
0000
0000
0000
0000
,
0000
0000
0000
0000
,
0002
0000
0000
1003
0001
0001
0000
0010
,
0100
0100
0000
1000
0100
0100
0000
0001
,
0020
0000
0000
0130
0010
0010
0000
1000
,
0100
0100
0000
0001
0010
0010
0000
1000
,
0020
0000
0000
1030
0010
0010
0000
0100
,
0010
0010
0000
0001
0010
0010
0000
1000
,
0200
0000
0000
0310
0100
0100
0000
1000
,
0010
0010
0000
1000
0200
0000
2300
0000
,
3010
0000
1000
0200
1300
0000
0001
1000
,
0001
0000
0100
0000
0010
0000
1000
1000
,
1000
0000
0001
0000
0100
0010
0100
0000
,
0002
0000
1003
0000
0100
1000
0001
0010
,
0001
0000
0010
0200
0310
0000
0001
1000
,
0001
0000
1000
0000
0100
0000
0010
0010
,
0010
0000
0001
0001
0001
0000
1000
0010
,
1000
0000
0010
0000
1000
0100
2000
3000
,
1100
0100
0100
1000
,
0010
0000
1000
0000
0001
0000
0010
0001
,
0010
0000
0100
0000
0100
1000
0010
0000
,
1000
0000
0001
0000
0010
0001
0100
0001
,
0010
0100
0100
1000
,
0001
0000
0100
0000
0010
0000
1000
0001
,
1000
0010
0010
0001
,
0010
0000
1000
0000
0100
1000
0010
1000
,
0100
0000
0001
0000
0100
0000
1000
0100
,
1000
0000
0001
0000
0100
0000
0010
0100
,
0010
0000
0100
0000
0001
0000
1000
0010
,
1000
0000
1000
0000
1000
0000
1000
0010
,
1000
0000
0001
0000
0100
0000
0001
0010
,
0001
0000
1000
0000
0100
0000
0010
0100
,
0010
0001
0100
0010
,
1000
0000
0001
0000
0010
0000
0100
0010
,
0210
0000
0000
0310
0100
0020
0001
0000
,
0030
0000
0001
0100
0001
2000
0000
0100
,
3100
1000
0100
1000
,
0100
0010
0100
0000
1000
0010
0001
0010
,
0100
0000
0001
0000
0100
2000
0010
0000
,
3000
0000
1000
0100
0010
0002
0000
0010
,
0013
0000
0001
0000
0100
0010
0100
0000
,
0001
2000
0000
0000
3002
0000
0000
0003
;

//---------------dance-single - how to lose your bae in under 2 min.----------------
#NOTEDATA:;
#CHARTNAME:X-Scale 3;
#STEPSTYPE:dance-single;
#DESCRIPTION:how to lose your bae in under 2 min.;
#CHARTSTYLE:;
#DIFFICULTY:Beginner;
#METER:2;
#RADARVALUES:0.160953,0.191765,0.009713,0.349657,0.000000,116.000000,115.000000,1.000000,36.000000,0.000000,0.000000,0.000000,0.000000,0.000000,0.160953,0.191765,0.009713,0.349657,0.000000,116.000000,115.000000,1.000000,36.000000,0.000000,0.000000,0.000000,0.000000,0.000000;
#CREDIT:;
#NOTES:
0000
0000
0000
0000
,
0000
0000
0000
0000
,
0000
0000
0000
0000
,
0000
0000
0000
0000
,
2000
0000
0000
3000
0200
0000
0000
0300
,
0020
0000
0000
0030
0002
0000
0100
0003
,
0020
0000
0000
0030
0002
0000
0000
0003
,
0200
0000
0000
0300
0020
0000
1000
0030
,
2000
0000
0000
3000
0020
0000
0000
0030
,
0200
0000
0000
0300
0002
0000
1000
0003
,
2000
0000
0000
3000
0200
0000
0000
0300
,
2000
0000
0000
3000
0020
0000
0100
0030
,
0210
0000
0000
0300
0002
0000
0010
0003
,
0001
0100
0001
1000
,
2000
0000
0000
3000
0010
0000
0100
0000
,
0001
1000
0010
0100
,
0002
0000
0000
0003
0200
0000
0000
0300
,
0001
1000
0001
0100
,
0010
0000
0010
1000
,
0000
0100
0010
0000
,
0200
0010
0310
0001
,
0000
1000
0001
0000
,
0002
0100
0103
0001
,
0000
1000
0010
0000
,
2000
0100
3100
1000
,
0000
0001
0010
0000
,
0020
0100
0130
0010
,
0000
0001
0010
0000
,
0002
0000
2003
3200
,
0000
0000
2300
0000
,
3002
0000
0023
0230
,
0000
0000
0320
0000
,
0031
0000
0100
0001
,
0000
0000
1000
0000
0100
0000
0000
1000
,
1000
0000
0010
0100
,
0000
0000
0001
0000
0010
0100
0000
0100
,
0020
0000
0031
0001
,
0000
0000
1000
0000
0010
0000
0000
0100
,
0100
0000
0001
1000
,
0000
0001
1000
0001
,
2000
0000
3001
1000
,
0000
0000
0010
0000
0100
0000
0000
0001
,
0001
0000
1000
0010
,
0000
0000
0100
0000
0020
0100
0000
0130
;
