#TITLE:Kira Kira Killer;
#SUBTITLE:;
#ARTIST:Kyary Pamyu Pamyu;
#TITLETRANSLIT:;
#SUBTITLETRANSLIT:;
#ARTISTTRANSLIT:;
#GENRE:;
#CREDIT:;
#BANNER:;
#BACKGROUND:;
#LYRICSPATH:;
#CDTITLE:;
#MUSIC:Kira Kira Killer.ogg;
#OFFSET:0.000000;
#SAMPLESTART:59.812500;
#SAMPLELENGTH:12.000000;
#SELECTABLE:YES;
#BPMS:0.000000=160.000000
;
#STOPS:
;
#BGCHANGES:;
#KEYSOUNDS:;
#ATTACKS:;

//---------------dance-single - ----------------
#NOTES:
     dance-single:
     :
     Hard:
     8:
     0.518387,0.553265,0.217723,0.480804,0.000000,400.000000,376.000000,24.000000,53.000000,0.000000,0.000000,0.518387,0.553265,0.217723,0.480804,0.000000,400.000000,376.000000,24.000000,53.000000,0.000000,0.000000:
0000
0000
0000
0000
,
0000
0000
0000
0000
,
0000
0000
0000
0000
,
0000
0000
0000
0000
,
1000
0010
0001
0100
,
1000
0010
1000
0010
0100
0010
0100
0010
,
0001
0100
1000
0010
,
0001
0100
0001
0100
1000
0100
1000
0100
,
1000
1010
0110
0101
,
0001
0100
1000
0100
0001
0010
1000
0010
,
0001
0101
0110
1010
,
1000
0100
0001
0100
1000
0010
0001
0010
,
1000
1100
0110
0011
,
0001
0010
1000
0010
0001
0100
1000
0100
,
0001
0011
1001
1100
,
2010
0000
0000
0000
0000
3001
1000
0000
,
0001
0000
0010
0100
0010
0000
0001
1000
,
0100
0010
0001
0100
0001
0010
1000
0010
,
0001
0101
0110
1001
,
0110
1100
0101
1001
,
1000
0010
1000
0010
0100
0000
1000
0100
,
0001
0010
0100
1000
0001
0100
1000
0100
,
0001
0000
0011
0000
0110
0000
0010
1000
,
0010
0000
0011
0000
0001
1000
0001
1000
,
0002
0000
0100
0000
0013
0001
1000
0100
,
0002
0000
0103
2000
0000
3020
0000
0000
,
0230
0000
1000
0000
0301
0100
0001
0010
,
0002
0000
0103
2000
0000
3200
0000
0000
,
0302
0000
1000
0000
0013
0001
0000
0100
,
0020
0000
1030
0200
0000
0302
0000
0000
,
0203
1000
0010
0001
,
1000
0010
0010
0310
,
0200
0000
1300
0100
1000
0001
0100
0001
,
0010
0000
1000
0010
0001
0000
1001
0000
,
0002
0000
0103
0001
0100
0000
0100
0010
,
0200
0000
1300
0100
0001
0000
0001
0100
,
0020
1000
0001
2030
,
3200
0000
0310
0200
1000
0000
2300
0000
,
3001
0010
0001
0010
0100
0010
0100
0010
,
0001
0000
0100
0000
1000
0000
0010
0002
,
0000
0103
0010
0100
0010
2000
0000
3200
,
0000
0310
0100
0010
0100
0002
0000
0203
,
0000
1300
0100
1000
0100
0020
0000
2030
,
0000
3010
0100
0010
0100
0002
0000
0203
,
0000
1300
0010
1000
0010
0200
0000
2300
,
0000
3100
0001
0100
0001
0020
0000
0230
,
0000
1300
0200
0000
0010
0000
1300
0000
,
0001
0000
0100
0000
1000
0000
0010
0002
,
0000
0103
0001
0100
0001
0020
0000
2030
,
0000
3010
0001
0010
0001
0200
0000
2300
,
0000
3100
0010
0100
0010
0002
0000
0023
,
0000
1030
0010
1000
0010
0200
0000
0302
,
0000
0013
0100
0010
0100
2000
0000
3200
,
0000
0310
0100
0010
0100
0001
0000
0100
,
0000
1000
0020
0000
0001
0000
1000
0000
,
0100
0000
0031
0000
1000
0100
0001
0100
,
1000
0002
0100
0000
0013
0001
0010
0001
,
0010
0200
1000
0000
0010
0000
0001
0000
,
1000
0010
1000
0001
,
1000
0000
0310
0000
0100
0010
0100
0010
,
0001
2000
0100
0000
3001
1000
0001
1000
,
0001
0020
0100
0000
0001
0000
1000
0000
,
0001
0130
0010
0001
,
1000
0000
0010
0000
1000
0010
0001
0010
,
1000
0100
0001
0010
,
1000
0100
0001
0100
1000
0010
0001
0010
,
1000
0100
0001
0010
,
1000
0010
0001
0010
1000
0100
0001
0100
,
1000
0010
0001
0100
,
1000
0100
0001
0100
1000
0010
0001
0010
,
1000
0010
0001
0100
,
2000
0000
0000
0000
0000
3001
1000
0000
;

//---------------dance-single - ----------------
#NOTES:
     dance-single:
     :
     Medium:
     6:
     0.404342,0.488175,0.099790,0.172364,0.000000,312.000000,301.000000,11.000000,19.000000,0.000000,0.000000,0.404342,0.488175,0.099790,0.172364,0.000000,312.000000,301.000000,11.000000,19.000000,0.000000,0.000000:
// measure 0
0000
0000
0000
0000
,  // measure 1
0000
0000
0000
0000
,  // measure 2
0000
0000
0000
0000
,  // measure 3
0000
0000
0000
0000
,  // measure 4
1000
0100
0001
0100
,  // measure 5
1000
1000
1000
1000
,  // measure 6
0001
0100
1000
0100
,  // measure 7
0001
0001
0001
0001
,  // measure 8
1000
0100
0001
0100
,  // measure 9
1000
0010
1000
0000
0010
0100
0010
0000
,  // measure 10
1000
0010
0001
0010
,  // measure 11
1000
0100
1000
0000
0100
0010
0100
0000
,  // measure 12
1000
0001
0100
1000
,  // measure 13
0100
0001
0100
0000
0001
0010
0001
0000
,  // measure 14
0010
1000
0010
0001
,  // measure 15
0021
0000
0000
0000
0000
1030
0010
0000
,  // measure 16
0001
1000
0010
0100
,  // measure 17
0001
0010
0100
0010
,  // measure 18
0110
0011
0110
0010
,  // measure 19
0110
1100
0110
0100
,  // measure 20
1000
0001
0100
1000
,  // measure 21
0100
0001
0010
0100
,  // measure 22
0010
0000
0110
0000
1100
0000
0100
0001
,  // measure 23
0100
1100
1001
0001
,  // measure 24
2000
0000
0010
0000
0000
3010
2000
0000
,  // measure 25
3200
0000
1300
0200
0000
0302
0000
0000
,  // measure 26
0203
0000
0000
0000
0000
0310
0200
0000
,  // measure 27
0320
0000
0031
2000
0000
3020
0000
0000
,  // measure 28
0230
0000
0001
0000
0000
0310
0000
1000
,  // measure 29
0020
0000
0130
0020
0000
2030
0000
0000
,  // measure 30
3002
0100
0000
0100
,  // measure 31
0000
0010
0010
0013
,  // measure 32
0001
0000
1000
0001
1000
0000
0010
0000
,  // measure 33
0100
0000
0010
0100
0010
0000
1000
0000
,  // measure 34
0100
0000
0010
0100
0010
0000
0001
0000
,  // measure 35
0010
0000
1000
0010
1000
0000
0010
0000
,  // measure 36
0001
0100
0010
1000
,  // measure 37
0100
0000
1000
0100
0000
0000
0001
0000
,  // measure 38
0100
1000
0001
0100
,  // measure 39
0001
0000
0010
0000
1000
0000
0010
0001
,  // measure 40
0000
0001
0010
0000
0010
0000
0010
0100
,  // measure 41
0000
0100
0010
0000
0010
0000
0010
1000
,  // measure 42
0000
1000
0010
0000
0010
0000
0010
0001
,  // measure 43
0000
0001
0100
0000
0100
0000
0100
1000
,  // measure 44
0000
1000
0100
0000
0100
0000
0100
0010
,  // measure 45
0000
0010
1000
0000
1000
0000
1000
0001
,  // measure 46
0000
0100
0002
0000
1000
0000
0100
0000
,  // measure 47
1003
0000
0010
0000
0001
0000
0010
1000
,  // measure 48
0000
1000
0100
0000
0100
0000
0100
0010
,  // measure 49
0000
0010
0100
0000
0100
0000
0100
0001
,  // measure 50
0000
0001
0100
0000
0100
0000
0100
1000
,  // measure 51
0000
1000
0010
0000
0010
0000
0010
0001
,  // measure 52
0000
0001
0010
0000
0010
0000
0010
0100
,  // measure 53
0000
0100
0001
0000
0001
0000
0001
1000
,  // measure 54
0000
0010
2000
0000
0001
0000
0010
0000
,  // measure 55
3001
0100
0001
0001
,  // measure 56
0001
1000
0100
0100
,  // measure 57
0100
0010
0001
1000
,  // measure 58
0010
0100
0010
1000
,  // measure 59
0001
0000
0100
0000
0010
0000
0010
0100
,  // measure 60
0010
1000
0001
0100
,  // measure 61
0001
0010
0100
1000
,  // measure 62
0001
0010
1000
0010
,  // measure 63
0100
0000
1000
0000
0001
1000
0001
1000
,  // measure 64
0001
0100
1000
0100
,  // measure 65
0001
0010
0001
0000
0010
0100
0010
0000
,  // measure 66
0001
0010
1000
0010
,  // measure 67
0001
1000
0001
0000
1000
0100
1000
0000
,  // measure 68
0100
0010
0100
0001
,  // measure 69
0100
1000
0100
0000
0010
0100
0010
0000
,  // measure 70
0001
0100
1000
0100
,  // measure 71
0002
0000
0000
0000
0000
1003
0001
0000
;

//---------------dance-single - ----------------
#NOTES:
     dance-single:
     :
     Easy:
     4:
     0.316216,0.292905,0.000000,0.108861,0.000000,244.000000,244.000000,0.000000,12.000000,0.000000,0.000000,0.316216,0.292905,0.000000,0.108861,0.000000,244.000000,244.000000,0.000000,12.000000,0.000000,0.000000:
// measure 0
0000
0000
0000
0000
,  // measure 1
0000
0000
0000
0000
,  // measure 2
0000
0000
0000
0000
,  // measure 3
0000
0000
0000
0000
,  // measure 4
1000
0100
0010
0001
,  // measure 5
1000
0010
0100
0010
,  // measure 6
1000
0010
0100
0001
,  // measure 7
0020
0000
0000
0000
,  // measure 8
0031
0100
0001
0100
,  // measure 9
1000
1000
0100
0100
,  // measure 10
0001
0010
0001
0010
,  // measure 11
1000
1000
0010
0010
,  // measure 12
0001
1000
0001
1000
,  // measure 13
0100
0100
0010
0010
,  // measure 14
1000
0010
1000
0010
,  // measure 15
0001
0000
0000
0000
0000
0001
1000
0000
,  // measure 16
0001
0100
0001
0010
,  // measure 17
0001
1000
0100
0001
,  // measure 18
0100
1000
0100
0000
,  // measure 19
1000
0010
1000
0000
,  // measure 20
0001
0100
0001
0010
,  // measure 21
0100
0010
1000
0010
,  // measure 22
0001
0100
1000
0000
,  // measure 23
1000
0100
0001
1000
,  // measure 24
0020
1000
0000
1000
,  // measure 25
0130
0000
0000
0010
0000
2000
0000
0000
,  // measure 26
3002
0010
0000
0010
,  // measure 27
1003
0000
0000
0001
0000
0020
0000
0000
,  // measure 28
0230
0000
1000
0000
0000
1000
0000
0000
,  // measure 29
0310
0000
0000
0100
0000
2000
0000
0000
,  // measure 30
3002
0100
0000
0100
,  // measure 31
0000
0010
0010
0010
,  // measure 32
1003
0100
0010
0100
,  // measure 33
1000
0010
0100
0010
,  // measure 34
1000
0001
0100
0001
,  // measure 35
1000
0001
0010
0001
,  // measure 36
1000
0010
0100
0001
,  // measure 37
0010
0100
1000
0100
,  // measure 38
0001
0100
1000
0100
,  // measure 39
0010
0010
0010
0010
,  // measure 40
0001
0010
0100
0010
,  // measure 41
0001
0010
1000
0010
,  // measure 42
0001
0100
0010
0100
,  // measure 43
0001
0100
1000
0100
,  // measure 44
0001
1000
0010
1000
,  // measure 45
0100
0010
0100
0001
,  // measure 46
0100
1000
0010
1000
,  // measure 47
0001
0001
0001
0001
,  // measure 48
1000
0100
0010
0100
,  // measure 49
1000
0100
0001
0100
,  // measure 50
1000
0010
0100
0010
,  // measure 51
1000
0010
0001
0010
,  // measure 52
1000
0001
0100
0001
,  // measure 53
0010
0100
0010
1000
,  // measure 54
0010
0001
0100
0001
,  // measure 55
1000
1000
0000
1000
,  // measure 56
0002
0100
1000
0100
,  // measure 57
0020
0000
0000
0003
,  // measure 58
0000
0100
0000
0100
,  // measure 59
0000
1030
0010
0001
,  // measure 60
2000
0010
0001
0020
,  // measure 61
0000
0000
0000
3000
,  // measure 62
0000
1030
0010
0100
,  // measure 63
0010
1000
0001
1000
,  // measure 64
0001
0010
0100
1000
,  // measure 65
0001
0100
0010
0100
,  // measure 66
0001
0100
0010
1000
,  // measure 67
0001
0010
0100
0010
,  // measure 68
0001
0100
0010
0100
,  // measure 69
1000
0100
1000
0100
,  // measure 70
0001
0010
0100
1000
,  // measure 71
0001
0000
0000
0000
0000
1000
0001
0000
;
