#VERSION:0.83;
#TITLE:Fucking High;
#SUBTITLE:(Shandy Kubota Remix);
#ARTIST:USAO;
#TITLETRANSLIT:;
#SUBTITLETRANSLIT:;
#ARTISTTRANSLIT:;
#GENRE:EDM;
#ORIGIN:;
#CREDIT:;
#BANNER:Fucking High (Shandy Kubota Remix).png;
#BACKGROUND:Fucking High (Shandy Kubota Remix)-bg.png;
#PREVIEWVID:;
#JACKET:Fucking High (Shandy Kubota Remix)-jacket.png;
#CDIMAGE:;
#DISCIMAGE:DNNRck-UQAAc2aj.jpg;
#LYRICSPATH:;
#CDTITLE:;
#MUSIC:Fucking High (Shandy Kubota Remix).ogg;
#OFFSET:-0.090224;
#SAMPLESTART:58.419998;
#SAMPLELENGTH:16.640625;
#SELECTABLE:YES;
#BPMS:0.000=128.000;
#STOPS:;
#DELAYS:;
#WARPS:;
#TIMESIGNATURES:0.000=4=4;
#TICKCOUNTS:0.000=4;
#COMBOS:0.000=1;
#SPEEDS:0.000=1.000=0.000=0;
#SCROLLS:0.000=1.000;
#FAKES:;
#LABELS:0.000=Song Start;
#BGCHANGES:;
#KEYSOUNDS:;
#ATTACKS:
;

//---------------dance-single - ----------------
#NOTEDATA:;
#CHARTNAME:;
#STEPSTYPE:dance-single;
#DESCRIPTION:;
#CHARTSTYLE:;
#DIFFICULTY:Hard;
#METER:7;
#RADARVALUES:0.382517,0.393640,0.072960,0.321023,0.211583,367.000000,357.000000,10.000000,44.000000,0.000000,0.000000,0.000000,0.000000,0.000000,0.382517,0.393640,0.072960,0.321023,0.211583,367.000000,357.000000,10.000000,44.000000,0.000000,0.000000,0.000000,0.000000,0.000000;
#CREDIT:;
#NOTES:
// measure 0
0000
0000
0000
0000
,  // measure 1
0000
0000
0000
0000
,  // measure 2
0000
0000
0000
0000
,  // measure 3
0000
0000
0000
0000
,  // measure 4
0010
0000
0000
0000
1000
0000
0000
0000
0100
0000
0000
0100
0000
0000
1000
0000
,  // measure 5
0000
0000
0001
0000
0000
1000
0000
0000
0001
0000
0000
0010
0000
0000
0010
0000
,  // measure 6
0001
0000
0000
0000
0100
0000
0000
0000
0010
0000
0000
0010
0000
0000
0100
0000
,  // measure 7
0000
0000
0001
0000
0000
0100
0000
0000
0001
0000
0000
1000
0000
0000
1000
0000
,  // measure 8
0001
0010
0100
0110
,  // measure 9
1000
0100
0010
0000
0001
0010
0100
0000
,  // measure 10
0010
0100
1000
1100
,  // measure 11
0100
0010
0001
0000
1000
0100
0010
0000
,  // measure 12
0100
0010
0001
0011
,  // measure 13
0010
0001
0100
0000
0010
1000
0100
0000
,  // measure 14
0010
0001
1000
1001
,  // measure 15
0001
0100
0010
0000
1000
0000
1010
0000
,  // measure 16
0200
0310
2000
3010
,  // measure 17
0200
0310
0000
0020
,  // measure 18
2030
3001
0020
0031
,  // measure 19
2000
3001
0000
1001
,  // measure 20
0010
0000
0000
0000
0100
0000
0000
0000
1000
0000
0000
1000
0000
0000
0010
0000
,  // measure 21
0000
0000
0100
0000
0000
0001
0000
0000
0100
0000
0000
0100
0000
0000
0010
0000
,  // measure 22
1000
0000
0000
0000
0001
0000
0000
0000
0100
0000
0000
0100
0000
0000
0010
0000
,  // measure 23
0000
0000
0100
0000
0000
0001
0000
0000
1000
0000
0000
1000
0000
0000
0010
0000
,  // measure 24
0000
0000
1000
0000
0000
0001
0000
1000
0000
0000
0100
0000
0000
0100
0000
0010
,  // measure 25
0000
0000
0001
0000
0000
0010
0000
0010
0000
0001
0000
0100
0000
0000
0010
0000
,  // measure 26
0000
0000
0100
0000
0000
0010
0000
1000
0000
0000
0100
0000
0000
0100
0000
0010
,  // measure 27
0000
0000
0001
0000
0000
1000
0000
0001
0000
1000
0000
0010
0000
0010
1000
0000
,  // measure 28
0000
0000
0100
0000
0000
1000
0000
0001
0000
0000
0010
0000
0000
0100
0000
1000
,  // measure 29
0000
0000
0001
0000
0000
0010
0000
0100
0000
0000
0010
0000
0100
0000
1000
0000
,  // measure 30
0200
0020
0000
0000
0300
0000
0030
0000
,  // measure 31
1000
0000
0000
0000
1000
0000
0000
0000
1000
0000
0000
0000
0010
1000
0010
0000
,  // measure 32
0100
0010
0100
0000
0001
0100
0010
1000
,  // measure 33
0010
0100
0002
0000
0023
0000
0130
1000
,  // measure 34
0100
0010
0001
0000
1000
0100
0010
0001
,  // measure 35
0010
0100
2000
0000
3001
1000
0020
0000
,  // measure 36
1030
0010
1000
0000
0100
0010
0001
0010
,  // measure 37
0001
0100
0020
0000
2030
0000
3200
0000
,  // measure 38
1300
0001
1000
0000
0010
0000
1000
0001
,  // measure 39
0100
0010
2000
0000
3010
0100
0001
0100
,  // measure 40
0010
1000
0001
0000
0100
0010
1000
0010
,  // measure 41
0100
0001
0200
0000
0320
0000
0130
0001
,  // measure 42
1000
0010
1000
0000
0001
0100
0001
0010
,  // measure 43
0100
1000
0002
0000
1003
0010
0200
0000
,  // measure 44
0310
1000
0010
0000
0100
0010
1000
0001
,  // measure 45
0010
0001
2000
0000
3020
0000
0230
0000
,  // measure 46
0301
0010
0001
0000
1000
0001
0010
0001
,  // measure 47
0010
0100
2000
0000
3100
0010
0001
1000
,  // measure 48
0010
0000
0000
0000
0110
0000
0000
0000
0100
0001
0000
0100
0000
0000
0020
0000
,  // measure 49
0000
0000
1030
0000
0000
0001
0000
0000
1000
0000
0000
0010
0000
0000
0010
0000
,  // measure 50
1000
0000
0000
0000
1001
0000
0000
0000
0010
0000
0000
0100
0000
0000
2000
0000
,  // measure 51
0000
0000
3001
0000
0000
0001
0000
0000
0100
0000
0000
0010
0000
0000
1000
0000
,  // measure 52
0100
0000
0000
0000
1100
0000
0000
0000
1000
0001
0000
1000
0000
0000
0020
0000
,  // measure 53
0000
0130
0010
1000
0100
0010
0001
0000
,  // measure 54
1000
0000
0000
0000
1001
0000
0000
0000
0001
0000
0000
0010
0000
0000
0002
0000
,  // measure 55
0000
0103
0001
0010
0200
0000
2300
0000
,  // measure 56
3010
0000
0000
0000
1000
0000
0000
0000
0001
0000
0000
0100
0001
0000
0010
0000
,  // measure 57
0000
0000
0100
0000
1000
0100
0000
0000
0010
0000
0000
0100
0010
0000
0001
0000
,  // measure 58
1000
0000
0000
0000
0010
0000
0000
0000
0100
0000
0000
0001
0100
0000
0010
0000
,  // measure 59
0000
0000
1000
0000
0010
1000
0000
0000
0001
0000
0000
0001
1000
0000
0100
0000
,  // measure 60
0010
0000
0000
0000
0001
0000
0000
0000
0010
0000
0000
0010
0100
0000
0010
0000
,  // measure 61
0000
0000
0001
0000
0100
0001
0000
0000
1000
0000
0000
0010
1000
0000
0010
0000
,  // measure 62
0100
0000
0000
0000
0010
0000
0000
0000
1000
0000
0000
0010
1000
0000
0001
0000
,  // measure 63
0000
0000
1000
0000
0001
1000
0000
0000
0100
0000
0000
1000
0100
0000
0010
0000
,  // measure 64
0002
0000
0000
0000
2003
0000
0000
3020
,  // measure 65
0000
0000
0100
1030
,  // measure 66
0200
0000
0000
0000
0302
0000
0000
2003
,  // measure 67
0000
0000
0010
3001
,  // measure 68
0020
0000
0000
0000
2030
0000
0000
3200
,  // measure 69
0000
0000
0010
1300
,  // measure 70
0020
0000
0000
0000
0032
0000
0000
2003
,  // measure 71
0000
0000
0000
0000
0100
0000
0000
0000
0100
0000
0000
0000
0200
0000
0000
3300
;

//---------------dance-single - ----------------
#NOTEDATA:;
#CHARTNAME:;
#STEPSTYPE:dance-single;
#DESCRIPTION:;
#CHARTSTYLE:;
#DIFFICULTY:Medium;
#METER:4;
#RADARVALUES:0.296008,0.314091,0.080256,0.291839,0.014592,284.000000,273.000000,11.000000,40.000000,0.000000,0.000000,0.000000,0.000000,0.000000,0.296008,0.314091,0.080256,0.291839,0.014592,284.000000,273.000000,11.000000,40.000000,0.000000,0.000000,0.000000,0.000000,0.000000;
#CREDIT:;
#NOTES:
0000
0000
0000
0000
,
0000
0000
0000
0000
,
0000
0000
0000
0000
,
0000
0000
0000
0000
,
0002
0203
0302
0023
,
0130
0000
1000
0000
0100
0000
1000
0010
,
2000
3002
2003
3020
,
0130
0000
0001
0000
0010
0000
0100
0010
,
0100
1000
1000
0010
,
0100
0000
0001
0000
0010
0000
0001
0010
,
0001
0100
0100
0010
,
0100
0000
1000
0000
0010
0000
1000
0001
,
1000
0010
0010
0100
,
1000
0000
0100
0000
0001
0000
0010
0100
,
0010
0100
0100
0001
,
1000
0010
1000
1001
,
0020
0030
0200
0300
,
0020
0030
0000
0002
,
2003
3000
0200
0300
,
2000
3000
2002
3003
,
0020
0130
0020
1030
,
0020
0130
0100
2000
,
3002
0013
0200
0310
,
0002
0013
0100
0110
,
0001
0000
1000
0000
0100
0000
1000
0001
,
1000
0010
0100
0010
,
0100
0000
0001
0000
0010
0000
0100
0001
,
0100
0100
0010
1010
,
1000
1000
0001
0001
,
0100
0100
0010
0010
,
0100
0001
0010
1000
,
0100
0100
0100
1001
,
0001
0000
0100
0000
0010
0000
0100
0001
,
0000
0100
0001
0000
1000
0000
0010
0000
,
1000
0000
0100
0000
0010
0000
1000
0001
,
0000
1000
0001
0000
0010
0000
0011
0000
,
0100
0000
1000
0000
0010
0000
0100
0010
,
0000
0100
0010
0000
1000
0000
0010
0000
,
0001
0000
1000
0000
0100
0000
1000
0010
,
0000
1000
0010
0000
0100
0000
0110
0000
,
1000
0100
1000
0000
0010
0000
0001
0100
,
0000
0001
0100
0000
0010
0000
1000
0000
,
0010
0100
0010
0000
1000
0000
0100
1000
,
0000
0100
1000
0000
0100
0000
0010
0000
,
0100
0001
0100
0000
1000
0000
0010
0001
,
0000
0010
0001
0000
1000
0000
0001
0000
,
0010
0000
1000
0000
0100
0000
0001
0100
,
0000
0001
0100
0000
1000
0000
1001
0000
,
0001
0000
0000
0000
0100
0000
0000
0000
0010
0000
0000
0100
0000
0000
0020
0000
,
0000
1030
0001
1000
,
0100
0000
0000
0000
0010
0000
0000
0000
1000
0000
0000
0010
0000
0000
2000
0000
,
0000
3001
0010
0001
,
0100
0000
0000
0000
0010
0000
0000
0000
0100
0000
0000
1000
0000
0000
0200
0000
,
0000
0310
1000
0100
,
0001
0000
0000
0000
1000
0000
0000
0000
0001
0000
0000
0100
0000
0000
0002
0000
,
0000
1003
1000
1010
,
0010
0000
0100
0000
0010
0000
1000
0100
,
1000
0000
0001
0000
0100
0001
0100
0000
,
0010
0000
0100
0000
0001
0000
1000
0001
,
1000
0000
0010
0000
0100
0010
0100
0000
,
1000
0000
0001
0000
0010
0000
0001
0010
,
0001
0000
1000
0000
0001
0100
0001
0000
,
1000
0000
0010
0000
0100
0000
0010
1000
,
0010
1000
0001
1001
,
0020
0000
0030
0000
0200
0000
0300
0020
,
0000
0000
0030
0100
,
2000
0000
3000
0000
0200
0000
0300
2000
,
0000
0000
3000
0010
,
0002
0000
0003
0000
0020
0000
0030
0002
,
0000
0000
0003
0100
,
2000
0000
3000
0000
0002
0000
0003
2000
,
0000
0000
3000
1001
;

//---------------dance-single - ----------------
#NOTEDATA:;
#CHARTNAME:;
#STEPSTYPE:dance-single;
#DESCRIPTION:;
#CHARTSTYLE:;
#DIFFICULTY:Easy;
#METER:3;
#RADARVALUES:0.183441,0.209394,0.043776,0.094848,0.000000,176.000000,170.000000,6.000000,13.000000,0.000000,0.000000,0.000000,0.000000,0.000000,0.183441,0.209394,0.043776,0.094848,0.000000,176.000000,170.000000,6.000000,13.000000,0.000000,0.000000,0.000000,0.000000,0.000000;
#CREDIT:;
#NOTES:
0000
0000
0000
0000
,
0000
0000
0000
0000
,
0000
0000
0000
0000
,
0000
0000
0000
0000
,
0001
0100
0001
0001
,
0000
0010
0000
1000
,
0010
0100
0010
0010
,
0000
1000
0000
0001
,
1000
0100
1000
0000
,
0010
0100
0010
0000
,
0001
1000
0001
0000
,
0010
0001
0010
0000
,
0100
0010
0001
0000
,
1000
0001
0100
0000
,
0010
1000
0100
0000
,
1000
0000
1001
0000
,
0010
0000
0100
0000
,
0020
0000
0000
0030
,
1000
0000
0001
0000
,
2000
0000
0000
3000
,
0010
0000
1000
0000
,
0020
0000
0000
0030
,
0100
0000
0001
0000
,
0200
0000
0000
0300
,
0010
0000
1000
1000
,
0010
0000
0100
0100
,
0001
0000
1000
1000
,
0100
0000
0110
0000
,
1000
0001
1000
0000
,
0010
0001
0010
0000
,
0100
0010
0100
0010
,
0200
0000
0300
0000
,
1001
0000
1000
0010
,
0100
0000
0010
0001
,
0010
0000
1000
0001
,
0100
0000
0010
0010
,
1000
0000
0100
0010
,
0001
0000
1000
0001
,
1000
0000
0010
1000
,
0100
0000
0110
0000
,
1000
0001
0100
0000
,
0100
0010
0100
0000
,
0001
1000
0010
0000
,
0010
1000
0010
0000
,
0100
1000
0001
0000
,
0001
1000
0001
0000
,
0010
0001
1000
0000
,
1000
0010
1000
0000
,
0100
0000
0010
0010
,
0001
0000
1000
0001
,
1000
0000
0100
0100
,
0010
0000
0001
1000
,
0001
0000
1000
1000
,
0100
0000
0010
0001
,
0010
0000
0001
0001
,
1000
0000
1001
0000
,
0010
0100
0010
0000
,
0001
0100
0001
0000
,
1000
0001
1000
0000
,
0010
1000
0010
0000
,
0100
1000
0100
0000
,
0001
0010
0001
0000
,
1000
0001
1000
0000
,
0010
0000
0110
0000
,
2000
0000
0000
3000
,
0002
0000
0000
0003
,
2000
0000
0000
3000
,
0020
0000
0000
0030
,
0200
0000
0000
0300
,
0020
0000
0000
0030
,
2000
0000
0000
3000
,
0002
0000
0000
0003
;

//---------------dance-single - ----------------
#NOTEDATA:;
#CHARTNAME:;
#STEPSTYPE:dance-single;
#DESCRIPTION:;
#CHARTSTYLE:;
#DIFFICULTY:Beginner;
#METER:1;
#RADARVALUES:0.113609,0.153215,0.058368,0.014592,0.000000,109.000000,101.000000,8.000000,2.000000,0.000000,0.000000,0.000000,0.000000,0.000000,0.113609,0.153215,0.058368,0.014592,0.000000,109.000000,101.000000,8.000000,2.000000,0.000000,0.000000,0.000000,0.000000,0.000000;
#CREDIT:;
#NOTES:
0000
0000
0000
0000
,
0000
0000
0000
0000
,
0000
0000
0000
0000
,
0000
0000
0000
0000
,
1000
0000
0000
0000
,
0001
0000
0000
0000
,
1000
0000
0000
0000
,
0001
0000
0000
0000
,
0010
0000
0010
0000
,
0100
0000
0100
0000
,
0010
0000
0010
0000
,
0100
0000
0100
0000
,
1000
0000
1000
0000
,
0001
0000
0001
0000
,
1000
0000
1000
0000
,
0001
0000
0001
0000
,
1001
0000
0000
0000
,
0000
0000
0000
0000
,
1001
0000
0000
0000
,
0000
0000
0000
0000
,
0110
0000
0000
0000
,
0000
0000
0000
0000
,
0110
0000
0000
0000
,
0000
0000
0000
0000
,
0010
0000
0000
0000
,
0100
0000
0000
0000
,
0010
0000
0000
0000
,
0100
0000
0000
0000
,
0001
0000
0001
0000
,
1000
0000
1000
0000
,
2002
0000
0000
0000
,
3003
0000
0000
0000
,
0100
0000
0100
0000
,
0010
0000
0100
0000
,
1000
0000
1000
0000
,
0001
0000
1000
0000
,
0010
0000
0010
0000
,
0100
0000
0010
0000
,
0001
0000
0001
0000
,
1000
0000
0001
0000
,
1001
0000
1000
0000
,
0001
0000
1000
0000
,
0010
0000
0100
0000
,
0010
0000
0100
0000
,
1000
0000
0001
0000
,
1000
0000
0001
0000
,
0100
0000
0010
0000
,
0100
0000
0110
0000
,
1000
0000
1000
0000
,
1000
0000
0001
0000
,
0100
0000
0100
0000
,
0100
0000
0010
0000
,
0001
0000
0001
0000
,
0001
0000
1000
0000
,
0010
0000
0010
0000
,
0010
0000
0100
0000
,
1000
0000
0001
0000
,
1000
0000
0001
0000
,
0100
0000
0010
0000
,
0100
0000
0010
0000
,
0001
0000
1000
0000
,
0001
0000
1000
0000
,
0010
0000
0100
0000
,
0010
0000
0100
0000
,
1001
0000
0000
0000
,
0000
0000
0000
0000
,
0001
0000
0000
0000
,
0000
0000
0000
0000
,
0010
0000
0000
0000
,
0000
0000
0000
0000
,
0100
0000
0000
0000
;
