#VERSION:0.83;
#TITLE:BAD BOY;
#SUBTITLE:(HANDS UP MIX);
#ARTIST:CASCADA Remixed by Ryu☆;
#TITLETRANSLIT:;
#SUBTITLETRANSLIT:;
#ARTISTTRANSLIT:CASCADA Remixed by Ryu;
#GENRE:HANDS UP;
#ORIGIN:;
#CREDIT:;
#BANNER:[Round 2] - BAD BOY (HANDS UP MIX).png;
#BACKGROUND:[Round 2] - BAD BOY (HANDS UP MIX)-bg.png;
#PREVIEWVID:;
#JACKET:[Round 2] - BAD BOY (HANDS UP MIX)-jacket.png;
#CDIMAGE:;
#DISCIMAGE:;
#LYRICSPATH:;
#CDTITLE:CDTitle.png;
#MUSIC:[Round 2] - BAD BOY (HANDS UP MIX).ogg;
#OFFSET:-0.000378;
#SAMPLESTART:59.599033;
#SAMPLELENGTH:13.241379;
#SELECTABLE:YES;
#BPMS:0.000=145.000;
#STOPS:;
#DELAYS:;
#WARPS:;
#TIMESIGNATURES:0.000=4=4;
#TICKCOUNTS:0.000=4;
#COMBOS:0.000=1;
#SPEEDS:0.000=1.000=0.000=0;
#SCROLLS:0.000=1.000;
#FAKES:;
#LABELS:0.000=Song Start;
#BGCHANGES:;
#KEYSOUNDS:;
#ATTACKS:
;

//---------------dance-single - ----------------
#NOTEDATA:;
#CHARTNAME:;
#STEPSTYPE:dance-single;
#DESCRIPTION:;
#CHARTSTYLE:;
#DIFFICULTY:Hard;
#METER:9;
#RADARVALUES:0.573510,0.646049,0.118950,0.267638,0.323396,540.000000,524.000000,16.000000,36.000000,0.000000,0.000000,0.000000,0.000000,0.000000,0.573510,0.646049,0.118950,0.267638,0.323396,540.000000,524.000000,16.000000,36.000000,0.000000,0.000000,0.000000,0.000000,0.000000;
#CREDIT:DDRDAIKENKAI;
#NOTES:
// measure 0
0000
0000
0000
0000
,  // measure 1
0000
0000
0000
0000
,  // measure 2
0000
0000
0000
0000
,  // measure 3
0000
0000
0000
0000
,  // measure 4
0000
0000
0000
0000
,  // measure 5
0000
0000
0000
0000
,  // measure 6
0000
0000
0000
0000
,  // measure 7
2002
0000
0000
3003
,  // measure 8
2000
0000
0000
0001
0000
0000
0100
0000
,  // measure 9
3002
0000
0000
0010
0000
0000
0100
0000
,  // measure 10
0023
0000
0000
1000
0000
0000
0001
0000
,  // measure 11
0130
0110
1001
0110
,  // measure 12
2000
0100
0000
0010
0000
0001
0000
0010
,  // measure 13
3200
0001
0000
0010
0000
1000
0000
0001
,  // measure 14
0320
0100
0000
1000
0000
0001
0000
0100
,  // measure 15
0032
0000
0000
0000
,  // measure 16
1003
0100
1000
0010
0100
0001
1000
0000
,  // measure 17
0001
0010
0001
0100
0010
1000
0001
0000
,  // measure 18
0010
1000
0010
0001
0100
0001
1000
0010
,  // measure 19
1000
0100
1000
0010
0001
0010
1000
0000
,  // measure 20
0010
0100
0001
0010
0100
1000
0010
0000
,  // measure 21
0100
0010
1000
0100
0010
0001
0100
0000
,  // measure 22
0010
1000
0010
1000
0001
0100
0001
0100
,  // measure 23
0001
0000
0000
0000
0000
0000
0000
0000
0010
0000
0000
0000
0000
0000
0000
0000
0001
0000
0000
0000
0000
0000
0000
0000
0010
0000
0000
0000
0000
0000
0000
0000
0100
0000
0000
0000
1000
0000
0000
0000
0100
0000
0000
0000
1000
0000
0000
0000
0200
0000
0000
0000
0000
0000
0000
0000
0000
0000
0000
0000
0000
0000
0000
0300
,  // measure 24
2200
3300
0022
0033
,  // measure 25
2002
0000
0000
3003
,  // measure 26
1000
0100
1000
0010
0001
0010
1000
0001
,  // measure 27
0100
0010
1000
0001
0010
0100
0010
0100
,  // measure 28
0010
0100
1000
0010
0001
0010
1000
0001
,  // measure 29
0010
0001
1000
0001
0010
0001
0100
0001
,  // measure 30
1000
0010
0100
0001
0010
0001
1000
0100
,  // measure 31
0010
0100
1000
0001
0010
0100
0010
0100
,  // measure 32
0010
0100
1000
0010
0001
0010
1000
0100
,  // measure 33
1000
0000
0000
0000
0000
0000
0000
0000
0010
0000
0000
0000
0000
0000
0000
0000
0100
0000
0000
0000
0000
0000
0000
0000
0001
0000
0000
0000
0000
0000
0000
0000
1000
0000
0000
0000
0001
0000
0000
0000
1000
0000
0000
0000
0001
0000
0000
0000
2000
0000
0000
0000
0000
0000
0000
0000
0000
0000
0000
0000
0000
0000
0000
3000
,  // measure 34
2002
3003
0220
0330
,  // measure 35
0100
0110
0110
1001
,  // measure 36
1100
0100
1000
0010
0100
0001
0010
0100
,  // measure 37
1000
0010
0001
0010
2000
0000
0001
0001
,  // measure 38
3001
0010
0001
0100
0010
1000
0100
0010
,  // measure 39
0001
0100
1000
0100
0002
0000
1000
1000
,  // measure 40
1003
0100
0010
0100
0001
1000
0010
0100
,  // measure 41
0010
0001
0100
0010
0002
0000
0010
0010
,  // measure 42
0013
1000
0010
1000
0001
1000
0001
1000
,  // measure 43
0100
0001
0100
1000
0200
0000
0010
0310
,  // measure 44
0001
0010
0001
0010
0001
1000
0001
1000
,  // measure 45
0010
0001
0010
1000
0002
0000
1000
1003
,  // measure 46
0010
1000
0100
1000
0010
0100
0001
0010
,  // measure 47
0100
1000
0010
0001
0020
0000
0130
0001
,  // measure 48
1000
0100
0010
0100
0001
0100
0010
0100
,  // measure 49
1000
0010
0100
0001
0020
0000
0130
1000
,  // measure 50
0001
0010
0100
0010
1000
0010
0100
0010
,  // measure 51
0001
0100
1000
0100
0002
0000
1003
0010
,  // measure 52
0200
0000
0320
0000
2030
0000
3001
1000
,  // measure 53
0200
0000
0000
0000
0000
0300
0000
0000
,  // measure 54
1000
0000
0000
0000
0000
0000
0001
0000
0000
0000
0000
0000
0010
0000
0000
0001
0000
0000
0000
0000
0000
0010
0000
0000
0000
0000
0000
0010
0000
0000
0000
0000
0000
0100
0000
0000
1000
0000
0000
0000
0000
0000
0001
0000
0000
0000
0001
0000
,  // measure 55
0100
0000
0000
0000
0000
0000
0010
0000
0000
0000
0000
0000
0100
0000
0000
0001
0000
0000
0000
0000
0000
1000
0000
0000
0000
0000
0000
1000
0000
0000
0000
0000
0000
0100
0000
0000
0010
0000
0000
0000
0000
0000
0001
0000
0000
0000
0001
0000
,  // measure 56
1000
0000
0000
0000
0000
0000
0010
0000
0000
0000
0000
0000
0100
0000
0000
0001
0000
0000
0000
0000
0000
0010
0000
0000
0000
0000
0000
0010
0000
0000
0000
0000
0000
0001
0000
0000
0100
0000
0000
0000
0000
0000
0010
0000
0000
0000
0010
0000
,  // measure 57
1000
0000
0000
0000
0000
0000
0010
0000
0000
0000
0000
0000
0001
0000
0000
0010
0000
0000
0000
0000
0000
0100
0000
0000
0000
0000
0000
0000
0100
0000
0001
0000
0000
1000
0000
0000
0001
0000
0000
0000
0000
0000
1000
0000
0000
0000
0000
0000
,  // measure 58
0001
0000
0000
0000
0000
0000
0010
0000
0000
0000
0000
0000
0001
0000
0000
0100
0000
0000
0000
0000
0000
0010
0000
0000
0000
0000
0000
0010
0000
0000
0000
0000
0000
1000
0000
0000
0100
0000
0000
0000
0000
0000
1000
0000
0000
0000
1000
0000
,  // measure 59
0001
0000
0000
0000
0000
0000
0010
0000
0000
0000
0000
0000
1000
0000
0000
0010
0000
0000
0000
0000
0000
0001
0000
0000
0000
0000
0000
0001
0000
0000
0000
0000
0000
0100
0000
0000
0010
0000
0000
0000
0000
0000
0100
0000
0000
0000
0100
0000
,  // measure 60
0001
0000
0000
0000
0000
0000
1000
0000
0000
0000
0000
0000
0001
0000
0000
0010
0000
0000
0000
0000
0000
0001
0000
0000
0000
0000
0000
0001
0000
0000
0000
0000
0000
1000
0000
0000
0010
0000
0000
0000
0000
0000
0001
0000
0000
0000
0001
0000
,  // measure 61
0010
0000
0010
0000
1000
0001
0000
0100
0000
0100
0000
0100
0001
0010
0001
0100
,  // measure 62
0010
0000
0000
0000
0000
0000
1000
0000
0000
0000
0000
0000
0001
0000
0000
0010
0000
0000
0000
0000
0000
0100
0000
0000
0000
0000
0000
1000
0000
0000
0000
0000
0000
0010
0000
0000
0001
0000
0000
0000
0000
0000
0010
0000
0000
0000
0010
0000
,  // measure 63
1000
0000
0000
0000
0000
0000
0100
0000
0000
0000
0000
0000
0010
0000
0000
0001
0000
0000
0000
0000
0000
1000
0000
0000
0000
0000
0000
0010
0000
0000
0000
0000
0000
0100
0000
0000
0001
0000
0000
0000
0000
0000
1000
0000
0000
0000
1000
0000
,  // measure 64
0010
0000
0000
0000
0000
0000
1000
0000
0000
0000
0000
0000
0001
0000
0000
0010
0000
0000
0000
0000
0000
0001
0000
0000
0000
0000
0000
1000
0000
0000
0000
0000
0000
0010
0000
0000
0100
0000
0000
0000
0000
0000
0001
0000
0000
0000
0001
0000
,  // measure 65
0010
0000
0000
0000
0000
0000
0100
0000
0000
0000
0000
0000
0010
0000
0000
0001
0000
0000
0000
0000
0000
1000
0000
0000
0000
0000
0000
0000
0001
0000
0010
0000
0000
0001
0000
0000
0100
0000
0000
0000
0000
0000
0010
0000
0000
0000
0000
0000
,  // measure 66
1010
0000
0000
0000
0000
0000
1000
0000
0000
0000
0000
0000
0100
0000
0000
0010
0000
0000
0000
0000
0000
0001
0000
0000
0000
0000
0000
0001
0000
0000
0000
0000
0000
0001
0000
0000
0100
0000
0000
0000
0000
0000
0010
0000
0000
0000
0010
0000
,  // measure 67
0100
0000
0000
0000
0000
0000
0100
0000
0000
0000
0000
0000
0001
0000
0000
1000
0000
0000
0000
0000
0000
0010
0000
0000
0000
0000
0000
0010
0000
0000
0000
0000
0000
0010
0000
0000
0100
0000
0000
0000
0000
0000
0010
0000
0000
0000
0010
0000
,  // measure 68
0001
0000
0000
0000
0000
0000
0001
0000
0000
0000
0000
0000
0010
0000
0000
0100
0000
0000
0000
0000
0000
1000
0000
0000
0000
0000
0000
1000
0000
0000
0000
0000
0000
1000
0000
0000
0100
0000
0000
0000
0000
0000
0001
0000
0000
0000
0001
0000
,  // measure 69
0010
0000
0010
0000
0001
1000
0000
0100
0000
0100
0000
0100
1000
0100
0010
0001
,  // measure 70
1000
0010
0100
0010
1000
0010
0100
0010
,  // measure 71
1000
0001
0010
0001
1000
0001
0010
0001
,  // measure 72
1000
0100
0010
0100
1000
0100
0010
0100
,  // measure 73
1000
0100
0001
0100
1000
0100
0001
0100
,  // measure 74
1000
0010
1000
0010
1000
0010
1000
0010
,  // measure 75
0001
0010
0001
0010
0001
0010
0001
0010
,  // measure 76
0001
0100
0001
0100
0001
0100
0001
0100
,  // measure 77
1000
0000
0000
0000
0000
0000
0000
0000
0100
0000
0000
0000
0000
0000
0000
0000
1000
0000
0000
0000
0000
0000
0000
0000
0100
0000
0000
0000
0000
0000
0000
0000
1000
0000
0000
0000
0100
0000
0000
0000
1000
0000
0000
0000
0100
0000
0000
0000
2000
0000
0000
0000
0000
0000
0000
0000
0000
0000
0000
0000
0000
0000
0000
3000
,  // measure 78
1001
0000
0000
0000
0210
0000
0000
0000
0310
0000
0100
0000
0010
2000
0000
0000
,  // measure 79
3001
0000
0000
0000
;

//---------------dance-single - ----------------
#NOTEDATA:;
#CHARTNAME:;
#STEPSTYPE:dance-single;
#DESCRIPTION:;
#CHARTSTYLE:;
#DIFFICULTY:Medium;
#METER:6;
#RADARVALUES:0.417388,0.499219,0.260204,0.453498,0.055758,393.000000,358.000000,35.000000,61.000000,0.000000,0.000000,0.000000,0.000000,0.000000,0.417388,0.499219,0.260204,0.453498,0.055758,393.000000,358.000000,35.000000,61.000000,0.000000,0.000000,0.000000,0.000000,0.000000;
#CREDIT:DDRDAIKENKAI;
#NOTES:
// measure 0
0000
0000
0000
0000
,  // measure 1
0000
0000
0000
0000
,  // measure 2
0000
0000
0000
0000
,  // measure 3
0000
0000
0000
0000
,  // measure 4
2000
0010
0010
3010
,  // measure 5
0002
0100
0100
0103
,  // measure 6
0001
1000
0001
1000
0001
0001
0001
0000
,  // measure 7
2002
0000
0000
3003
,  // measure 8
0002
0000
0000
1000
0000
0000
1003
0000
,  // measure 9
2000
0000
0000
0100
0000
0000
3100
0000
,  // measure 10
0200
0000
0000
0010
0000
0000
0010
0000
,  // measure 11
0310
0001
1000
1001
,  // measure 12
2000
0000
0000
0010
0000
0000
0001
0000
,  // measure 13
3020
0000
0000
0001
0000
0000
1000
0000
,  // measure 14
0230
0000
0000
1000
0000
0000
0010
0000
,  // measure 15
0302
0000
0000
0003
,  // measure 16
1000
0000
0100
0000
0001
0100
1000
0000
,  // measure 17
0001
0000
0100
0000
1000
0100
0001
0000
,  // measure 18
1000
0010
0001
0000
1000
0100
0001
0000
,  // measure 19
0020
1000
0001
0230
,  // measure 20
2300
0000
3001
0010
0100
1000
0001
0000
,  // measure 21
2000
0000
3001
0100
0010
1000
0001
0000
,  // measure 22
1000
0100
1000
0000
0100
0001
0100
0000
,  // measure 23
0001
0010
0001
0000
0010
1000
0010
0000
,  // measure 24
0220
0330
2002
3003
,  // measure 25
0220
0000
0000
0330
,  // measure 26
1000
0000
0100
1000
0001
0000
0010
0000
,  // measure 27
1000
0000
0010
0001
1000
0000
1000
0000
,  // measure 28
1000
0000
0010
0100
0001
0000
1000
0000
,  // measure 29
0001
0010
1000
0100
,  // measure 30
0001
0000
1000
0010
0001
0000
0010
0000
,  // measure 31
1000
0000
0001
0010
1000
0000
0010
0000
,  // measure 32
0001
0000
1000
0100
0001
0000
0100
0000
,  // measure 33
1000
0001
0100
0010
0200
0000
0310
0000
,  // measure 34
2002
3003
0220
0330
,  // measure 35
1000
1001
1001
0110
,  // measure 36
1001
1010
0101
2100
,  // measure 37
0001
0000
0010
0000
3200
0000
0310
0001
,  // measure 38
0020
0000
0230
0000
1300
0001
0100
0010
,  // measure 39
2000
0000
3020
0000
0230
0000
0301
0001
,  // measure 40
1000
1010
0001
0012
,  // measure 41
0000
0013
0100
0100
2000
0000
3010
1000
,  // measure 42
0020
0000
0230
0000
0302
0000
0013
0100
,  // measure 43
0020
0000
0230
0000
2300
0000
3010
0100
,  // measure 44
0101
1010
1001
0012
,  // measure 45
0100
0000
0010
0000
2003
0000
3100
1000
,  // measure 46
0002
0000
0203
0000
0310
1000
0100
0010
,  // measure 47
0001
0000
0011
0000
1001
0000
0001
1000
,  // measure 48
0200
0302
0203
0320
,  // measure 49
0000
0031
0100
0010
2000
0000
3010
0010
,  // measure 50
0200
0302
2003
3020
,  // measure 51
0130
0001
1000
0010
0200
0000
0010
0010
,  // measure 52
0320
0000
2030
0000
3002
0000
1003
0001
,  // measure 53
0200
0000
0000
0000
0000
0300
0000
0000
,  // measure 54
0010
0010
0110
0000
1000
0100
0001
0000
,  // measure 55
0100
0100
0110
0000
0001
0100
1000
0000
,  // measure 56
0100
0010
0110
0000
0010
0001
0100
0000
,  // measure 57
0010
0100
0110
0000
0010
1000
0100
1000
,  // measure 58
0010
0010
1010
0000
0010
0100
0001
0000
,  // measure 59
0010
0010
0011
0000
0010
0100
1000
0000
,  // measure 60
0100
0100
1100
0000
1000
0010
0100
0000
,  // measure 61
0001
0100
0010
1000
0100
0010
0001
0001
,  // measure 62
1000
0000
0100
0000
1100
0000
0000
0100
0000
0100
0000
0000
0010
0000
0000
0000
,  // measure 63
0001
0000
0100
0000
0101
0000
0000
0100
0000
0100
0000
0000
0010
0000
0000
0000
,  // measure 64
1000
0000
0100
0000
1100
0000
0000
1000
0000
1000
0000
0000
0001
0000
0000
0000
,  // measure 65
0010
0000
0001
0000
0011
0000
0000
0010
0000
0000
0010
0000
0100
0000
1000
0000
,  // measure 66
0001
0000
1000
0000
0001
0000
0000
1000
0000
1000
0000
0000
0001
0000
0001
0000
,  // measure 67
0100
0000
0010
0000
0100
0000
0000
0010
0000
0010
0000
0000
0100
0000
0100
0000
,  // measure 68
0001
0000
1000
0000
0001
0000
0000
1000
0000
0001
0000
0000
0100
0000
0100
0000
,  // measure 69
0010
0000
0100
0000
0010
0000
0000
0100
0000
0010
0000
0000
1000
0000
0001
0000
,  // measure 70
1001
0010
0100
0001
,  // measure 71
1000
0100
0010
0001
,  // measure 72
1000
0010
1000
0100
,  // measure 73
0001
0100
1000
0001
,  // measure 74
1000
1000
1000
1000
,  // measure 75
0010
0010
0010
0010
,  // measure 76
0001
0001
0001
0001
,  // measure 77
0100
0000
0100
0000
0100
1000
0100
0000
,  // measure 78
0220
0000
0000
0330
,  // measure 79
0001
0000
0000
0000
;

//---------------dance-single - ----------------
#NOTEDATA:;
#CHARTNAME:;
#STEPSTYPE:dance-single;
#DESCRIPTION:;
#CHARTSTYLE:;
#DIFFICULTY:Easy;
#METER:4;
#RADARVALUES:0.275072,0.352390,0.089213,0.230466,0.000000,259.000000,247.000000,12.000000,31.000000,0.000000,0.000000,0.000000,0.000000,0.000000,0.275072,0.352390,0.089213,0.230466,0.000000,259.000000,247.000000,12.000000,31.000000,0.000000,0.000000,0.000000,0.000000,0.000000;
#CREDIT:DDRDAIKENKAI;
#NOTES:
// measure 0
0000
0000
0000
0000
,  // measure 1
0000
0000
0000
0000
,  // measure 2
0000
0000
0000
0000
,  // measure 3
0000
0000
0000
0000
,  // measure 4
0000
0000
0000
0000
,  // measure 5
0000
0000
0000
0000
,  // measure 6
0000
0000
0000
0000
,  // measure 7
2002
0000
0000
3003
,  // measure 8
0001
0000
0000
1000
0000
0000
0010
0000
,  // measure 9
0020
0000
0000
0130
0000
0000
0001
0000
,  // measure 10
2000
0000
0000
3100
0000
0000
0010
0000
,  // measure 11
0002
0000
0003
1000
,  // measure 12
2000
0000
0000
3001
0000
0000
0100
0000
,  // measure 13
0020
0000
0000
0130
0000
0000
0001
0000
,  // measure 14
0200
0000
0000
0301
0000
0000
1000
0000
,  // measure 15
2000
0000
0000
3000
,  // measure 16
0001
0000
0000
1000
0000
0000
0100
0000
,  // measure 17
0010
0000
0000
0100
0000
0000
1000
0000
,  // measure 18
0001
0000
0000
0100
0000
0000
0010
0000
,  // measure 19
0200
0000
0310
0010
,  // measure 20
1000
0000
0000
0001
0000
0000
0010
0000
,  // measure 21
0001
0000
0000
1000
0000
0000
0020
0000
,  // measure 22
0000
0200
0000
0000
,  // measure 23
0000
0000
0000
0330
,  // measure 24
1001
2002
0000
3003
,  // measure 25
0200
0000
0000
0310
,  // measure 26
0001
1000
0001
0100
,  // measure 27
0010
1000
0001
0001
,  // measure 28
0001
1000
0001
0100
,  // measure 29
0010
1000
0100
0010
,  // measure 30
0001
1000
0001
0100
,  // measure 31
0010
1000
0001
0001
,  // measure 32
0001
1000
0001
0100
,  // measure 33
0010
1000
0200
0310
,  // measure 34
2002
3003
0220
0330
,  // measure 35
0100
1001
1001
1002
,  // measure 36
1003
0001
0100
0010
,  // measure 37
0100
0001
1000
0001
,  // measure 38
0001
0010
0100
0010
,  // measure 39
0100
1000
0001
1000
,  // measure 40
1000
0010
0100
0002
,  // measure 41
0000
0100
0103
0010
,  // measure 42
1000
0100
0001
0100
,  // measure 43
1000
0001
1000
0001
,  // measure 44
0001
0010
0001
0100
,  // measure 45
0010
1000
0001
1000
,  // measure 46
1000
0010
1000
0100
,  // measure 47
0010
0001
0001
0100
,  // measure 48
0010
0001
0010
2000
,  // measure 49
0000
0001
3001
0010
,  // measure 50
0100
0001
0100
1000
,  // measure 51
0002
0000
0000
1000
,  // measure 52
1003
0010
0100
0001
,  // measure 53
0200
0000
0000
0000
0000
0300
0000
0000
,  // measure 54
0010
1000
0100
1000
,  // measure 55
0010
0100
0001
0100
,  // measure 56
0010
1000
0001
1000
,  // measure 57
0100
0010
0001
0100
,  // measure 58
0001
0010
0100
1000
,  // measure 59
0001
0100
0010
1000
,  // measure 60
0010
0010
0100
0100
,  // measure 61
0001
1000
0001
0001
,  // measure 62
1000
0100
0001
0100
,  // measure 63
1000
0010
1000
0100
,  // measure 64
1000
0010
0001
0010
,  // measure 65
0100
0001
0010
0001
,  // measure 66
0200
0010
0010
0310
,  // measure 67
2000
0100
0100
3100
,  // measure 68
0020
0031
0002
1003
,  // measure 69
1000
0001
1001
1001
,  // measure 70
0001
0100
0001
0100
,  // measure 71
0010
1000
0010
1000
,  // measure 72
0100
1000
0100
1000
,  // measure 73
0001
0010
0001
0010
,  // measure 74
0001
0001
0001
0001
,  // measure 75
0010
0010
0010
0010
,  // measure 76
1000
1000
1000
1000
,  // measure 77
0100
0100
0100
0100
,  // measure 78
0110
2002
0000
3003
,  // measure 79
0001
0000
0000
0000
;
