#TITLE:ALIVE;
#SUBTITLE:;
#ARTIST:REDALiCE;
#TITLETRANSLIT:;
#SUBTITLETRANSLIT:;
#ARTISTTRANSLIT:;
#GENRE:;
#CREDIT:;
#BANNER:ALIVE.png;
#BACKGROUND:ALIVE-bg.png;
#LYRICSPATH:;
#CDTITLE:;
#MUSIC:ALIVE.ogg;
#OFFSET:-5.747998;
#SAMPLESTART:39.116898;
#SAMPLELENGTH:15.000004;
#SELECTABLE:YES;
#BPMS:0.000000=170.000000
;
#STOPS:
;
#BGCHANGES:;
#KEYSOUNDS:;
#ATTACKS:;

//---------------dance-single - ----------------
#NOTES:
     dance-single:
     :
     Beginner:
     1:
     0.108058,0.159017,0.000000,0.000000,0.000000,77.000000,77.000000,0.000000,0.000000,0.000000,0.000000,0.108058,0.159017,0.000000,0.000000,0.000000,77.000000,77.000000,0.000000,0.000000,0.000000,0.000000:
// measure 0
0000
0000
0000
0000
,  // measure 1
0000
0000
0000
0000
,  // measure 2
0000
0000
0000
0000
,  // measure 3
0000
0000
0000
0000
,  // measure 4
1000
0000
0000
0000
,  // measure 5
0100
0000
0000
0000
,  // measure 6
0010
0000
0000
0000
,  // measure 7
1000
0000
0000
0000
,  // measure 8
0001
0000
0000
0000
,  // measure 9
1000
0000
0000
0000
,  // measure 10
0100
0000
0000
0000
,  // measure 11
1000
0000
0000
0000
,  // measure 12
0010
0000
0000
0000
,  // measure 13
0100
0000
0000
0000
,  // measure 14
0001
0000
0000
0000
,  // measure 15
0000
0000
0000
0000
,  // measure 16
1000
0000
0000
0000
,  // measure 17
1000
0000
0000
0000
,  // measure 18
0010
0000
0010
0000
,  // measure 19
0010
0000
0000
0000
,  // measure 20
0100
0000
0100
0000
,  // measure 21
0100
0000
0000
0000
,  // measure 22
0001
0000
0000
0000
,  // measure 23
0001
0000
0000
0000
,  // measure 24
1000
0000
0000
0000
,  // measure 25
1000
0000
0000
0000
,  // measure 26
0100
0000
0000
0000
,  // measure 27
0100
0000
0000
0000
,  // measure 28
0010
0000
0000
0010
,  // measure 29
0000
0000
0001
0000
,  // measure 30
1000
0000
0001
0000
,  // measure 31
0100
0000
0000
0000
,  // measure 32
0010
0000
0000
0000
,  // measure 33
1000
0000
0000
0000
,  // measure 34
0001
0000
0000
0000
,  // measure 35
0100
0000
0000
0000
,  // measure 36
0001
0000
0000
0000
,  // measure 37
1000
0000
0000
0000
,  // measure 38
0001
0000
0000
0000
,  // measure 39
0010
0000
0000
0000
,  // measure 40
0100
0000
0000
0000
,  // measure 41
0100
0000
0000
0000
,  // measure 42
1000
0000
0000
0000
,  // measure 43
1000
0000
1000
0000
,  // measure 44
0001
0000
0001
0000
,  // measure 45
0100
0000
0100
0000
,  // measure 46
0010
0000
0010
0000
,  // measure 47
1000
0000
1000
0000
,  // measure 48
0001
0000
0000
0000
,  // measure 49
0001
0000
1000
0000
,  // measure 50
0001
0000
0010
0000
,  // measure 51
0001
0000
0000
0000
,  // measure 52
0100
0000
0100
0000
,  // measure 53
0010
0000
0010
0000
,  // measure 54
1000
0000
0000
0000
,  // measure 55
0001
0000
0100
0000
,  // measure 56
0001
0000
0000
0000
,  // measure 57
1000
0000
0010
0000
,  // measure 58
1000
0000
0000
0000
,  // measure 59
0001
0000
0100
0000
,  // measure 60
0001
0000
0000
0000
,  // measure 61
1000
0000
0000
0000
,  // measure 62
1000
0000
0000
0000
,  // measure 63
0001
0000
0000
0000
,  // measure 64
1000
0000
0000
0010
;

//---------------dance-single - ----------------
#NOTES:
     dance-single:
     :
     Easy:
     3:
     0.216116,0.286231,0.000000,0.009823,0.000000,154.000000,154.000000,0.000000,1.000000,0.000000,0.000000,0.216116,0.286231,0.000000,0.009823,0.000000,154.000000,154.000000,0.000000,1.000000,0.000000,0.000000:
// measure 0
0000
0000
0000
0000
,  // measure 1
0000
0000
0000
0000
,  // measure 2
0000
0000
0000
0000
,  // measure 3
0000
0000
0000
0000
,  // measure 4
0001
0000
0000
0000
,  // measure 5
1000
0000
0000
0000
,  // measure 6
0001
0001
0100
0000
,  // measure 7
0010
0010
1000
0000
,  // measure 8
0001
0001
1000
0000
,  // measure 9
0100
0100
1000
0000
,  // measure 10
0010
0010
1000
0000
,  // measure 11
0100
0100
0010
0000
,  // measure 12
0001
0001
1000
1000
,  // measure 13
0010
0000
0100
0000
,  // measure 14
0001
0000
0000
0000
,  // measure 15
0000
0000
0000
0000
,  // measure 16
1000
0000
0001
0000
,  // measure 17
1000
0000
0100
0000
,  // measure 18
1000
0000
0010
0000
,  // measure 19
0100
0000
0000
0000
,  // measure 20
0001
0000
0010
0000
,  // measure 21
0001
0000
0100
0000
,  // measure 22
0010
0000
1000
0000
,  // measure 23
0010
0000
0000
0000
,  // measure 24
0100
0100
0001
0000
,  // measure 25
0001
0001
1000
0000
,  // measure 26
1000
0000
1000
0000
,  // measure 27
0010
0000
0010
0000
,  // measure 28
0100
0100
0001
0000
,  // measure 29
0001
0001
1000
0000
,  // measure 30
1000
0000
1000
0000
,  // measure 31
0100
0000
0100
0000
,  // measure 32
0010
0000
0010
0000
,  // measure 33
0001
0000
0001
0000
,  // measure 34
0100
0000
0100
0000
,  // measure 35
0010
0000
0010
0000
,  // measure 36
1000
0000
1000
0000
,  // measure 37
0001
0000
0001
0000
,  // measure 38
0100
0000
0100
0000
,  // measure 39
0010
0000
0010
0000
,  // measure 40
1000
0000
1000
0000
,  // measure 41
0001
1000
0001
0000
,  // measure 42
0100
0010
0100
0000
,  // measure 43
0010
0100
0010
0000
,  // measure 44
1000
1000
0001
0001
,  // measure 45
1000
1000
0001
0001
,  // measure 46
0100
0100
0010
0010
,  // measure 47
0100
0100
0010
0010
,  // measure 48
2000
0000
0000
0000
,  // measure 49
3001
0001
1000
0000
,  // measure 50
0100
0100
0010
0000
,  // measure 51
0001
0001
1000
0000
,  // measure 52
0001
0001
1000
0000
,  // measure 53
0100
0100
1000
0000
,  // measure 54
0010
0010
0100
0000
,  // measure 55
0001
0001
1000
0000
,  // measure 56
0001
0001
0010
0000
,  // measure 57
0100
1000
0100
0000
,  // measure 58
1000
0001
1000
0000
,  // measure 59
0001
0010
0001
0000
,  // measure 60
0100
0010
0100
0000
,  // measure 61
0010
1000
0010
0000
,  // measure 62
1000
0001
1000
0000
,  // measure 63
0001
0100
0001
0000
,  // measure 64
1000
0010
1000
0100
;

//---------------dance-single - ----------------
#NOTES:
     dance-single:
     :
     Medium:
     6:
     0.348032,0.349838,0.078588,0.009823,0.000000,248.000000,240.000000,8.000000,1.000000,0.000000,0.000000,0.348032,0.349838,0.078588,0.009823,0.000000,248.000000,240.000000,8.000000,1.000000,0.000000,0.000000:
// measure 0
0000
0000
0000
0000
,  // measure 1
0000
0000
0000
0000
,  // measure 2
0000
0000
0000
0000
,  // measure 3
0000
0000
0000
0000
,  // measure 4
1000
0100
1000
0010
,  // measure 5
0100
0001
0010
0001
,  // measure 6
1000
1000
0010
0010
,  // measure 7
0100
0100
0001
0001
,  // measure 8
1000
1000
0001
0001
,  // measure 9
0100
0100
0010
0010
,  // measure 10
1000
0001
1000
0001
,  // measure 11
0100
0010
0100
0010
,  // measure 12
1000
0100
1000
0100
,  // measure 13
0010
0001
0010
0001
,  // measure 14
0200
0000
0000
0000
,  // measure 15
0000
0000
0000
0000
,  // measure 16
0310
1000
0010
1000
,  // measure 17
0100
0000
1000
0100
1000
0000
0010
0000
,  // measure 18
1000
0010
0100
0001
,  // measure 19
0010
0000
0001
0100
,  // measure 20
0010
0000
1000
0010
1000
0000
0100
0000
,  // measure 21
1000
0000
0000
0001
0000
0100
0001
0000
,  // measure 22
0010
0001
0100
0010
,  // measure 23
1000
1000
0100
0000
,  // measure 24
0010
0000
0001
0000
1000
0001
1000
0000
,  // measure 25
0100
0000
1000
0000
0010
0000
1000
0100
,  // measure 26
0000
0000
0100
1000
0000
0100
1000
0000
,  // measure 27
0001
0100
0001
0010
,  // measure 28
0001
1000
0001
0000
0100
0000
0010
0000
,  // measure 29
1000
0000
0010
0100
0010
0000
0100
0000
,  // measure 30
0001
1000
0001
1000
,  // measure 31
0010
0100
0001
0010
,  // measure 32
0001
0001
1000
0000
,  // measure 33
0100
1000
0100
0010
,  // measure 34
0011
0001
0100
0000
,  // measure 35
1000
0100
0001
0100
,  // measure 36
1100
1000
0010
0000
,  // measure 37
0001
0010
1000
0100
,  // measure 38
0011
0001
0100
0000
,  // measure 39
0010
1000
0100
1000
,  // measure 40
0001
0001
0100
0100
,  // measure 41
0010
0010
1000
1000
,  // measure 42
0100
0100
0010
0010
,  // measure 43
0001
0001
1000
1000
,  // measure 44
0001
1000
0001
0000
1000
0010
1000
0000
,  // measure 45
0010
0100
0001
0010
,  // measure 46
0001
1000
0100
1000
,  // measure 47
0010
0000
0100
0001
0100
0000
0010
1000
,  // measure 48
0010
0000
0000
0000
,  // measure 49
0001
1000
1001
0001
,  // measure 50
0100
0010
1000
0100
,  // measure 51
1000
0100
1100
0100
,  // measure 52
0010
0001
0011
0001
,  // measure 53
0100
0010
1000
0010
,  // measure 54
0100
0001
0010
0001
,  // measure 55
1000
0100
1000
0010
,  // measure 56
0100
0001
0100
0010
,  // measure 57
1000
1100
0100
0010
,  // measure 58
0001
1000
0001
0100
,  // measure 59
0110
0010
1000
0100
,  // measure 60
1000
0001
0010
0001
,  // measure 61
0100
0010
0100
0000
0010
0000
1000
0000
,  // measure 62
0100
1000
0001
0010
,  // measure 63
0001
0100
0010
0100
,  // measure 64
0001
0000
0000
1000
0001
1000
0001
0000
;

//---------------dance-single - ----------------
#NOTES:
     dance-single:
     :
     Hard:
     9:
     0.600635,0.606599,0.333998,0.127705,0.196469,428.000000,394.000000,34.000000,13.000000,0.000000,0.000000,0.600635,0.606599,0.333998,0.127705,0.196469,428.000000,394.000000,34.000000,13.000000,0.000000,0.000000:
// measure 0
0000
0000
0000
0000
,  // measure 1
0000
0000
0000
0000
,  // measure 2
0000
0000
0000
0000
,  // measure 3
0000
0000
0000
0000
,  // measure 4
1000
0010
0000
0010
0100
0001
1000
0000
,  // measure 5
1000
0100
0000
0010
0001
0010
0100
1000
,  // measure 6
0001
0000
0100
0000
0001
0010
0000
0001
0100
0000
0010
1000
0000
0010
0100
0000
,  // measure 7
0001
0000
1000
0000
0001
1000
0000
0000
0100
0010
0000
0001
0000
0000
1000
0000
,  // measure 8
0010
0000
0100
0000
0010
0000
0000
1000
0000
0000
0001
1000
0000
0001
0010
0000
,  // measure 9
0100
1000
0001
0100
0010
1000
0002
0000
,  // measure 10
1003
0000
0010
0000
0100
0001
0000
0100
0010
0000
1000
0100
0000
1000
0001
0000
,  // measure 11
0020
0000
0031
1000
0001
0000
0100
0010
,  // measure 12
1000
0001
0010
0100
0010
0001
1000
0010
,  // measure 13
0200
0000
0000
0000
0300
0000
0001
1000
0001
0000
0100
0000
0010
0000
0000
0000
,  // measure 14
1001
0000
0000
0000
,  // measure 15
0000
0000
0000
0000
,  // measure 16
0001
0000
1000
0010
1000
0000
0100
0000
0001
0000
0100
0000
1000
0000
0000
0000
,  // measure 17
1010
0000
0000
0010
0100
0000
0000
0100
0001
0000
0010
0000
0001
0000
0000
0000
,  // measure 18
0100
0010
1000
0100
1000
0000
0001
0000
,  // measure 19
0010
0000
0001
0100
0000
0010
1000
0001
,  // measure 20
1000
0000
0100
0010
0100
0000
0010
0000
0001
0000
1000
0000
0010
0000
0000
0000
,  // measure 21
0100
0000
0000
0100
0001
0000
0000
0001
0010
0000
1000
0000
0010
0000
0000
0000
,  // measure 22
0001
0100
0010
0100
1000
0000
0100
0000
,  // measure 23
0010
0000
0000
0000
1000
0000
0001
0000
0100
0001
0000
0100
0010
0000
0001
0000
,  // measure 24
0010
1000
0001
1000
0000
0001
0010
1000
,  // measure 25
0010
0100
0010
0001
0010
0000
0100
1000
,  // measure 26
0010
0000
1000
0001
0000
0001
0200
0000
,  // measure 27
0310
0000
1000
0001
0000
1000
0001
0100
,  // measure 28
0001
0010
0000
0100
0000
1000
0001
0200
,  // measure 29
0000
0301
0010
1000
0010
0100
0001
0100
,  // measure 30
0010
0000
0001
0100
0000
0100
0001
0000
,  // measure 31
0010
0100
1000
0100
0010
0001
1000
0100
,  // measure 32
1000
0010
1000
0000
0001
0000
0100
0000
0000
0000
0010
0000
1000
0000
0001
0000
,  // measure 33
1000
0000
0010
0000
0100
0000
0001
0000
0000
0000
0100
0000
0010
0000
1000
0010
,  // measure 34
1000
0002
0000
0203
0000
0310
1000
0001
,  // measure 35
0010
0000
0001
0000
0000
0000
0210
0000
0000
0000
0310
0000
1000
0100
1000
0100
,  // measure 36
1000
0001
0000
0101
0000
0001
1000
0010
,  // measure 37
1000
0000
0001
0000
0010
0000
0100
0000
0010
0000
0001
0000
0100
0000
0010
1000
,  // measure 38
0010
0200
0000
0001
0310
0001
0100
0010
,  // measure 39
1000
0000
0100
0000
0000
0000
0201
0000
0000
0000
0301
0000
0010
0100
0010
0100
,  // measure 40
0010
0100
1000
0000
0100
0010
0001
0000
,  // measure 41
1000
0000
0010
0000
0100
0000
0000
0000
0100
0000
0001
0000
0010
0000
0100
1000
,  // measure 42
0100
0001
0100
0000
1000
0010
0100
0000
,  // measure 43
0001
0000
1000
0000
0100
0000
0000
0000
0010
0000
0001
0000
1000
0100
1000
0000
,  // measure 44
1010
1010
0110
0101
,  // measure 45
0011
1010
0011
1001
,  // measure 46
1100
0110
0011
0101
,  // measure 47
0100
0010
1000
0010
0100
0010
1000
0010
,  // measure 48
0100
0100
0001
0000
0000
0000
0000
0000
,  // measure 49
1001
0000
0110
0000
1001
0000
1000
0100
,  // measure 50
0001
0000
0100
0000
0000
0000
1000
0000
0010
0000
0100
0000
0010
0001
0010
0000
,  // measure 51
0100
0001
0100
0000
0010
0000
0000
0000
1000
0000
0100
0000
1000
0000
0000
0000
,  // measure 52
0001
0100
0001
0000
1000
0000
0010
0000
0100
0000
0010
0000
0001
0000
0000
0000
,  // measure 53
1010
0000
1100
0000
0010
0010
0001
0100
,  // measure 54
0000
0010
1000
0001
1000
0010
0100
0000
,  // measure 55
0001
0000
1000
0001
1000
0000
0000
0000
0010
0000
0100
0000
0001
0000
0000
0000
,  // measure 56
1001
0000
0000
0000
0000
0000
1000
0010
1000
0000
0010
0000
0100
0000
0000
0000
,  // measure 57
0101
0101
0011
0011
,  // measure 58
1100
1100
1010
1010
,  // measure 59
0100
0001
0010
0000
0100
1000
0010
0000
,  // measure 60
0001
0010
1000
0000
1000
0100
0001
0000
,  // measure 61
1001
0000
0110
0000
1000
0100
0010
0001
,  // measure 62
0000
1000
0001
0010
0001
0100
0020
0000
,  // measure 63
1030
0000
0001
1000
0001
0000
0000
0000
0100
0000
0010
0100
0010
0000
0000
0000
,  // measure 64
0201
0000
0000
0000
0300
0000
0001
1000
0001
0000
1000
0000
0020
0000
0000
0000
,  // measure 65
0030
0000
0000
0000
;
