#TITLE:We Rise Again;
#SUBTITLE:;
#ARTIST:Gogol Bordello;
#TITLETRANSLIT:;
#SUBTITLETRANSLIT:;
#ARTISTTRANSLIT:;
#GENRE:;
#CREDIT:;
#BANNER:We Rise Again.png;
#BACKGROUND:We Rise Again-bg.png;
#LYRICSPATH:;
#CDTITLE:;
#MUSIC:We Rise Again.ogg;
#OFFSET:0.043500;
#SAMPLESTART:62.506645;
#SAMPLELENGTH:14.914368;
#SELECTABLE:YES;
#BPMS:0.000000=198.000000
,32.000000=200.000000
,55.000000=205.000000
,60.000000=202.000000
,64.000000=202.500000
,80.000000=200.000000
,86.500000=205.000000
,96.000000=215.000000
,100.000000=205.000000
,112.000000=217.000000
,116.000000=205.000000
,128.000000=215.000000
,132.000000=205.000000
,144.000000=210.000000
,148.000000=205.000000
,158.000000=208.000000
,160.000000=206.500000
,188.000000=207.000000
,212.000000=205.500000
,248.000000=208.000000
,280.000000=210.000000
,296.000000=212.000000
,300.000000=210.000000
,312.000000=220.000000
,316.000000=217.000000
,318.000000=210.000000
,344.000000=205.800003
,392.000000=207.000000
,396.000000=200.000000
,412.000000=202.000000
,416.000000=205.800003
,432.000000=198.500000
,436.000000=190.000000
,440.000000=187.500000
,444.000000=185.000000
,450.000000=174.000000
,462.500000=160.000000
;
#STOPS:
;
#BGCHANGES:;
#KEYSOUNDS:;
#ATTACKS:;

//---------------dance-single - ----------------
#NOTES:
     dance-single:
     :
     Challenge:
     9:
     0.534961,0.679981,0.124135,0.131031,0.000000,543.000000,525.000000,18.000000,19.000000,0.000000,0.000000,0.534961,0.679981,0.124135,0.131031,0.000000,543.000000,525.000000,18.000000,19.000000,0.000000,0.000000:
// measure 0
0000
0000
0000
0000
,  // measure 1
0000
0000
0000
0000
,  // measure 2
0000
0000
0000
0000
,  // measure 3
0000
0000
0000
0000
,  // measure 4
0000
0000
0000
0000
,  // measure 5
0000
0000
0000
0000
,  // measure 6
0000
0000
0000
0000
,  // measure 7
0000
0000
0000
0000
0000
0000
0001
1000
,  // measure 8
0001
0000
0100
0000
0010
0000
1000
0100
,  // measure 9
0010
0100
1000
0000
0001
0000
1001
0000
,  // measure 10
1000
0000
0100
0010
0100
0000
1000
0100
,  // measure 11
0001
0100
1000
0000
0010
1000
0010
0001
,  // measure 12
0010
1000
0010
0100
0010
1000
0100
0010
,  // measure 13
0100
1000
0100
0001
0100
2000
0000
0000
,  // measure 14
3001
0010
0100
0010
0001
0010
1000
0010
,  // measure 15
0001
0000
0010
0100
0010
0001
1000
0100
,  // measure 16
1000
0000
0001
0000
0010
0000
0100
0001
,  // measure 17
0100
1000
0100
0000
0010
0000
0110
0000
,  // measure 18
0100
0000
1000
0001
1000
0000
0010
0100
,  // measure 19
0010
0001
0010
0000
0100
0001
1000
0010
,  // measure 20
1000
0001
0100
0001
1000
0100
0010
0100
,  // measure 21
1000
0001
0010
1000
0010
0002
0000
0000
,  // measure 22
1003
0010
0100
0001
0010
1000
0010
0001
,  // measure 23
1000
0000
0100
0010
0100
1000
0100
0001
,  // measure 24
0100
0000
0000
0000
,  // measure 25
0000
0000
0000
0000
,  // measure 26
1000
0001
1000
0001
0100
0001
0100
0001
,  // measure 27
0010
0001
0010
0001
0010
1000
0010
1000
,  // measure 28
0010
0000
0000
0000
,  // measure 29
0000
0000
0000
0000
,  // measure 30
0001
1000
0001
1000
0010
1000
0010
1000
,  // measure 31
0100
1000
0100
1000
0100
0001
0100
0001
,  // measure 32
0100
0000
0000
0000
,  // measure 33
0000
0000
0000
0000
,  // measure 34
1000
0010
1000
0010
0100
0010
0100
0010
,  // measure 35
0001
0010
0001
0010
1000
0010
0001
0010
,  // measure 36
1000
0000
0000
0000
,  // measure 37
0000
0000
0000
0000
,  // measure 38
0001
0100
0001
0100
0010
0100
0010
0100
,  // measure 39
1000
0100
0001
0100
1000
0000
0101
0000
,  // measure 40
0001
0000
0001
0010
0000
0010
0100
0000
,  // measure 41
1100
0000
1000
0000
0001
0000
0100
0010
,  // measure 42
0000
0010
1000
0000
0001
0000
0010
0000
,  // measure 43
0001
0000
1000
0000
1001
0000
0001
1000
,  // measure 44
0000
1000
0100
0010
,  // measure 45
0100
0000
1000
0000
0100
0001
0000
0100
,  // measure 46
1000
0001
0100
0010
,  // measure 47
0001
0010
1000
0100
,  // measure 48
1000
0000
1000
0010
0000
0010
0100
0000
,  // measure 49
0001
0000
0010
0000
1000
0000
0010
0001
,  // measure 50
0000
0001
0100
0000
0010
0000
1000
0000
,  // measure 51
0001
0000
0100
0000
0001
0000
0010
0100
,  // measure 52
0010
0000
0001
0010
0100
1000
0100
0010
,  // measure 53
0001
0100
1000
0100
,  // measure 54
0001
0000
1000
0100
0010
0000
1000
0010
,  // measure 55
0001
0000
0100
1000
0100
0001
1000
0000
,  // measure 56
1020
0100
0001
0100
,  // measure 57
1000
0000
0031
0010
1000
0100
0010
0001
,  // measure 58
1000
0000
1000
0100
0010
0000
0010
0100
,  // measure 59
1000
0000
1001
0000
0101
0000
0100
1000
,  // measure 60
0100
0000
0001
1000
0001
0000
0010
0001
,  // measure 61
0010
0000
0100
1000
0100
0000
1000
0010
,  // measure 62
0100
0000
1000
0100
0001
0000
0010
1000
,  // measure 63
0010
0001
1000
0000
1001
0000
0101
0000
,  // measure 64
1200
0010
0001
1300
,  // measure 65
0102
0010
1000
0100
,  // measure 66
1003
0000
1000
0010
0100
0000
0100
0010
,  // measure 67
1000
0100
0001
0100
1000
0000
0001
0100
,  // measure 68
0001
0000
0010
0100
0010
0001
0010
0100
,  // measure 69
1000
0010
0100
0010
1000
0001
1000
0010
,  // measure 70
1000
0000
0000
0000
,  // measure 71
0000
0000
0000
0000
0000
0000
0000
1000
,  // measure 72
0001
0100
0010
0100
0001
1000
0100
0010
,  // measure 73
0100
1000
0001
0100
0001
0010
0001
0100
,  // measure 74
1000
0000
0000
0000
,  // measure 75
0000
0000
0000
0000
0000
0000
0000
0100
,  // measure 76
0001
0010
0100
0010
0001
1000
0010
1000
,  // measure 77
0100
0010
0100
0001
0100
1000
0100
0010
,  // measure 78
1000
0000
0000
0000
,  // measure 79
0000
0000
0000
0000
0000
0000
0000
0010
,  // measure 80
0001
0100
0010
1000
0100
0010
0001
0010
,  // measure 81
0100
1000
0100
0001
0100
1000
0010
0100
,  // measure 82
0001
0000
0000
0000
,  // measure 83
0000
0000
0000
0000
0000
0000
0000
0001
,  // measure 84
1000
0100
1000
0010
0100
0010
0001
0010
,  // measure 85
0100
0001
0010
0100
1000
0100
0001
0100
,  // measure 86
1000
0000
1000
0100
0000
0100
0010
0000
,  // measure 87
0011
0000
0001
0000
1000
0000
0010
0100
,  // measure 88
0000
0100
0001
0000
1000
0000
0100
0000
,  // measure 89
1000
0000
0001
0000
1001
0000
1000
0001
,  // measure 90
0000
0001
0010
0100
,  // measure 91
0010
0000
0001
0000
0010
1000
0000
0010
,  // measure 92
0001
1000
0010
0100
,  // measure 93
1000
0100
0001
0010
,  // measure 94
0001
0000
0001
0100
0000
0100
0010
0000
,  // measure 95
1000
0000
0100
0000
0001
0000
0100
1000
,  // measure 96
0000
1000
0010
0000
0100
0000
0001
0000
,  // measure 97
1000
0100
0010
0100
1000
0000
0100
0010
,  // measure 98
0100
0000
1000
0100
0010
0001
0010
0100
,  // measure 99
1000
0010
0001
0010
,  // measure 100
2020
0000
0000
3030
,  // measure 101
0202
0000
0000
0303
,  // measure 102
0022
0000
0000
0033
,  // measure 103
2200
0000
3000
0000
1300
0100
0010
0001
,  // measure 104
1000
0000
1000
0010
0100
0000
0100
0010
,  // measure 105
0000
0010
1000
0010
0001
0000
0010
1000
,  // measure 106
0010
0000
0100
0001
0100
0000
0010
1000
,  // measure 107
0010
0100
0001
1000
0100
0010
0001
0010
,  // measure 108
0100
0000
1000
0001
1000
0000
0010
0100
,  // measure 109
0010
0000
0001
0010
1000
0100
0001
0000
,  // measure 110
0100
2000
0000
0000
,  // measure 111
3001
0000
0000
0000
,  // measure 112
0001
0002
0000
0000
,  // measure 113
0000
0000
0000
0000
,  // measure 114
2003
0000
0000
0000
3020
0000
0000
0032
,  // measure 115
0000
0000
0000
0000
0000
0023
0000
0000
,  // measure 116
1030
0000
0000
0000
;

//---------------dance-single - ----------------
#NOTES:
     dance-single:
     :
     Hard:
     8:
     0.430530,0.559985,0.041378,0.089653,0.000000,437.000000,431.000000,6.000000,13.000000,0.000000,0.000000,0.430530,0.559985,0.041378,0.089653,0.000000,437.000000,431.000000,6.000000,13.000000,0.000000,0.000000:
// measure 0
0000
0000
0000
0000
,  // measure 1
0000
0000
0000
0000
,  // measure 2
0000
0000
0000
0000
,  // measure 3
0000
0000
0000
0000
,  // measure 4
0000
0000
0000
0000
,  // measure 5
0000
0000
0000
0000
,  // measure 6
0000
0000
0000
0000
,  // measure 7
0000
0000
0000
0000
0000
0000
1000
0001
,  // measure 8
1000
0000
0100
0000
1000
0000
0100
0010
,  // measure 9
0100
1000
0100
0000
0010
0000
0001
0000
,  // measure 10
0010
0000
0100
0010
0001
0000
0100
0001
,  // measure 11
0100
0010
0100
0000
1000
0100
0001
1000
,  // measure 12
0001
0000
0010
0100
0010
0000
0001
0000
,  // measure 13
1000
0000
0100
0010
0100
0000
1000
0000
,  // measure 14
0001
0000
0100
0010
0100
0000
0001
0000
,  // measure 15
1000
0000
0100
0010
0100
0010
0001
1000
,  // measure 16
0001
0000
0010
0000
0001
0000
0010
0100
,  // measure 17
0010
0001
0010
0000
0100
0000
1000
0000
,  // measure 18
0100
0000
0010
0100
0010
0000
0100
1000
,  // measure 19
0001
0010
0001
0000
1000
0010
0100
0001
,  // measure 20
1000
0000
0010
0100
0010
0000
1000
0000
,  // measure 21
0001
0000
0100
0010
0100
0000
0001
0000
,  // measure 22
1000
0000
0100
0010
0100
0000
1000
0000
,  // measure 23
0001
0000
0010
0100
0010
0100
1000
0001
,  // measure 24
1000
0000
0000
0000
,  // measure 25
0000
0000
0000
0000
,  // measure 26
0001
0000
0100
1000
0100
0000
0100
0000
,  // measure 27
0001
0000
0010
0100
0010
0001
1000
0000
,  // measure 28
1001
0000
0000
0000
,  // measure 29
0000
0000
0000
0000
,  // measure 30
1000
0000
0010
0001
0010
0000
0010
0000
,  // measure 31
1000
0000
0100
0010
0100
1000
0001
0000
,  // measure 32
1001
0000
0000
0000
,  // measure 33
0000
0000
0000
0000
,  // measure 34
0001
0000
0010
1000
0010
0000
0010
0000
,  // measure 35
0001
0000
0010
0100
0010
0100
1000
0000
,  // measure 36
1001
0000
0000
0000
,  // measure 37
0000
0000
0000
0000
,  // measure 38
0001
0000
1000
0100
1000
0000
1000
0000
,  // measure 39
0001
0010
0100
1000
0001
0000
1000
0000
,  // measure 40
0100
0000
0100
0010
0000
0000
0100
0000
,  // measure 41
1000
0000
0001
0000
0100
0000
0010
1000
,  // measure 42
0000
0010
0100
0000
0001
0000
1000
0000
,  // measure 43
0010
0000
1000
0000
0100
1000
0000
1000
,  // measure 44
0100
0010
0100
1000
,  // measure 45
0001
0000
0100
0000
0010
1000
0000
1000
,  // measure 46
0010
0100
0010
1000
,  // measure 47
0001
0100
1000
0100
,  // measure 48
0001
0000
0100
0010
0000
0000
0100
0000
,  // measure 49
0001
0000
1000
0000
0100
0000
0010
0100
,  // measure 50
0000
0100
1000
0000
0001
0000
0100
0000
,  // measure 51
0010
0000
1000
0000
1010
0000
0010
0100
,  // measure 52
0010
0000
1000
0100
0010
0001
0010
0100
,  // measure 53
1000
0001
1000
0010
,  // measure 54
1000
0000
0100
0010
0100
0000
1000
0010
,  // measure 55
1000
0000
0010
0100
0010
0100
0010
0000
,  // measure 56
0001
0020
1000
0100
,  // measure 57
2030
0010
0100
3010
,  // measure 58
0100
0001
1000
0010
,  // measure 59
0100
0000
0001
0000
0010
0000
0100
1000
,  // measure 60
0000
0100
0010
0100
,  // measure 61
1000
0000
0001
0000
0100
0000
0001
1000
,  // measure 62
0001
0000
0100
0010
0100
0000
0001
1000
,  // measure 63
0001
1000
0001
0000
0100
0000
1000
0000
,  // measure 64
0200
1000
0010
0301
,  // measure 65
0020
0100
0001
0130
,  // measure 66
0001
1000
0010
0100
,  // measure 67
0001
0000
0010
0000
0100
0000
1000
0100
,  // measure 68
1000
0010
0100
0010
,  // measure 69
1000
0001
0100
0001
,  // measure 70
1001
0000
0000
0000
,  // measure 71
0000
0000
0000
0000
0000
0000
0000
1000
,  // measure 72
0001
0010
0000
0010
0001
1000
0000
1000
,  // measure 73
0010
0100
0000
0100
0001
1000
0000
1000
,  // measure 74
0001
0000
0000
0000
,  // measure 75
0000
0000
0000
0000
0000
0000
0000
0001
,  // measure 76
1000
0010
0000
0010
0100
0001
0000
0001
,  // measure 77
0010
0100
0000
0100
1000
0001
0000
0001
,  // measure 78
1000
0000
0000
0000
,  // measure 79
0000
0000
0000
0000
0000
0000
0000
0100
,  // measure 80
1000
0010
0000
0010
0100
1000
0000
1000
,  // measure 81
0100
0001
0000
0001
0010
0100
0000
0100
,  // measure 82
1000
0000
0000
0000
,  // measure 83
0000
0000
0000
0000
0000
0000
0000
1000
,  // measure 84
0001
0010
0000
0100
1000
0010
0000
0001
,  // measure 85
0010
1000
0000
1000
0100
0010
0001
1000
,  // measure 86
0001
0000
0010
0100
0010
0000
0001
0000
,  // measure 87
1000
0000
0010
0000
0100
0000
0010
1000
,  // measure 88
0000
1000
0010
0000
0100
0000
0001
0000
,  // measure 89
1000
0000
0100
0000
0010
0000
0100
1000
,  // measure 90
0000
1000
0001
0000
0100
0000
0010
0000
,  // measure 91
1000
0000
0100
0000
1000
0001
0000
0001
,  // measure 92
0100
0010
1000
0100
,  // measure 93
0010
0100
1000
0001
,  // measure 94
0100
0000
0100
1000
0000
0000
0100
0000
,  // measure 95
0001
0000
0010
0000
0100
0000
1000
0010
,  // measure 96
0000
0010
0100
0000
0001
0000
0100
0000
,  // measure 97
0000
0010
1000
0010
1000
0000
0100
0010
,  // measure 98
0100
0000
1000
0100
0010
0001
0010
0100
,  // measure 99
1000
0001
1000
0010
,  // measure 100
2000
0000
0000
0000
,  // measure 101
3200
0000
0000
0000
,  // measure 102
0302
0000
0000
0000
,  // measure 103
0203
0000
0000
0000
1300
0010
0100
0001
,  // measure 104
1000
0010
1000
0100
,  // measure 105
0000
0010
0100
0010
0100
0000
1000
0001
,  // measure 106
0000
1000
0010
0100
,  // measure 107
0001
0010
1000
0010
,  // measure 108
0002
0000
0000
0000
,  // measure 109
0203
0000
0000
0000
,  // measure 110
2300
0000
0000
0000
,  // measure 111
3200
0000
0000
0000
,  // measure 112
0302
0000
0000
0000
,  // measure 113
0000
0000
0000
0000
,  // measure 114
0003
0000
0000
0000
,  // measure 115
0000
0000
0000
0000
,  // measure 116
1001
0000
0000
0000
;

//---------------dance-single - ----------------
#NOTES:
     dance-single:
     :
     Medium:
     6:
     0.335951,0.439988,0.075860,0.117238,0.000000,341.000000,330.000000,11.000000,17.000000,0.000000,0.000000,0.335951,0.439988,0.075860,0.117238,0.000000,341.000000,330.000000,11.000000,17.000000,0.000000,0.000000:
// measure 0
0000
0000
0000
0000
,  // measure 1
0000
0000
0000
0000
,  // measure 2
0000
0000
0000
0000
,  // measure 3
0000
0000
0000
0000
,  // measure 4
0000
0000
0000
0000
,  // measure 5
0000
0000
0000
0000
,  // measure 6
0000
0000
0000
0000
,  // measure 7
0000
0000
0000
0000
0000
0000
1000
0001
,  // measure 8
2000
0000
0000
0000
,  // measure 9
3002
0000
0000
0000
,  // measure 10
2003
0000
0000
0000
,  // measure 11
3200
0000
1000
1000
,  // measure 12
1300
0010
1000
0001
,  // measure 13
1000
0100
1000
0001
,  // measure 14
1000
0010
0100
0001
,  // measure 15
0010
0000
0100
0000
0010
0000
0001
1000
,  // measure 16
0002
0000
0000
0000
,  // measure 17
0203
0000
0000
0000
,  // measure 18
0302
0000
0000
0000
,  // measure 19
0023
0000
0001
0001
,  // measure 20
0031
0100
0001
0010
,  // measure 21
0001
1000
0001
0100
,  // measure 22
0001
0010
0100
1000
,  // measure 23
0100
0010
0001
1000
,  // measure 24
1001
0000
0000
0000
,  // measure 25
0000
0000
0000
0000
,  // measure 26
1000
0100
0100
1000
,  // measure 27
0010
0100
0100
0001
,  // measure 28
0101
0000
0000
0000
,  // measure 29
0000
0000
0000
0000
,  // measure 30
0001
0100
0100
0010
,  // measure 31
1000
0010
0010
0100
,  // measure 32
0110
0000
0000
0000
,  // measure 33
0000
0000
0000
0000
,  // measure 34
0001
1000
1000
0100
,  // measure 35
0010
0010
1000
0010
,  // measure 36
0011
0000
0000
0000
,  // measure 37
0000
0000
0000
0000
,  // measure 38
0001
1000
1000
0100
,  // measure 39
0001
0100
1000
0001
,  // measure 40
0010
0000
0000
0100
0000
0000
1000
0000
,  // measure 41
0001
0000
0010
0000
0100
0000
0010
0001
,  // measure 42
0000
0100
0000
0000
0010
0000
1000
0000
,  // measure 43
0100
0000
1000
0000
0001
0100
0000
0010
,  // measure 44
0000
1000
0100
0010
,  // measure 45
0100
0000
1000
0000
0001
0100
0000
0110
,  // measure 46
0000
0010
1000
0100
,  // measure 47
0010
0100
1000
0001
,  // measure 48
0100
0000
0000
1000
0000
0000
0100
0000
,  // measure 49
0001
0000
0010
0000
0100
0000
1000
0010
,  // measure 50
0000
0100
0000
0000
0001
0000
0010
0000
,  // measure 51
0100
0000
1000
0000
0010
0000
0100
0010
,  // measure 52
0000
1000
0100
0001
,  // measure 53
0100
1000
0001
1000
,  // measure 54
0001
0010
0100
0010
,  // measure 55
0001
0100
0010
0100
,  // measure 56
0001
0001
1000
0100
,  // measure 57
1000
0010
0100
0001
,  // measure 58
0101
0100
0010
0100
,  // measure 59
0001
0000
0010
0000
0100
0000
1000
0100
,  // measure 60
0000
1000
0010
0100
,  // measure 61
0001
0010
0100
1000
,  // measure 62
0010
0100
0010
1000
,  // measure 63
0100
0010
0100
0100
,  // measure 64
1000
0100
0010
1000
,  // measure 65
0010
0001
0100
0010
,  // measure 66
0110
0100
0001
0010
,  // measure 67
0001
0100
1000
0100
,  // measure 68
0001
1000
0010
0100
,  // measure 69
0010
1000
0100
0010
,  // measure 70
0110
0000
0000
0000
,  // measure 71
0000
0000
0000
0000
0000
0000
0000
0100
,  // measure 72
1000
0100
0000
1000
0000
0010
0000
0100
,  // measure 73
0000
0001
0000
0010
0000
0100
0000
1000
,  // measure 74
0001
0000
0000
0000
,  // measure 75
0000
0000
0000
0000
0000
0000
0000
0001
,  // measure 76
0100
0001
0000
0010
0000
0100
0000
1000
,  // measure 77
0000
0010
0000
0100
0000
0001
0000
0010
,  // measure 78
0100
0000
0000
0000
,  // measure 79
0000
0000
0000
0000
0000
0000
0000
0100
,  // measure 80
0010
0100
0000
1000
0000
0001
0000
0100
,  // measure 81
0000
0010
0000
0100
0000
0001
0000
0010
,  // measure 82
1000
0000
0000
0000
,  // measure 83
0000
0000
0000
0000
0000
0000
0000
0010
,  // measure 84
0001
0010
0000
0001
0000
0100
0000
0010
,  // measure 85
0000
1000
0000
0100
0010
0000
0100
0000
,  // measure 86
1000
0001
0100
0001
,  // measure 87
0010
0000
0100
0000
1000
0000
0100
0010
,  // measure 88
0000
0100
0000
0000
1000
0000
0001
0000
,  // measure 89
0010
0000
0001
0000
0100
0010
0000
0100
,  // measure 90
0000
0001
0100
0010
,  // measure 91
1000
0000
0100
0000
0010
0100
0000
1100
,  // measure 92
0000
1000
0001
0100
,  // measure 93
0001
0010
1000
0010
,  // measure 94
0001
0000
0000
0100
0000
0000
1000
0000
,  // measure 95
0100
0000
0001
0000
0010
0000
0100
1000
,  // measure 96
0000
0001
0000
0000
0100
0000
0010
0000
,  // measure 97
0000
1000
0001
1000
0001
0000
1000
0100
,  // measure 98
1000
0010
0001
0010
,  // measure 99
1000
0001
0100
0001
,  // measure 100
2000
0000
0000
0000
,  // measure 101
3200
0000
0000
0000
,  // measure 102
0302
0000
0000
0000
,  // measure 103
0203
0000
1000
1000
,  // measure 104
1300
1010
0010
0100
,  // measure 105
0001
0000
0010
0000
0100
0000
1000
0100
,  // measure 106
0000
1000
0010
0100
,  // measure 107
0001
0100
1000
0100
,  // measure 108
0002
0000
0000
0000
,  // measure 109
0203
0000
0000
0000
,  // measure 110
0320
0000
0000
0000
,  // measure 111
2030
0000
0000
0000
,  // measure 112
3002
0000
0000
0000
,  // measure 113
0000
0000
0000
0000
,  // measure 114
0003
0000
0000
0000
,  // measure 115
0000
0000
0000
0000
,  // measure 116
1001
0000
0000
0000
;

//---------------dance-single - ----------------
#NOTES:
     dance-single:
     :
     Easy:
     4:
     0.217728,0.399989,0.262062,0.234476,0.000000,221.000000,183.000000,38.000000,34.000000,0.000000,0.000000,0.217728,0.399989,0.262062,0.234476,0.000000,221.000000,183.000000,38.000000,34.000000,0.000000,0.000000:
// measure 0
0000
0000
0000
0000
,  // measure 1
0000
0000
0000
0000
,  // measure 2
0000
0000
0000
0000
,  // measure 3
0000
0000
0000
0000
,  // measure 4
0000
0000
0000
0000
,  // measure 5
0000
0000
0000
0000
,  // measure 6
0000
0000
0000
0000
,  // measure 7
0000
0000
0000
0000
,  // measure 8
2000
0000
0000
0000
,  // measure 9
3002
0000
0000
0000
,  // measure 10
2003
0000
0000
0000
,  // measure 11
3002
0000
0000
0000
,  // measure 12
0003
1000
0000
0010
,  // measure 13
0000
1000
0000
0100
,  // measure 14
0000
1000
0000
0001
,  // measure 15
0000
0200
0000
0000
,  // measure 16
0320
0000
0000
0000
,  // measure 17
2030
0000
0000
0000
,  // measure 18
3002
0000
0000
0000
,  // measure 19
2003
0000
0000
0000
,  // measure 20
3000
0001
0000
1000
,  // measure 21
0000
0010
0000
1000
,  // measure 22
0000
0100
0000
1000
,  // measure 23
0000
0002
0000
0000
,  // measure 24
1003
0000
0000
0000
,  // measure 25
0000
0000
0000
0000
,  // measure 26
1000
0010
0000
0100
,  // measure 27
0000
0001
0000
0010
,  // measure 28
0001
0000
0000
0000
,  // measure 29
0000
0000
0000
0000
,  // measure 30
1000
0001
0000
0100
,  // measure 31
0000
0010
0000
1000
,  // measure 32
0100
0000
0000
0000
,  // measure 33
0000
0000
0000
0000
,  // measure 34
1000
0001
0000
0100
,  // measure 35
0000
0010
0000
1000
,  // measure 36
0001
0000
0000
0000
,  // measure 37
0000
0000
0000
0000
,  // measure 38
0010
0100
0000
1000
,  // measure 39
0020
0030
0100
0001
,  // measure 40
0100
0000
0000
0010
0000
0000
0100
0000
,  // measure 41
0001
0000
0000
0000
0010
0000
0000
0100
,  // measure 42
0000
0010
0000
0001
,  // measure 43
0000
1000
0000
1000
,  // measure 44
0000
0001
0000
0100
,  // measure 45
0010
0000
0000
0000
0100
0000
0000
0001
,  // measure 46
0000
1000
0000
0010
,  // measure 47
0000
1000
0001
0000
,  // measure 48
0001
0000
0000
0100
0000
0000
0001
0000
,  // measure 49
1000
0000
0010
0000
,  // measure 50
0100
0001
0000
0010
,  // measure 51
0000
0100
1000
0100
,  // measure 52
1000
0001
1000
0001
,  // measure 53
1000
0000
0000
0000
,  // measure 54
2002
0000
3003
0000
,  // measure 55
0220
0000
0330
0000
,  // measure 56
2020
0000
3030
0000
,  // measure 57
0202
0000
0303
0000
,  // measure 58
1002
1003
0000
1000
,  // measure 59
0000
0001
1000
0001
,  // measure 60
1000
0010
0000
0100
,  // measure 61
0000
0010
0000
0000
,  // measure 62
0220
0000
0330
0000
,  // measure 63
2002
0000
3003
0000
,  // measure 64
0022
0000
0033
0000
,  // measure 65
2200
0000
3300
0000
,  // measure 66
2001
3001
0000
0001
,  // measure 67
0200
0301
1000
0001
,  // measure 68
1000
0000
0000
0010
,  // measure 69
0000
0100
0000
0000
,  // measure 70
0101
0000
0000
0000
,  // measure 71
0000
0000
0000
0000
,  // measure 72
1001
0000
1001
0000
,  // measure 73
0110
0000
0110
0000
,  // measure 74
0101
0000
0000
0000
,  // measure 75
0000
0000
0000
0000
,  // measure 76
1001
0000
1001
0000
,  // measure 77
0110
0000
0110
0000
,  // measure 78
1010
0000
0000
0000
,  // measure 79
0000
0000
0000
0000
,  // measure 80
1100
0000
1100
0000
,  // measure 81
1001
0000
1001
0000
,  // measure 82
0101
0000
0000
0000
,  // measure 83
0000
0000
0000
0000
,  // measure 84
0011
0000
0011
0000
,  // measure 85
1001
0000
1001
0000
,  // measure 86
1000
0000
0000
0010
0000
0000
1000
0000
,  // measure 87
0001
0000
0000
0000
0100
0000
0000
0010
,  // measure 88
0000
0100
0000
0001
,  // measure 89
0000
1000
0000
1000
,  // measure 90
0000
0001
0000
0100
,  // measure 91
0010
0000
0000
0000
0100
0000
0000
0001
,  // measure 92
0000
0100
0000
0001
,  // measure 93
0000
1000
0000
1000
,  // measure 94
0001
0000
0000
0100
0000
0000
0001
0000
,  // measure 95
0010
0000
0000
0000
0100
0000
0000
0010
,  // measure 96
0000
0100
0000
1000
,  // measure 97
0000
0001
1000
0001
,  // measure 98
1000
0100
1000
0100
,  // measure 99
1100
0000
0000
0000
,  // measure 100
0002
0000
0000
0000
,  // measure 101
2003
0000
0000
0000
,  // measure 102
3002
0000
0000
0000
,  // measure 103
0203
0000
0000
0000
,  // measure 104
0300
0101
0000
0100
,  // measure 105
0000
0010
0100
0010
,  // measure 106
0000
0100
0000
0001
,  // measure 107
0000
1000
0000
0000
,  // measure 108
1001
0000
0000
0000
,  // measure 109
1001
0000
0000
0000
,  // measure 110
1001
0000
0000
0000
,  // measure 111
1001
0000
0000
0000
,  // measure 112
1001
0000
0000
0000
,  // measure 113
0000
0000
0000
0000
,  // measure 114
0000
0000
0000
0000
,  // measure 115
0000
0000
0000
0000
,  // measure 116
0110
0000
0000
0000
;

//---------------dance-single - ----------------
#NOTES:
     dance-single:
     :
     Beginner:
     3:
     0.169453,0.279992,0.068964,0.124135,0.000000,172.000000,162.000000,10.000000,18.000000,0.000000,0.000000,0.169453,0.279992,0.068964,0.124135,0.000000,172.000000,162.000000,10.000000,18.000000,0.000000,0.000000:
// measure 0
0000
0000
0000
0000
,  // measure 1
0000
0000
0000
0000
,  // measure 2
0000
0000
0000
0000
,  // measure 3
0000
0000
0000
0000
,  // measure 4
0000
0000
0000
0000
,  // measure 5
0000
0000
0000
0000
,  // measure 6
0000
0000
0000
0000
,  // measure 7
0000
0000
0000
0000
,  // measure 8
1000
0000
0000
0000
,  // measure 9
0001
0000
0000
0000
,  // measure 10
0100
0000
0000
0000
,  // measure 11
0010
0000
0000
0000
,  // measure 12
0000
1000
0000
0001
,  // measure 13
0000
0100
0000
0001
,  // measure 14
0000
1000
0000
0010
,  // measure 15
0000
1000
0000
0000
,  // measure 16
0001
0000
0000
0000
,  // measure 17
0010
0000
0000
0000
,  // measure 18
0001
0000
0000
0000
,  // measure 19
0100
0000
0000
0000
,  // measure 20
0000
0100
0000
0001
,  // measure 21
0000
1000
0000
0001
,  // measure 22
0000
0010
0000
0001
,  // measure 23
0000
1000
0000
0000
,  // measure 24
1001
0000
0000
0000
,  // measure 25
0000
0000
0000
0000
,  // measure 26
0001
0000
0100
0000
,  // measure 27
0010
0000
1000
0000
,  // measure 28
1010
0000
0000
0000
,  // measure 29
0000
0000
0000
0000
,  // measure 30
1000
0000
0100
0000
,  // measure 31
0010
0000
0001
0000
,  // measure 32
0011
0000
0000
0000
,  // measure 33
0000
0000
0000
0000
,  // measure 34
0001
0000
0010
0000
,  // measure 35
0100
0000
1000
0000
,  // measure 36
1100
0000
0000
0000
,  // measure 37
0000
0000
0000
0000
,  // measure 38
1000
0000
0010
0000
,  // measure 39
0200
0300
0001
0000
,  // measure 40
1000
0000
0000
0001
,  // measure 41
1000
0000
0010
0000
,  // measure 42
0100
0000
0000
0001
,  // measure 43
0000
0100
0000
0001
,  // measure 44
0000
1000
0000
0100
,  // measure 45
0000
0000
0010
0000
,  // measure 46
0001
0000
0000
1000
,  // measure 47
0000
0010
0000
0000
,  // measure 48
0100
0000
0000
0010
,  // measure 49
0000
0000
1000
0000
,  // measure 50
0001
1000
0000
0100
,  // measure 51
0000
0010
0100
0010
,  // measure 52
0100
0000
1000
0000
,  // measure 53
1100
0000
0000
0000
,  // measure 54
2000
0000
0000
0000
,  // measure 55
3200
0000
0000
0000
,  // measure 56
0302
0000
0000
0000
,  // measure 57
0203
0000
0000
0000
,  // measure 58
1300
1000
0000
0010
,  // measure 59
0000
0100
0001
0100
,  // measure 60
0000
0010
0000
0100
,  // measure 61
0000
0001
0000
1000
,  // measure 62
0002
0000
0000
0000
,  // measure 63
0203
0000
0000
0000
,  // measure 64
2300
0000
0000
0000
,  // measure 65
3200
0000
0000
0000
,  // measure 66
0301
0001
0000
0100
,  // measure 67
0000
0010
1000
0010
,  // measure 68
0000
0100
0000
0010
,  // measure 69
0000
1000
0000
0001
,  // measure 70
1000
0000
0000
0000
,  // measure 71
0000
0000
0000
0000
,  // measure 72
1000
0000
1000
0000
,  // measure 73
0001
0000
0001
0000
,  // measure 74
1001
0000
0000
0000
,  // measure 75
0000
0000
0000
0000
,  // measure 76
0100
0000
0100
0000
,  // measure 77
0010
0000
0010
0000
,  // measure 78
0110
0000
0000
0000
,  // measure 79
0000
0000
0000
0000
,  // measure 80
0100
0000
0100
0000
,  // measure 81
0001
0000
0001
0000
,  // measure 82
0101
0000
0000
0000
,  // measure 83
0000
0000
0000
0000
,  // measure 84
0001
0000
0001
0000
,  // measure 85
0010
0000
0010
0000
,  // measure 86
0001
0000
0000
1000
,  // measure 87
0001
0000
0100
0000
,  // measure 88
0010
0000
0000
1000
,  // measure 89
0000
0010
0000
1000
,  // measure 90
0000
0001
0000
0010
,  // measure 91
0000
0000
0100
0000
,  // measure 92
1000
0000
0000
0001
,  // measure 93
0000
0100
0000
0000
,  // measure 94
0010
0000
0000
0100
,  // measure 95
0000
0000
0001
0000
,  // measure 96
1000
0001
0000
0010
,  // measure 97
0000
0100
0010
0100
,  // measure 98
0010
0000
0001
0000
,  // measure 99
0011
0000
0000
0000
,  // measure 100
0002
0000
0000
0000
,  // measure 101
0023
0000
0000
0000
,  // measure 102
2030
0000
0000
0000
,  // measure 103
3020
0000
0000
0000
,  // measure 104
0031
0001
0000
0100
,  // measure 105
0000
0010
1000
0010
,  // measure 106
0000
0100
0000
0010
,  // measure 107
0000
1000
0000
0001
,  // measure 108
2000
0000
0000
0000
,  // measure 109
3002
0000
0000
0000
,  // measure 110
2003
0000
0000
0000
,  // measure 111
3020
0000
0000
0000
,  // measure 112
2030
0000
0000
0000
,  // measure 113
0000
0000
0000
0000
,  // measure 114
3000
0000
0000
0000
,  // measure 115
0000
0000
0000
0000
,  // measure 116
1001
0000
0000
0000
;
