#TITLE:THE HUSTLE;
#SUBTITLE:;
#ARTIST:HARDCORE SYNTH ORCHESTRA;
#TITLETRANSLIT:;
#SUBTITLETRANSLIT:;
#ARTISTTRANSLIT:;
#CREDIT:Dancemania Speed G;
#BANNER:thehustle-banner.png;
#BACKGROUND:thehustle-background.png;
#LYRICSPATH:;
#CDTITLE:tonycdtitle.png;
#MUSIC:thehustle.ogg;
#OFFSET:0.000;
#SAMPLESTART:32.120;
#SAMPLELENGTH:13.000;
#SELECTABLE:YES;
#BPMS:0.000=177.420;
#STOPS:;
#BGCHANGES:;

//---------------dance-single - ----------------
#NOTES:
     dance-single:
     :
     Medium:
     6:
     0.402,0.427,0.100,0.199,0.014:
0000
0000
0000
0000
,
0000
0000
0000
0000
,
0000
0000
0000
0000
,
0000
0000
0000
0000
,
0100
0000
1000
0000
0001
0000
0010
0001
,
0010
0000
0001
0000
1000
0000
0100
1000
,
0100
1000
0001
0010
,
0100
0000
0000
1001
0000
0000
0110
0000
,
0001
1000
0001
1000
,
0010
1000
0010
1000
,
0001
0100
0001
0100
,
0001
0000
1000
0000
0001
1000
0000
0001
,
0100
0001
0100
0001
,
1000
0010
1000
0010
,
1000
0001
1000
0001
,
0100
0000
0100
0000
0001
1000
0000
0010
,
1000
0001
0100
0010
,
1000
0001
0100
0001
,
1000
0010
1000
0001
,
0100
0001
0100
0010
,
1000
1000
1000
1000
,
0010
0010
0010
0010
,
0001
0000
0001
0000
0001
0000
0001
0001
,
2002
0000
0000
3003
,
0100
0000
0001
0000
1000
0000
0010
1000
,
0001
0000
0100
0000
0001
0000
1000
0001
,
0010
0000
0001
0000
1000
0000
0100
1000
,
0001
0000
0010
0000
0001
0000
1000
1000
,
0100
0000
1000
0000
0001
0000
0010
0010
,
0001
0000
1000
0000
0001
0000
1000
0001
,
1000
0000
0001
0000
1000
0000
0100
0100
,
1001
0000
0000
0110
0000
0000
1001
0000
,
0200
0000
1300
0001
,
0010
0000
0000
0000
0001
0010
0001
0010
,
0002
0000
1003
0001
,
0100
0000
0000
0000
1000
0001
1000
0001
,
2000
0000
0010
0000
,
3020
0000
0030
0001
,
0002
0000
0100
0000
,
0203
0000
0000
0300
,
0001
0000
0000
0000
1000
0000
0000
0000
0001
0000
0000
0000
0010
0000
0000
0010
,
0001
0000
1000
0000
0001
0000
1000
1000
,
0200
0000
1300
0002
,
0000
0000
0013
0000
0000
0001
1000
0100
,
1000
0000
0000
0000
0100
0000
0000
0000
1000
0000
0000
0000
0001
0000
0000
0001
,
0010
0000
0001
0000
1000
0000
0001
0001
,
0200
0000
0001
0000
,
0302
0000
1000
0000
,
2003
0000
0010
0000
,
3020
0000
0000
0030
,
1001
0000
0000
0000
;

//---------------dance-single - ----------------
#NOTES:
     dance-single:
     :
     Easy:
     4:
     0.274,0.355,0.071,0.199,0.000:
0000
0000
0000
0000
,
0000
0000
0000
0000
,
0000
0000
0000
0000
,
0000
0000
0000
0000
,
0001
1000
0001
1000
,
0010
1000
0100
1000
,
0001
0010
0001
0100
,
0002
0000
0000
0000
,
1003
0000
0000
1000
,
1000
0000
0000
0010
,
0010
0000
0000
0001
,
0001
0000
1000
0000
,
0001
0000
0000
0010
,
0010
0000
0000
1000
,
1000
0000
0000
0100
,
0100
0000
1000
0000
,
0001
0000
0000
0010
,
0001
0000
0000
1000
,
0001
0000
0000
0100
,
0001
0000
1000
0000
,
0020
0000
0030
1000
,
2000
0000
3000
0001
,
0002
0000
0003
0100
,
0200
0000
0000
0300
,
0100
0001
1000
0010
,
1000
0001
0100
0001
,
1000
0010
1000
0001
,
0100
0001
0100
0010
,
1000
0010
1000
0001
,
0010
0001
0010
0001
,
1000
0001
1000
0001
,
0200
0000
0000
0300
,
1001
0000
0010
1000
,
0010
0000
0001
0000
,
0100
0000
0001
1000
,
0001
0000
0010
0000
,
0001
0000
0000
1000
,
0010
0000
0000
1000
,
0001
0000
0000
0100
,
0002
0000
0000
0003
,
0200
0000
0300
0010
,
0020
0000
0030
1000
,
0001
0000
0220
0000
,
0330
1001
0000
0110
,
0020
0000
0030
0001
,
0002
0000
0003
1000
,
0001
0001
0001
0001
,
1000
1000
1000
1000
,
0010
0010
0010
0010
,
0020
0000
0000
0030
,
1001
0000
0000
0000
;

//---------------dance-single - ----------------
#NOTES:
     dance-single:
     :
     Hard:
     9:
     0.636,0.675,0.071,0.171,0.213: // measure 1
0000
0000
0000
0000
,  // measure 2
0000
0000
0000
0000
,  // measure 3
0000
0000
0000
0000
,  // measure 4
0000
0000
0000
0000
,  // measure 5
0100
0000
1000
0000
0001
0000
0010
0001
0000
0010
0001
0000
0010
0000
0001
0000
,  // measure 6
1000
0000
0001
0000
1000
0000
0100
1000
0000
0100
1000
0000
0100
0000
1000
0000
,  // measure 7
0001
0000
0010
0000
0001
0000
1000
0001
0000
1000
0001
0000
1000
0000
0001
0000
,  // measure 8
1000
0100
0000
0100
0000
0010
0020
0000
,  // measure 9
0031
0010
0001
0010
0001
0010
0001
0010
,  // measure 10
0001
1000
0001
1000
0001
1000
0001
1000
,  // measure 11
0100
1000
0100
1000
0100
1000
0100
1000
,  // measure 12
0100
0000
1000
0000
0001
0000
0000
0000
1001
0000
0000
0010
0001
0000
1000
0000
,  // measure 13
0001
0100
0001
0100
0001
0100
0001
0100
,  // measure 14
0010
1000
0010
1000
0010
1000
0010
1000
,  // measure 15
0100
1000
0100
1000
0100
1000
0100
1000
,  // measure 16
0100
1000
0001
0000
1001
1001
0000
0001
,  // measure 17
0010
0001
1000
0100
1000
0001
0010
0100
,  // measure 18
1000
0100
0010
0100
1000
0001
0010
0001
,  // measure 19
0100
0001
1000
0010
1000
0001
0100
0010
,  // measure 20
1000
0010
0100
0001
1000
0001
1000
0100
,  // measure 21
2000
0100
0000
0100
0000
0100
0000
3100
,  // measure 22
0200
0010
0000
0010
0000
0010
0000
0010
,  // measure 23
0320
0001
0000
0001
0000
0001
0000
0001
,  // measure 24
0032
0000
0000
0003
,  // measure 25
0010
0000
0001
0000
1000
0000
0100
1000
0000
0100
1000
0000
0100
0000
1000
0000
,  // measure 26
0001
0000
0010
0000
0001
0000
1000
0001
0000
1000
0001
0000
1000
0000
0001
0000
,  // measure 27
0100
0000
0001
0000
1000
0000
0010
1000
0000
0010
1000
0000
0010
0000
1000
0000
,  // measure 28
0001
0000
1000
0000
0001
0000
0100
0001
0000
0100
0001
0000
0100
0000
0001
0000
,  // measure 29
1000
0000
0001
0000
0100
0000
0010
0100
0000
0010
0100
0000
0010
0000
0100
0000
,  // measure 30
0001
0000
0100
0000
0001
0000
1000
0010
0000
1000
0010
0000
1000
0000
0010
0000
,  // measure 31
0100
0000
0010
0000
0100
0000
0001
1000
0000
0001
1000
0000
0001
0000
1000
0000
,  // measure 32
0100
0100
0000
1000
0000
0001
0002
0000
,  // measure 33
0013
0010
0000
0001
2000
0000
0000
0000
,  // measure 34
3010
0000
0000
1000
0001
1000
0001
1000
,  // measure 35
0100
1000
0000
0001
0020
0000
0000
0000
,  // measure 36
0031
0000
0000
1000
0100
1000
0100
1000
,  // measure 37
0100
0000
0010
0000
0001
0000
1000
0001
,  // measure 38
1000
0000
0100
0000
1000
0000
0001
0010
,  // measure 39
0100
0010
0001
1000
,  // measure 40
1001
1001
0000
0010
0000
1000
0001
0000
,  // measure 41
0200
0000
0000
0000
0001
0000
0000
0000
0301
0000
0000
0000
0010
0000
0000
0010
,  // measure 42
1000
0000
0001
0000
1000
0000
0010
1000
,  // measure 43
0010
0000
0000
0000
0000
0000
1000
0001
1000
0000
0000
0000
0001
0000
0000
0001
,  // measure 44
0100
0000
0000
0100
0010
0000
0000
0010
1000
0000
0000
1000
0010
0000
0000
0010
,  // measure 45
2000
0000
0000
0000
0010
0000
0000
0000
3010
0000
0000
0000
0001
0000
0000
0001
,  // measure 46
0100
0000
0001
0000
1000
0000
0010
1000
,  // measure 47
0010
1000
0001
0100
,  // measure 48
0001
1000
0010
1000
,  // measure 49
0020
0000
1000
0000
,  // measure 50
2030
0000
0000
0000
0000
0000
0000
0000
0000
0000
0000
0000
3000
0000
0001
1000
,  // measure 51
0001
0000
0000
0000
;
