#TITLE:Running in the 90's;
#SUBTITLE:;
#ARTIST:Max Coveri;
#TITLETRANSLIT:;
#SUBTITLETRANSLIT:;
#ARTISTTRANSLIT:;
#GENRE:;
#CREDIT:SomethingRandom;
#MUSIC:Running In The 90's.ogg;
#BANNER:;
#BACKGROUND:;
#CDTITLE:;
#SAMPLESTART:60.817;
#SAMPLELENGTH:11.435;
#SELECTABLE:YES;
#OFFSET:-0.250;
#BPMS:0.000=158.503;
#STOPS:;
#BGCHANGES:;
#FGCHANGES:;

//--------------- dance-single - ----------------
#NOTES:
     dance-single:
     :
     Challenge:
     10:
     0,0,0,0,0:
0000
0000
0000
0000
,
0000
0000
0000
0000
,
0000
0000
0000
0000
,
0000
0000
0000
0000
,
1000
1100
0000
0000
0001
0011
0000
0000
,
1000
0100
0001
0100
1000
0010
0001
0010
,
1000
1010
0000
0000
0001
0101
0000
0000
,
1000
0010
0001
0010
1000
0100
0001
0100
,
2002
0000
0000
3003
,
0001
0100
0000
0001
0100
0000
0010
0000
1000
0100
0000
1000
0100
0000
1000
0000
,
0001
0010
0001
0010
0001
0000
1000
0000
0100
1000
0100
1000
0100
0000
0000
0000
,
2000
0000
0000
3000
,
0010
0100
0001
0100
0010
1000
0001
1000
,
0001
0100
0000
0100
0010
0000
0100
0000
0001
1000
0000
1000
0010
0000
0100
0000
,
0001
1000
0001
0100
0001
1000
0100
1000
,
0002
0203
2300
3200
0302
0023
2030
3020
,
0031
1000
0001
1000
0001
0000
0100
0000
0010
0100
0010
0100
0010
0000
1000
0000
,
0001
0100
0000
0001
0100
0000
0010
0000
1000
0100
0000
1000
0100
0000
1000
0000
,
0001
0100
0010
0100
0001
0000
1000
0000
0010
1000
0100
1000
0010
0000
0100
0000
,
0001
1000
0000
0001
1000
0000
0010
0000
0100
0010
0000
1000
0001
0000
1000
0000
,
0010
1000
0100
1000
0010
0000
1000
0000
0001
0010
0001
0100
0001
0000
1000
0000
,
0010
1000
0000
1000
0100
0000
1000
0000
0010
0100
0000
0100
0001
0000
0100
0000
,
0001
1000
0001
0100
0010
0000
1000
0000
0100
1000
0100
1000
0010
0000
1000
0000
,
0002
0023
2030
3200
0302
0023
2030
3200
,
0302
1003
0100
1000
0001
1000
0010
1000
,
0001
0100
0001
0100
0001
0010
0001
0100
,
0010
0100
0010
1000
0100
1000
0001
0000
,
0100
0000
0010
0000
1000
2200
0000
3300
,
1000
0000
0001
0100
0001
1000
0001
1000
,
0010
0100
0010
1000
0100
1000
0010
1000
,
0100
1000
0001
0100
0001
1000
0100
1000
,
0100
0000
1000
0000
0001
0202
0000
0303
,
0001
0010
0100
0010
0001
1000
0100
1000
,
0010
1000
0010
0100
1000
0100
0001
0000
,
1000
0000
1001
0000
0001
0100
0001
1000
,
0100
1000
0010
0100
0001
0100
0010
1000
,
0100
0010
0001
0010
1000
0010
0001
1000
,
0010
0001
0100
0010
0001
0010
1000
0000
,
0010
0000
1010
0000
1000
0100
1000
0000
,
0002
0203
0320
2030
,
3001
0100
0001
1000
0010
1000
0100
1000
,
0010
0100
0010
1000
0010
1000
0100
1000
,
0010
1000
0001
0100
0001
0100
0010
1000
,
0100
1000
0001
1000
0001
0010
0001
1000
,
0001
0010
0001
1000
0001
1000
0010
1000
,
0100
1000
0010
1000
0001
0100
0001
0010
,
0001
0100
0001
0010
0001
1000
0010
1000
,
0001
1000
0001
1000
0001
0100
0010
0100
0010
0000
0000
0000
0110
0000
0000
0000
,
0001
1000
0100
1000
0001
0100
0001
0100
,
0001
1000
0010
1000
0010
1000
0100
1000
,
0100
1000
0001
0100
0001
0010
0001
1000
,
0100
1000
0010
1000
0001
0100
0010
1000
,
0100
1000
0001
0100
0001
0010
0001
0100
,
0010
1000
0001
0100
0010
1000
0100
1000
,
0100
1000
0010
0100
0010
0100
0001
0010
,
0001
0100
0010
1000
2002
0000
0000
3003
,
0010
1000
0100
1000
0010
0000
1000
0000
0001
0100
0001
0010
0001
0000
0100
0000
,
0010
1000
0000
1000
0100
0000
1000
0000
0010
1000
0000
1000
0100
0000
1000
0000
,
0010
1000
0010
0100
0001
0000
1000
0000
0001
0100
0001
1000
0010
0000
1000
0000
,
0100
1000
0000
1000
0001
0000
0010
0000
0100
1000
0000
1000
0001
0000
0010
0000
,
0001
1000
0001
0100
0010
0000
1000
0000
0001
1000
0001
0100
0010
0000
1000
0000
,
0010
1000
0000
1000
0100
0000
1000
0000
0010
1000
0000
1000
0100
0000
1000
0000
,
0001
0010
0001
0100
0001
0000
0100
0000
0001
0010
0001
0100
0001
0000
2000
0000
,
3200
0302
0203
2300
3020
0032
0023
2030
,
3000
0000
0000
0000
;
