#TITLE:Ring Ding Dong;
#SUBTITLE:;
#ARTIST:SHINee;
#TITLETRANSLIT:;
#SUBTITLETRANSLIT:;
#ARTISTTRANSLIT:;
#GENRE:K-POP;
#CREDIT:;
#BANNER:[Round 1] - Ring Ding Dong.png;
#BACKGROUND:[Round 1] - Ring Ding Dong-bg.png;
#LYRICSPATH:;
#CDTITLE:CDTitle.png;
#MUSIC:[Round 1] - Ring Ding Dong.ogg;
#OFFSET:0.000000;
#SAMPLESTART:122.873436;
#SAMPLELENGTH:15.360130;
#SELECTABLE:YES;
#BPMS:0.000000=124.998993
;
#STOPS:70.500000=0.480000
;
#BGCHANGES:0.000=[Round 1] - Ring Ding Dong.avi=1.000=0=0=0=StretchNoLoop====,
99999=-nosongbg-=1.000=0=0=0 // don't automatically add -songbackground-
;
#KEYSOUNDS:;
#ATTACKS:;

//---------------dance-single - DDRDAIKENKAI----------------
#NOTES:
     dance-single:
     DDRDAIKENKAI:
     Hard:
     9:
     0.594593,0.698705,0.158971,0.130067,0.505817,576.000000,554.000000,22.000000,18.000000,0.000000,0.000000,0.594593,0.698705,0.158971,0.130067,0.505817,576.000000,554.000000,22.000000,18.000000,0.000000,0.000000:
// measure 0
0000
0000
0000
0000
,  // measure 1
0000
0000
0000
0000
,  // measure 2
0000
0000
0000
0000
,  // measure 3
0000
0000
0000
0000
,  // measure 4
0000
0000
0000
0000
,  // measure 5
0000
0000
0000
0000
,  // measure 6
0000
0000
0000
0000
,  // measure 7
0000
0000
0000
0000
,  // measure 8
0001
0000
0000
0001
1000
0000
0100
0000
1000
0000
0000
1000
0001
0000
0100
0000
,  // measure 9
0001
0000
1000
0001
1000
0000
0001
1000
0001
0000
0000
0001
0000
0000
0001
0000
,  // measure 10
1000
0000
0000
1000
0001
0000
0010
0000
0001
0000
0000
0001
1000
0000
0010
0000
,  // measure 11
1000
0000
0001
1000
0001
0000
1000
0001
1000
0000
0000
1000
0000
0000
1000
0000
,  // measure 12
0010
0000
0000
0010
0100
0000
0001
0000
0010
0000
0000
0010
0100
0000
1000
0000
,  // measure 13
0010
0000
0100
0010
0100
0000
0010
0100
0010
0000
0000
0010
0000
0000
0010
0000
,  // measure 14
1000
0000
0000
1000
0010
0000
0100
0000
0001
0000
0000
0001
0010
0000
0100
0000
,  // measure 15
1000
0000
0001
1000
0001
0000
1000
0100
0010
0001
0000
0001
0000
0000
4000
0000
,  // measure 16
3001
0010
1000
1000
0010
0010
0001
0001
,  // measure 17
1000
0100
0001
0001
0100
0100
1100
1000
,  // measure 18
0010
0010
0100
0100
0001
0001
1000
0100
,  // measure 19
0010
0000
0010
0000
0001
0000
0001
1000
0000
1000
0001
1000
0001
0000
0100
0000
,  // measure 20
0110
0000
0000
0020
0000
1030
0010
1000
0100
0000
0010
0000
0001
0000
1000
0000
,  // measure 21
1001
0000
0002
0000
0000
0103
0001
0100
0010
0000
0100
0000
0001
0000
0010
0000
,  // measure 22
1000
0010
0001
0010
0100
0020
0000
0001
,  // measure 23
0001
0000
0100
0000
0100
0000
1000
0000
2000
0000
0030
0000
3010
0001
0000
0010
,  // measure 24
0001
0000
0100
0000
0010
1000
0000
0010
0000
0000
2000
0000
3100
0000
1000
0010
,  // measure 25
1000
0000
0010
0000
0100
0000
1000
0000
0100
0000
0001
0000
0100
0010
0000
0100
,  // measure 26
0010
0000
1000
0000
0100
1000
0000
0100
0000
0000
2000
0000
3001
0000
0010
0001
,  // measure 27
0010
0000
0100
0000
0001
0000
0100
0000
1000
0000
0100
0000
0110
0000
0000
0100
,  // measure 28
1000
0000
0001
0000
0100
0000
0000
0010
1000
0000
0001
0000
0010
0000
0001
0000
,  // measure 29
1000
0000
1000
0000
0010
0000
0010
0000
0100
0000
0001
0000
0011
0000
0000
0001
,  // measure 30
0100
0000
0010
0000
1000
0100
0000
1000
0000
0000
0001
0000
0010
0000
0100
1000
,  // measure 31
0100
0000
0100
0010
0100
0000
0100
1000
0010
0100
0001
1000
0001
0000
0001
0100
,  // measure 32
0010
0000
1000
0000
0100
1000
0100
1000
0001
0100
0001
0100
0010
1000
0000
0001
,  // measure 33
0000
0100
0010
0000
0120
0000
0000
0000
0130
0000
0001
0000
0010
0000
0100
1000
,  // measure 34
0010
1000
0010
1000
0100
0010
0100
0010
0001
0000
0001
0000
0000
1000
0100
1000
,  // measure 35
0001
0100
0002
1003
1100
0100
0010
0000
,  // measure 36
1001
0100
1000
0000
1001
0100
0001
0000
,  // measure 37
1001
0010
1000
0000
1001
0010
0001
0001
,  // measure 38
0001
0000
0001
0000
0001
0010
0001
0010
0001
0010
0001
0010
0100
0000
0100
0000
,  // measure 39
0100
0000
0100
0000
0100
0010
0100
0000
0100
0010
0100
0010
0001
0100
0000
0010
,  // measure 40
1000
0000
0100
0000
1000
0010
0000
0100
0001
0000
0010
0000
0100
1000
0000
0010
,  // measure 41
1000
0000
0100
0000
0010
0001
0000
0100
0010
0000
1000
0000
0100
0000
1000
0000
,  // measure 42
1010
0000
0100
0001
0011
0000
0100
1000
,  // measure 43
0001
0000
0010
1000
0010
0000
0001
0100
0010
0000
1000
0000
0100
0000
0010
0000
,  // measure 44
0011
0000
0000
0000
0101
0000
0000
0001
1000
0000
0100
0000
1000
0000
0010
0000
,  // measure 45
0110
0000
0000
0000
1010
0000
0000
1000
0100
0000
0010
0000
0100
0000
1000
0000
,  // measure 46
1010
0000
0000
0000
0110
0000
0000
0100
0001
0000
0010
0000
0120
0000
0130
1000
,  // measure 47
0100
0000
0100
0010
0100
0000
0100
0001
0100
0000
0100
0010
0100
1000
0000
0100
,  // measure 48
1000
0000
0010
0000
0100
0001
0000
0100
0000
0000
0002
0000
0013
0000
0001
0100
,  // measure 49
0001
0000
0100
0000
0010
0000
0001
0000
0010
0000
1000
0000
0010
0100
0000
0010
,  // measure 50
0100
0000
0001
0000
0010
0001
0000
0010
0000
0000
0002
0000
1003
0000
0100
1000
,  // measure 51
0100
0000
0001
0000
0100
0000
1000
0000
0100
0000
0010
0000
0110
0000
0000
0010
,  // measure 52
0001
0000
1000
0000
0010
0000
0000
0100
0001
0000
1000
0000
0100
0000
1000
0000
,  // measure 53
0001
0000
0001
0000
0100
0000
0100
0000
0010
0000
1000
0000
1100
0000
0000
1000
,  // measure 54
0010
0000
0100
0000
0001
0010
0000
0001
0000
0000
1000
0000
0100
0000
1000
0010
,  // measure 55
1000
0000
1000
0100
1000
0000
1000
0100
0010
0001
2000
0000
3010
0000
1000
0000
,  // measure 56
0100
0001
0100
1000
0100
0001
0100
1000
,  // measure 57
0100
0000
0010
0000
0001
0000
0000
0100
0000
0000
0010
0000
1000
0000
0100
0000
,  // measure 58
0001
0100
1000
0100
0001
0100
1000
0100
,  // measure 59
0001
0000
0100
0000
1000
0000
0000
0001
0000
0000
0100
0000
0020
0000
0000
1030
,  // measure 60
0000
0000
0100
0000
0020
0000
0000
0031
0000
0000
0100
0000
0020
0000
0000
1030
,  // measure 61
0000
0000
0100
0000
0020
0000
0000
0031
0000
0000
0100
0000
0002
0000
0000
0013
,  // measure 62
0000
0000
1000
0000
0002
0000
0000
0103
0000
0000
1000
0000
0001
0000
0010
0100
,  // measure 63
0010
0000
0100
1000
0100
0000
1000
0010
1000
0000
0010
0100
0010
0000
0000
0010
,  // measure 64
1000
0000
0001
0000
0100
0000
0000
0100
0001
0000
1000
0000
0010
0000
1000
0100
,  // measure 65
1000
0000
0001
0010
0001
0000
0000
0001
0000
0000
0001
0000
1000
0000
0000
1000
,  // measure 66
0001
0000
0100
0000
0010
0000
0000
0010
0100
0000
0001
0000
1000
0000
0010
0100
,  // measure 67
0010
0000
1000
0001
1000
0000
0000
1000
0000
0000
1000
0000
0001
0000
0000
0001
,  // measure 68
1000
0000
0100
0000
1000
0000
0000
1000
0001
0000
0100
0000
0001
0000
1000
0001
,  // measure 69
1000
0000
0001
1000
0001
0000
0000
0001
0000
0000
0001
0000
1000
0000
0000
1000
,  // measure 70
0010
0000
1000
0000
0001
0000
0000
0001
0010
0000
0001
0000
1000
0001
1000
0001
,  // measure 71
1000
0000
1000
0001
0010
0000
0000
0010
0000
0000
0010
0000
0000
0000
0000
0000
;

//---------------dance-single - DDRDAIKENKAI----------------
#NOTES:
     dance-single:
     DDRDAIKENKAI:
     Medium:
     6:
     0.376782,0.439925,0.014452,0.144519,0.097550,365.000000,363.000000,2.000000,20.000000,0.000000,0.000000,0.376782,0.439925,0.014452,0.144519,0.097550,365.000000,363.000000,2.000000,20.000000,0.000000,0.000000:
0000
0000
0000
0000
,
0000
0000
0000
0000
,
0000
0000
0000
0000
,
0000
0000
0000
0000
,
0000
0000
0000
0000
,
0000
0000
0000
0000
,
0000
0000
0000
0000
,
0000
0000
0000
0000
,
1000
0000
0000
1000
0000
0000
1000
0000
0001
0000
0000
0001
0000
0000
0001
0000
,
0100
0010
1000
0001
,
1000
0000
0000
1000
0000
0000
1000
0000
0001
0000
0000
0001
0000
0000
0001
0000
,
0010
0100
1000
0001
,
0100
0000
0000
0100
0000
0000
0100
0000
0010
0000
0000
0010
0000
0000
0010
0000
,
1000
0100
0010
0001
,
0010
0000
0000
0010
0000
0000
0010
0000
0100
0000
0000
0100
0000
0000
0100
0000
,
1000
0001
2000
0000
,
3001
0010
0001
0000
1000
0100
1000
0000
,
0010
1000
0010
1000
0100
0100
0010
0001
,
0010
0000
0100
1000
0100
0000
1000
0001
,
1000
0001
0100
0100
0010
0000
1000
0100
,
0020
0000
0001
0001
0031
0000
0100
0010
,
2000
0000
0100
0100
3100
0000
1000
0001
,
1000
0000
0010
0100
0001
0000
2002
0000
,
0000
0000
0000
0000
3003
0000
1000
0100
,
1000
0000
0001
0010
0001
0000
0100
0010
,
0100
0010
1000
0001
1000
0000
0001
0000
,
1000
0100
0001
0000
0001
0100
1000
0000
,
0001
0010
0001
0100
0010
0000
1000
0001
,
0100
0000
0001
1000
0100
0000
0010
0001
,
0010
0001
0100
0010
1000
0000
0001
0000
,
0001
0010
1000
0000
1000
0010
0001
0000
,
0001
0100
0010
0000
1000
1000
0001
0010
,
0001
0000
0100
0010
1000
0000
0100
0010
,
0001
1000
0200
0000
0300
0000
0010
0001
,
0010
0000
0100
1000
0100
0000
1000
0001
,
1000
0001
0020
0000
0030
0001
0200
0000
,
0300
0010
2000
0000
3000
0001
0020
0000
,
0030
0100
2000
0000
3000
0001
0100
0100
,
0100
0100
0100
0100
0100
0100
0010
0010
,
0010
0010
0010
0010
0010
0010
2000
0000
,
0001
0100
3010
0002
,
1000
0000
0010
0000
0103
0000
0001
0010
,
1000
0000
1000
0010
0001
0000
0001
1000
,
0001
1000
0100
0100
0100
0000
2000
0000
,
0010
0001
3100
0002
,
0010
1000
0103
0001
,
0010
0000
0100
0000
1000
0000
2001
0001
,
0001
0001
0001
0001
3002
0000
1003
0100
,
1000
0000
0001
0010
0001
0000
0100
0010
,
0100
0010
1000
0001
1000
0000
0001
0000
,
1000
0100
0001
0000
0001
0100
1000
0000
,
0001
0010
0001
0100
0010
0000
1000
0001
,
0100
0000
0001
1000
0100
0000
0010
0001
,
0010
0001
0100
0010
1000
0000
0001
0000
,
0001
0010
1000
0000
1000
0010
0001
0000
,
0001
0100
0010
0000
1000
0000
0010
1000
,
0010
0000
0010
0100
0010
0000
0010
0001
,
0010
0000
0001
0000
0010
0000
0000
0010
0000
0000
0010
0000
1000
0000
0010
0000
,
1000
0000
1000
0100
1000
0000
1000
0001
,
1000
0000
0001
0000
0100
0000
0000
0100
0000
0000
0100
0000
0001
0000
0000
0001
,
0000
0000
0001
0000
0010
0000
0000
0010
0000
0000
0010
0000
1000
0000
0000
1000
,
0000
0000
1000
0000
0100
0000
0000
0100
0000
0000
0100
0000
0001
0000
0000
0001
,
0000
0000
0001
0000
0100
0000
0000
0100
0000
0000
0100
0000
1000
0000
0000
1000
,
0000
0000
1000
0000
0010
0000
0000
0010
0000
0000
0010
0000
0001
0000
0000
0001
,
0000
0000
0001
0000
1000
0000
0000
1000
0000
0000
1000
0000
0100
0000
0000
0000
,
0010
0000
0000
0000
0001
0000
0100
0000
0002
0000
0000
0000
0013
0000
0000
0010
,
0000
0000
0010
0000
0001
0000
0000
0001
0000
0000
0001
0000
1000
0000
0000
0000
,
0100
0000
0000
0000
1000
0000
0010
0000
2000
0000
0000
0000
3001
0000
0000
0001
,
0000
0000
0001
0000
0100
0000
0000
0100
0000
0000
0100
0000
0010
0000
0000
0000
,
1000
0000
0000
0000
0100
0000
0010
0000
0200
0000
0000
0000
1300
0000
0000
1000
,
0000
0000
1000
0000
0010
0000
0000
0010
0000
0000
0010
0000
0100
0000
0000
0000
,
0001
0000
0000
0000
0010
0000
0000
0010
0000
0000
0010
0000
0000
0000
0000
0000
;

//---------------dance-single - DDRDAIKENKAI----------------
#NOTES:
     dance-single:
     DDRDAIKENKAI:
     Easy:
     3:
     0.209553,0.258780,0.021678,0.231231,0.000000,203.000000,200.000000,3.000000,32.000000,0.000000,0.000000,0.209553,0.258780,0.021678,0.231231,0.000000,203.000000,200.000000,3.000000,32.000000,0.000000,0.000000:
0000
0000
0000
0000
,
0000
0000
0000
0000
,
0000
0000
0000
0000
,
0000
0000
0000
0000
,
0000
0000
0000
0000
,
0000
0000
0000
0000
,
0000
0000
0000
0000
,
0000
0000
0000
0000
,
1000
0000
0001
0000
,
0100
0010
0100
0010
,
1000
0000
0001
0000
,
0100
0010
0100
0010
,
1000
0000
0100
0000
,
0010
0001
0010
0001
,
0100
0000
0010
0000
,
1000
0100
1000
1000
,
1000
0001
0000
0001
,
0100
0010
0000
1000
,
0100
0000
0010
0001
,
0100
0000
0010
1000
,
1000
0001
0001
1000
,
1000
0001
0001
0100
,
0010
0100
0010
0220
,
0000
0000
0330
1000
,
0200
0000
1000
0000
,
1300
0010
0100
0001
,
0020
0000
0001
0000
,
0031
0100
0010
1000
,
0002
0000
1000
0000
,
1003
0010
0100
0001
,
2000
0000
3001
0100
,
0002
0000
1003
0010
,
0010
0001
0001
0100
,
0100
0200
0300
1000
,
1000
0010
0010
0001
,
0001
0002
0003
0020
,
0030
2000
3000
0200
,
0300
0002
0003
0100
,
0100
0100
0100
0010
,
0010
0010
0010
0002
,
0000
0000
1003
2000
,
0000
0000
3001
0001
,
0100
0010
0100
1000
,
0100
0010
0100
0001
,
0001
0010
0010
0100
,
0100
1000
1000
0010
,
0010
0100
0100
0220
,
0000
0000
0330
1000
,
2000
0000
0000
3100
,
0010
0001
0100
0010
,
0020
0000
0030
1000
,
0100
0010
0001
0100
,
0200
0000
0300
0010
,
1000
0100
0010
0001
,
0002
0000
0003
1000
,
2000
0000
3000
0100
,
0001
0100
1000
0100
,
0001
0100
0100
0010
,
1000
0010
0001
0010
,
1000
0010
0010
0002
,
0003
0200
0300
0020
,
0030
2000
3000
0200
,
0300
0002
0003
0020
,
0030
2000
3000
0001
,
0001
0001
0001
0100
,
0010
0100
0010
1000
,
1000
1000
1000
0100
,
0010
0100
0010
0001
,
0001
0001
0001
0100
,
0010
0100
0010
1000
,
1000
1000
1000
0100
,
0010
0000
0220
0000
0000
0330
0000
0000
;
