#TITLE:レトルト~華麗なる愛~;
#SUBTITLE:;
#ARTIST:虹のコンキスタドール;
#TITLETRANSLIT:Retoruto ~ kareinaru-ai ~;
#SUBTITLETRANSLIT:;
#ARTISTTRANSLIT:Niji no Conquistador;
#GENRE:;
#CREDIT:;
#BANNER:;
#BACKGROUND:;
#LYRICSPATH:;
#CDTITLE:;
#MUSIC:[Round I] - Retoruto ~ kareinaru-ai ~.ogg;
#OFFSET:0.419253;
#SAMPLESTART:58.090000;
#SAMPLELENGTH:14.000000;
#SELECTABLE:YES;
#BPMS:0.000000=168.000000
;
#STOPS:211.750000=0.357000
;
#BGCHANGES:2.854=Retoruto ~ kareinaru-ai ~.mp4=1.000=0=0=0=StretchNoLoop====,
99999=-nosongbg-=1.000=0=0=0 // don't automatically add -songbackground-
;
#KEYSOUNDS:;
#ATTACKS:;

//---------------dance-single - ----------------
#NOTES:
     dance-single:
     :
     Hard:
     8:
     0.576102,0.715551,0.387957,0.367538,0.076570,395.000000,357.000000,38.000000,36.000000,0.000000,0.000000,0.576102,0.715551,0.387957,0.367538,0.076570,395.000000,357.000000,38.000000,36.000000,0.000000,0.000000:
0000
0000
0000
0000
,
0000
0000
0000
0000
,
0000
0000
0000
0000
,
0000
0000
0000
0000
,
1000
0001
1001
0000
,
1000
0100
1000
0001
0010
0100
1000
0100
,
0010
0100
0010
0001
1000
0010
0100
0001
,
0010
0100
0010
0100
1000
0010
0100
0001
,
0020
0001
0000
1000
0000
0001
0000
1030
,
0010
0001
0010
0001
0100
0001
1000
0010
,
0001
0010
1000
0100
0010
0100
1000
0010
,
0100
0001
0100
0001
1000
0001
1000
0001
,
0010
0100
1000
0010
0100
0001
0010
0100
,
0200
1000
0000
0001
0000
1000
0000
0301
,
0100
1000
0100
1000
0010
0000
0110
0000
,
1000
0001
0100
0000
0010
1000
0100
0000
,
1000
0000
0000
0001
0010
0000
0100
0000
0010
0000
0000
0000
0001
0000
1000
0000
,
0010
0100
0001
0000
0010
0100
1000
0001
,
0200
0310
2002
3003
,
0001
1000
0100
0000
0010
0100
1000
0000
,
0010
0000
0000
1000
0001
0000
0100
0000
0001
0000
0000
0000
0010
0000
0100
0000
,
1000
0010
0100
0000
0001
0010
0100
1000
,
0002
1003
2002
3003
,
1000
0001
0100
0000
0001
0010
0100
0000
,
2000
0000
3001
0000
0001
0100
0000
0001
,
1000
0100
1000
0000
0001
0010
0100
0000
,
1000
0010
1000
0001
0100
0010
0010
0010
,
1000
0010
0001
0000
0010
1000
0100
0000
,
0020
0000
0031
0000
0002
0000
1003
0001
,
1000
0100
0010
0001
0010
0100
1000
0010
,
0100
0001
0100
0001
0100
0000
0110
0000
,
0001
0010
0001
0010
0100
0010
0100
0010
,
1000
0010
1000
0010
0002
0000
2003
3000
,
1000
0000
0010
0000
1000
0000
0010
0000
0100
0000
0010
0200
0000
0000
0310
0000
,
0001
0010
0001
0010
2000
0000
3002
0003
,
0010
0100
0010
0100
1000
0100
1000
0100
,
1000
0010
0100
0001
2000
0000
3002
0003
,
0010
0011
1000
1010
,
0101
0000
0000
0000
1010
0000
0000
0000
1100
0000
0000
0110
0000
0000
0011
0000
,
2002
0000
0000
3003
,
1000
0001
0001
0100
0001
0001
0100
0100
,
0001
0000
0000
0010
0100
0000
0010
0000
0001
0000
0000
0100
0010
0000
1000
0000
,
0001
0000
0000
0010
0100
0000
1000
0000
0001
0000
0000
0000
0100
0000
0010
0000
,
2000
0000
3100
0000
0010
0100
1000
0001
,
0200
0000
0000
0000
0310
0000
0000
0000
1000
0000
0000
0100
0000
0000
0010
0000
,
0000
0001
0100
0001
0000
1000
0100
1000
,
0000
0001
0010
0100
0000
1000
0010
0100
,
0002
0000
0000
0000
0000
0000
0000
0000
1003
0000
0000
0100
0000
0000
0010
0000
,
0001
0110
0011
1010
,
0001
0000
0100
0000
0001
0000
1000
0000
0100
0000
0000
0010
0000
0000
0001
0000
,
0100
0000
1000
0000
0100
0000
0001
0000
0010
0000
0000
0100
0000
0000
1000
0000
,
0010
0000
1000
0000
0100
0000
0001
0000
0100
0000
0000
0010
0000
0000
0001
0000
,
0100
0000
0000
0010
0000
0000
1000
0000
0001
0000
0000
0000
1001
0000
0000
0000
,
0011
1100
1010
0101
,
0011
0000
0000
0000
0110
0000
0000
1100
0000
0000
0101
0000
1000
0000
0010
0000
,
1000
0000
0100
0000
0010
0000
0001
0000
0100
0000
0010
1000
0001
0000
0001
0000
,
1000
1000
1001
0000
0000
0000
2020
0000
,
0030
0200
0300
0002
,
0003
0020
3030
0202
,
0300
0020
0030
1003
,
0001
0000
1001
0000
0000
0000
1100
1000
,
0001
0010
0120
0000
0000
0031
1000
0010
,
0100
0001
0202
0000
0303
0000
0011
0010
,
0100
1000
1100
1000
0001
0010
1100
0000
,
0110
1001
0220
0000
,
0000
0000
0000
0000
,
0000
0000
0000
0330
;
