#TITLE:Midnight City Warfare;
#SUBTITLE:;
#ARTIST:sky_delta;
#TITLETRANSLIT:;
#SUBTITLETRANSLIT:;
#ARTISTTRANSLIT:;
#GENRE:;
#CREDIT:;
#BANNER:Midnight City Warfare.png;
#BACKGROUND:Midnight City Warfare-bg.png;
#LYRICSPATH:;
#CDTITLE:;
#MUSIC:Midnight City Warfare.ogg;
#OFFSET:0.531938;
#SAMPLESTART:43.459999;
#SAMPLELENGTH:15.000000;
#SELECTABLE:YES;
#BPMS:0.000000=180.000000
,323.000000=90.000000
,335.000000=180.000000
;
#STOPS:131.000000=0.166664,
131.500000=0.166664
;
#BGCHANGES:;
#KEYSOUNDS:;
#ATTACKS:;

//---------------dance-single - ----------------
#NOTES:
     dance-single:
     :
     Challenge:
     10:
     0.718557,1.330794,0.491521,0.704514,0.479233,614.000000,554.000000,60.000000,86.000000,0.000000,0.000000,0.718557,1.330794,0.491521,0.704514,0.479233,614.000000,554.000000,60.000000,86.000000,0.000000,0.000000:
0000
0000
0000
0000
,
0000
0000
0000
0000
,
0000
0000
0000
0000
,
0000
0000
0000
0000
,
0000
0000
0000
0000
,
0002
0000
0000
0100
0203
0000
0320
0000
,
0000
0000
0032
0000
0000
0000
0000
0000
0013
0000
0000
0000
1000
0000
0100
1000
,
0200
0000
0000
0010
0320
0000
2030
0000
,
0000
3020
0000
0000
0032
0000
1003
0000
,
0110
0000
1000
0100
0000
1000
0010
0000
,
0101
0000
0001
0000
1000
0000
0100
0000
0000
0000
0010
0001
1000
0000
0010
0000
,
1010
0000
0010
0010
0000
0001
0001
0000
,
0100
0000
0100
0000
0000
0000
1000
0000
1000
0000
0010
0100
0010
0000
1000
0000
,
1001
0000
0100
0001
0000
0010
0001
0000
,
1000
0000
0001
0000
0101
0000
0000
0000
0001
0000
0010
0000
0001
0100
0001
0100
,
0001
0000
0100
0100
0000
1000
1000
0000
,
0010
0010
0000
0001
0011
0000
1001
0000
,
1020
0000
0000
0230
0000
0000
0001
0000
,
0000
1000
0000
0000
0310
0000
1000
0200
,
0001
0000
0000
1000
0000
0000
0010
0000
,
0000
0001
0300
0001
0100
1000
0010
1000
,
0002
0000
0103
2000
0000
0100
3100
0000
,
0001
0010
0001
0000
2000
0000
3010
0000
,
0110
0000
1000
1100
0000
0010
0011
0000
,
0000
0001
0010
0100
1000
0001
1000
0000
,
1002
0000
0000
0000
,
0000
1000
0000
0000
1003
0000
0001
0000
,
2001
0000
0000
0000
0000
0000
0000
0001
,
0000
0001
0000
0000
3010
0000
0100
0000
,
0101
0001
1000
0001
,
0011
0100
1100
0001
,
1000
0000
0010
0000
0001
0000
0010
0000
1000
0001
0010
0001
1000
0001
0100
0010
,
2000
0000
0000
0000
0000
0000
3001
0110
,
1001
0000
0001
0100
0010
0100
0001
0010
0002
0000
0000
0000
1003
0100
1000
0001
,
1000
0000
0010
1000
0000
0010
1000
0000
0200
0000
0000
0000
1300
0000
0001
0000
,
0100
0000
0100
0000
0010
0000
0100
0001
0000
1000
0001
0000
0201
0000
0301
0000
,
0012
0013
0120
0130
1000
1000
1002
0000
,
0013
0000
0100
0000
1000
0000
0001
0000
1000
0010
0200
0000
0301
0000
1000
0100
,
1000
0000
0001
0100
0001
0000
1000
0000
0100
0000
0100
0000
1000
0000
0010
0000
,
0001
0000
0010
0000
1000
0000
0100
0000
0010
0001
0010
0000
0011
0000
0000
1001
,
0000
2100
0000
0000
3020
0000
0230
0000
,
0301
0000
1000
0100
0000
0010
0100
0000
0010
0001
1000
0000
0002
0000
0000
0000
,
0103
0000
0010
0100
0000
0010
1000
0000
0100
1000
0001
0000
2000
0000
0000
0000
,
3001
0000
0010
0001
0000
1000
0001
0000
1000
0100
0010
0000
0001
0000
0100
0000
,
1000
0001
0010
1000
0001
0010
0210
0000
,
0000
2300
0001
0000
3020
0000
0000
0230
,
0000
0000
0302
0000
1003
0000
0001
0100
,
1000
0000
0100
0000
0001
0010
0001
1000
0001
0100
0010
0100
0002
0000
0000
0000
,
0000
0000
1003
0001
1002
0000
0103
0000
,
0101
0000
0000
0110
0000
0000
1100
0000
0000
0011
0000
0000
0100
0000
0000
0000
,
1010
0000
0000
1001
0000
0000
1100
0000
0000
0110
0000
0000
0001
0000
0000
0000
,
0101
0000
0000
1010
0000
0000
0011
0000
0000
0110
0000
0000
1000
0000
0010
0000
,
0001
0100
1000
1000
0001
0001
0200
0000
,
0301
0010
0100
0001
1000
0010
0001
0100
,
0010
0001
1000
0100
0010
1000
0200
0000
,
0310
0001
0010
0100
0010
0001
1000
0001
0100
0010
1000
0010
0100
0000
0000
0101
,
0000
0000
1001
0000
0000
0000
0000
0000
1000
0100
0010
0001
2000
0000
0000
0000
,
0000
3200
0000
0000
0320
0000
0000
0032
,
0000
0000
0000
2003
,
0000
3002
0000
0000
0203
0000
0320
0000
,
0000
2030
0000
0000
3001
0000
0200
0000
,
0010
0320
0000
1000
2030
0000
0001
3002
,
0000
0000
0010
0000
0013
0000
0100
0000
1000
0000
0001
0000
1000
0100
1000
0001
,
1000
0010
0100
0010
1000
0001
1000
0100
0010
0001
0010
0001
2000
0000
0000
0000
,
0000
0002
0000
0000
3003
0000
0110
0000
,
1001
0000
0001
0000
0010
0000
0100
0000
1000
0010
1000
0010
0200
0000
0301
2000
,
0000
3100
0020
0000
0000
0000
0130
0000
1000
0000
0100
0000
0020
0000
0000
0000
,
0031
0000
0100
0000
0001
0000
1000
0000
0100
1000
0100
1000
0020
0000
0130
2000
,
0000
3100
0002
0000
0000
0000
0013
0000
0001
0000
1000
0010
2000
0000
0000
0000
,
3001
0000
0010
0002
0000
0013
2000
0000
3010
0000
0001
0000
2000
0000
3010
0200
,
0000
0301
2000
0000
3100
0000
0010
0001
0010
0000
0001
0000
1000
0000
0010
2000
,
0000
3100
0020
0000
0031
0100
0001
0000
1000
0000
0010
1000
0001
0000
0100
0001
,
1000
0000
2010
0000
0000
0000
3010
0000
1000
0010
0100
0001
0200
0000
0000
0000
,
0310
0000
1000
0100
1000
0001
0100
0000
0010
0000
0100
0000
0001
0000
0010
0000
,
1000
0000
0010
0000
0001
0000
1000
0010
1000
0001
0100
0000
0020
0000
0000
0000
,
0130
0000
0001
0010
0001
1000
0100
0000
1000
0000
0100
0000
0001
0000
1000
0010
,
0000
0001
1000
0000
0010
0000
0001
0000
0010
0000
1000
0100
0020
0000
0000
0000
,
0000
0031
1001
0000
2020
0000
3030
0101
,
0102
0000
0000
0000
1003
0000
0100
1000
0001
0000
0001
0000
1000
0000
0010
0000
,
0001
0000
0010
0000
1000
0001
0010
0001
1000
0010
0100
0010
1000
0000
1000
0000
,
0000
0000
1000
0000
0001
0000
0010
0000
0100
0000
1000
0000
1002
0000
0103
0010
,
0110
0000
0000
0000
1010
0000
0000
0000
0001
0010
0001
0010
0001
0000
1000
0100
1000
0100
1000
0000
0002
0000
0000
0000
0103
0000
0000
0000
0010
0000
0100
0000
,
0101
0000
0000
0011
0000
0000
1100
0000
1000
0000
0100
0000
0001
0000
0100
0000
1100
0000
0000
0000
0101
0000
0000
0000
0210
0000
0000
0000
0010
0000
0310
0000
,
1001
0000
0000
0000
0022
0000
0000
0000
0033
0000
1200
0000
0000
0000
1300
0010
1000
0000
0100
0000
0020
0000
0000
0000
0031
0000
0000
0000
0010
0000
0000
0000
,
1000
0000
0010
0000
0001
0100
0010
0100
0001
1000
0100
0010
0002
0000
0000
2003
,
0000
3020
0000
0000
0130
0000
0000
0000
;
