#TITLE:House Of Cards;
#SUBTITLE:;
#ARTIST:KSHMR feat. Sidnie Tipton;
#TITLETRANSLIT:;
#SUBTITLETRANSLIT:;
#ARTISTTRANSLIT:;
#GENRE:;
#CREDIT:;
#BANNER:House Of Cards-bn.png;
#BACKGROUND:House Of Cards-bg.png;
#LYRICSPATH:;
#CDTITLE:;
#MUSIC:House of Cards.ogg;
#OFFSET:-0.054240;
#SAMPLESTART:92.805489;
#SAMPLELENGTH:18.545456;
#SELECTABLE:YES;
#BPMS:0.000000=90.000000
,36.000000=110.000000
;
#STOPS:146.000000=0.090911,
146.166672=0.090903,
146.333328=0.090903,
146.500000=0.090903,
146.666672=0.090903,
146.833328=0.090903
;
#BGCHANGES:;
#KEYSOUNDS:;
#ATTACKS:;

//---------------dance-single - ----------------
#NOTES:
     dance-single:
     :
     Challenge:
     8:
     0.350290,0.560891,0.145242,0.350290,0.281940,287.000000,270.000000,17.000000,41.000000,11.000000,0.000000,0.350290,0.560891,0.145242,0.350290,0.281940,287.000000,270.000000,17.000000,41.000000,11.000000,0.000000:
// measure 0
0000
0000
0000
0000
,  // measure 1
0000
0000
0000
0000
,  // measure 2
0000
0000
0000
0000
,  // measure 3
0000
0000
0000
0000
,  // measure 4
0000
0000
0000
0000
,  // measure 5
2020
0000
0000
3030
,  // measure 6
2200
0000
0000
3300
,  // measure 7
0202
0000
0000
0303
,  // measure 8
0020
0000
0200
0330
,  // measure 9
0001
0010
0100
1000
,  // measure 10
0010
0100
0000
0001
0000
0000
0010
0200
,  // measure 11
1000
0000
0310
0001
0100
0000
0000
0020
,  // measure 12
0100
0000
1030
0001
0100
0000
0100
0000
,  // measure 13
0020
1000
1000
0130
,  // measure 14
0002
0000
0000
0000
0010
0000
0000
0000
0000
0013
0000
0000
0000
0000
0000
1000
0000
0000
0001
0000
0000
0010
0000
0000
,  // measure 15
0200
0000
1000
1000
1000
0000
0300
0000
,  // measure 16
MMMM
0000
0000
0000
,  // measure 17
0202
0000
0000
0303
0000
0001
1000
0010
,  // measure 18
2020
0000
0000
0000
0000
0000
3030
0000
0000
0000
0100
1000
0100
0000
0010
0000
,  // measure 19
0022
0000
0000
0033
0000
0001
1000
0010
,  // measure 20
0220
0000
0000
0000
0000
0000
0330
0000
0001
1000
0001
0000
0100
0000
0000
0000
,  // measure 21
1010
1000
0001
0000
0010
0001
1000
0010
,  // measure 22
0210
0000
0000
0000
0301
0000
0000
0100
0010
1000
0010
0000
1000
0000
0001
0000
,  // measure 23
0021
0000
0000
0000
0130
0000
0000
0000
1020
0000
0000
0000
0130
0000
0010
1000
,  // measure 24
0001
0000
0010
0100
1000
0000
0001
0100
0010
0100
0001
0000
1000
0010
0100
0001
,  // measure 25
2000
0100
0000
3020
,  // measure 26
0230
1000
0000
0302
,  // measure 27
0023
0100
0000
0130
,  // measure 28
1000
0000
0000
0000
0000
0000
0000
0000
0000
0001
0000
0000
0010
0000
0000
0000
0000
0000
0100
0000
1000
0000
0100
0000
1000
0000
0000
0000
0000
0000
0010
0000
0000
0000
0000
0000
0110
0000
0000
0000
0000
0000
0000
0000
0000
0000
0000
0000
,  // measure 29
0001
0000
0000
0100
0010
0000
1000
0000
0000
0010
0100
0000
0001
0000
0000
0000
,  // measure 30
1000
0000
0000
0100
0010
0000
0001
0000
0000
0010
0100
0000
1000
0000
0001
0000
,  // measure 31
0100
0010
0000
0100
0001
0000
1000
0100
0000
0010
0100
0000
2000
0000
0000
0000
,  // measure 32
0002
0000
3003
MMMM
,  // measure 33
0001
0100
0000
0001
1000
0000
0001
0100
0000
0001
1000
0000
0100
0000
0000
0000
,  // measure 34
1000
0100
0000
1000
0001
0000
0010
0100
0010
0100
1000
0000
0002
0000
0203
0300
,  // measure 35
0010
1000
0000
0010
0100
0000
0010
1000
0000
0010
0100
0000
0001
0000
0000
0000
,  // measure 36
1000
0000
0000
0001
0000
0000
0000
0000
0000
1000
0000
0000
0100
0000
0000
0000
0000
0000
0010
0000
0000
0001
0000
0000
1000
0000
0100
0000
0001
0000
1000
0000
0010
0000
0001
0000
1000
0000
0000
0100
0000
0000
0000
0000
0000
1000
0000
0000
,  // measure 37
0001
0000
1000
0100
0000
1000
0001
0000
0100
0000
0000
0000
0001
0100
0000
0001
,  // measure 38
1000
0000
0010
0100
0010
0100
0001
0000
2000
0000
3200
0300
0010
0001
0000
0010
,  // measure 39
0100
0000
0010
0001
0000
1000
0010
0000
0100
0010
0000
0100
0001
0000
1000
0100
,  // measure 40
0000
0010
0001
0000
1000
0010
0000
0100
0001
1000
0001
0000
2010
0000
0010
0000
,  // measure 41
3001
0000
1000
0010
0100
0001
0012
0000
,  // measure 42
1003
0000
0000
0000
0010
0000
0100
0001
0100
0000
0001
0000
0010
0000
0000
0010
,  // measure 43
0100
0000
0000
0100
1000
0001
0000
0000
0100
0000
0100
0000
0010
0000
0000
0010
,  // measure 44
0100
0000
0000
0100
0001
0000
1000
0000
1001
0000
0000
0000
1000
0000
0010
0000
,  // measure 45
0100
0010
1000
0100
0001
0100
0020
0000
,  // measure 46
0130
1000
0001
0100
1000
0100
0020
0000
,  // measure 47
2030
0000
3100
0010
0110
0000
1002
0000
,  // measure 48
0100
0100
0100
0100
,  // measure 49
0000
0000
0000
0000
,  // measure 50
0000
0000
MMM3
0000
;
