#VERSION:0.83;
#TITLE:WILD RUSH vs DROP OUT;
#SUBTITLE:(NONSTOP MEGAMIX);
#ARTIST:FACTOR-X VS NW260 (Mixed by Wavelength);
#TITLETRANSLIT:;
#SUBTITLETRANSLIT:;
#ARTISTTRANSLIT:;
#GENRE:;
#ORIGIN:;
#CREDIT:;
#BANNER:;
#BACKGROUND:;
#PREVIEWVID:;
#JACKET:;
#CDIMAGE:;
#DISCIMAGE:;
#LYRICSPATH:;
#CDTITLE:;
#MUSIC:WILD RUSH vs DROP OUT (NONSTOP MEGAMIX).ogg;
#OFFSET:0.000000;
#SAMPLESTART:36.900002;
#SAMPLELENGTH:14.800000;
#SELECTABLE:YES;
#DISPLAYBPM:130.000000:260.000000;
#BPMS:0.000=130.000,
44.000=260.000,
52.000=130.000,
69.500=260.000,
71.000=130.000,
73.000=260.000,
76.000=130.000,
78.000=260.000,
78.500=130.000,
80.000=65.000,
80.500=130.000,
81.500=260.000,
82.750=520.000,
88.000=130.000,
183.000=260.000,
328.000=130.000;
#STOPS:69.500=0.060,
69.750=0.060,
70.000=0.060,
70.250=0.060,
70.500=0.060,
70.750=0.060,
73.000=0.060,
73.250=0.060,
73.500=0.060,
73.750=0.060,
74.000=0.060,
74.250=0.060,
74.500=0.060,
74.750=0.060,
75.000=0.060,
75.250=0.060,
75.500=0.100,
78.000=0.040,
78.125=0.040,
78.250=0.040,
183.000=0.240;
#DELAYS:;
#WARPS:;
#TIMESIGNATURES:0.000=4=4;
#TICKCOUNTS:0.000=4;
#COMBOS:0.000=1;
#SPEEDS:0.000=1.000=0.000=0;
#SCROLLS:0.000=1.000;
#FAKES:;
#LABELS:0.000=Song Start;
#BGCHANGES:;
#KEYSOUNDS:;
#ATTACKS:
;

//---------------dance-single - ----------------
#NOTEDATA:;
#CHARTNAME:;
#STEPSTYPE:dance-single;
#DESCRIPTION:;
#CHARTSTYLE:;
#DIFFICULTY:Challenge;
#METER:10;
#RADARVALUES:0.839740,1.044633,0.207371,0.095710,0.849425,737.000000,711.000000,26.000000,12.000000,0.000000,0.000000,0.000000,0.000000,0.000000,0.839740,1.044633,0.207371,0.095710,0.849425,737.000000,711.000000,26.000000,12.000000,0.000000,0.000000,0.000000,0.000000,0.000000;
#CREDIT:;
#DISPLAYBPM:130.000000:260.000000;
#NOTES:
// measure 0
0000
0000
0000
0000
,  // measure 1
1000
0001
0000
1000
0001
0000
1000
0010
0000
0001
0100
0001
0000
0000
1000
0000
,  // measure 2
0001
0100
0001
0000
1000
0000
0100
1000
0100
0000
0100
0000
0001
0100
0001
0000
,  // measure 3
1000
0001
1000
0000
0010
0000
0001
0100
0000
0001
1000
0001
0000
0000
0100
0000
,  // measure 4
0010
0100
0010
0000
1000
0000
0001
0100
0001
0000
0001
0000
1000
0010
1000
0000
,  // measure 5
0100
0010
0100
0000
0001
0000
1000
0001
0000
0100
0010
0100
0000
0000
0001
0000
,  // measure 6
0100
0001
0100
0000
0010
0000
1000
0010
1000
0000
0001
1000
0010
0000
0100
0001
,  // measure 7
1000
0000
0010
1000
0010
0000
0100
0001
0000
0001
1000
0001
0100
0000
0010
0000
,  // measure 8
1000
0000
0010
1000
0010
0000
0100
0001
0100
0000
0001
1000
0001
1000
0001
0000
,  // measure 9
0100
0000
0010
1000
0010
0000
0100
0001
0000
1000
0001
1000
0000
0000
0001
0000
,  // measure 10
0100
0000
0010
0100
0010
0000
1000
0010
1000
0010
1000
0010
0100
0001
0100
0001
,  // measure 11
1000
0001
1000
0001
1000
0001
1000
0001
,  // measure 12
1000
0001
1000
0000
2002
0000
3003
0000
,  // measure 13
1000
0000
0001
1000
0001
0000
0100
0010
0100
0001
0100
0000
0010
0000
1000
0001
,  // measure 14
1000
0000
0100
0010
0100
0000
0001
0100
0001
1000
0001
0000
0100
0010
0100
0000
,  // measure 15
0001
0000
0100
0001
0100
0000
0010
0000
1000
0000
0100
1000
0100
0000
0100
0010
,  // measure 16
0100
0000
0001
1000
0001
0000
0100
0001
0100
0001
0100
0001
0100
0010
0100
0010
,  // measure 17
0100
0000
0000
0001
0100
0000
0010
0100
0010
0100
0010
1000
0010
0000
0100
0000
,  // measure 18
0110
0000
0010
0000
0001
0100
0001
1000
0001
0100
0001
1000
0001
0010
0001
0000
,  // measure 19
1001
0000
0000
0000
0000
0000
0100
0000
0001
0000
0100
0000
0010
0000
0100
0000
0010
0100
0010
0000
0100
0000
0001
0000
0100
0000
0010
0000
0100
0000
0000
0000
,  // measure 20
2002
0003
0002
0000
0000
0000
0000
0000
0000
0000
0000
0000
0000
0000
0000
0000
,  // measure 21
0000
0000
0000
0000
0000
0000
0000
3003
,  // measure 22
1001
0000
0010
1000
0010
0000
0100
0001
0100
0010
0100
0000
0001
0000
0100
0000
,  // measure 23
0010
0000
1000
0010
1000
0000
0001
1000
0001
0000
0100
0001
0100
0010
0100
0000
,  // measure 24
0001
0000
1000
0001
1000
0000
0010
0000
1000
0000
0001
0100
0001
0000
1000
0100
,  // measure 25
1000
0000
0001
1000
0001
0000
0100
0010
0100
0010
0100
0010
1000
0001
1000
0001
,  // measure 26
1000
0000
0010
1000
0000
0001
0100
0000
0001
0000
1000
0001
0000
0100
0010
0000
,  // measure 27
1000
0000
0001
0100
0000
0001
1000
0000
0010
0000
1000
0010
0000
1000
0001
1000
,  // measure 28
0001
0000
0100
0000
0010
1000
0000
1010
0000
0100
0001
0000
0100
0010
0000
0110
,  // measure 29
0000
0010
1000
0000
0001
0100
0000
0101
0000
0001
1000
0001
1000
0001
1000
0001
,  // measure 30
1000
0000
0001
0100
0000
0100
0010
0000
1000
0000
0001
0100
0000
0010
1000
0000
,  // measure 31
0100
0000
0010
0001
0000
1000
0100
0000
1000
0000
0001
0100
0000
0010
0100
0010
,  // measure 32
0100
0000
0001
0000
1000
0001
0000
1001
0000
0001
0100
0000
0010
0100
0000
0110
,  // measure 33
0000
0100
0001
0000
1000
0001
0000
1001
0000
0001
0100
0000
0001
0000
1000
0001
,  // measure 34
1000
0000
0010
0000
1000
0001
1000
0100
0000
0001
0100
0001
1000
0000
0010
0000
,  // measure 35
0001
0100
0001
0000
0100
0000
0010
0100
0001
0000
0001
1000
0001
0000
1000
0001
,  // measure 36
1000
0000
0001
0100
0001
0000
1000
0100
0000
1000
0001
1000
0001
0000
1000
0001
,  // measure 37
1000
0001
1000
0001
0100
0010
0100
0010
1000
0010
1000
0010
0100
0001
0100
0001
,  // measure 38
1000
0001
0000
0100
0000
0001
0000
0100
0000
0001
0000
0100
0000
0001
0000
0100
,  // measure 39
0000
0010
0000
0100
0000
0010
0000
0100
0000
0010
0000
0100
0000
0010
0000
1000
,  // measure 40
0000
0010
0000
1000
0000
0010
0000
1000
0000
0010
0000
1000
0000
0010
0000
1000
,  // measure 41
0000
0001
0000
1000
0000
0001
0000
1000
0000
0001
0000
0100
0000
0010
0000
1000
,  // measure 42
0002
0010
0000
0010
0000
0010
0000
0010
0000
0010
0000
1000
0000
1000
0000
1000
,  // measure 43
0000
1000
0000
1000
0000
0100
0000
0100
0000
0100
0000
0100
0003
0100
0000
0100
,  // measure 44
0001
0000
1000
0001
1000
0001
0000
0100
0000
0010
0000
1000
0000
0001
1000
0000
,  // measure 45
0001
1000
0001
1000
0001
1000
0001
1000
0000
0000
0001
0000
2002
3003
0000
0000
,  // measure 46
0001
0100
0001
0000
1000
0000
0010
1000
,  // measure 47
0001
1000
0100
0001
0010
0000
0001
0000
,  // measure 48
0100
0010
0100
0000
0001
0000
1000
0001
,  // measure 49
0100
0010
0100
0001
0100
0000
0010
0000
,  // measure 50
1000
0001
1000
0000
1100
0000
0100
0010
,  // measure 51
0100
0001
0100
0000
0010
0001
0010
0000
,  // measure 52
0001
1000
0001
0000
1001
0000
0010
0001
,  // measure 53
0010
0100
0010
0000
0001
1000
0001
0000
,  // measure 54
0100
0001
0100
0000
0010
0000
1000
0010
,  // measure 55
0100
0001
1000
0000
0001
0100
0001
0000
,  // measure 56
0010
0100
0010
0000
0001
0000
1000
0001
,  // measure 57
0100
0010
1000
0000
0001
0100
0001
0000
,  // measure 58
1000
0001
0100
0001
1000
0000
0001
0100
,  // measure 59
0010
0100
0001
0000
1001
0000
0010
0000
,  // measure 60
0100
0001
0100
0001
0010
0000
1000
0001
,  // measure 61
1000
0001
0100
0000
0110
0000
0001
0000
,  // measure 62
1000
0010
1000
0001
1000
0000
0010
0000
,  // measure 63
0100
0001
0100
0010
0100
0000
1000
0000
,  // measure 64
0010
0001
0010
0100
0010
0000
0001
0000
,  // measure 65
1000
0001
1000
0100
1000
0000
0010
0000
,  // measure 66
0100
0001
1000
0001
0100
0000
0010
0000
,  // measure 67
0001
0010
0100
0010
0001
0000
0100
0000
,  // measure 68
1000
0010
0100
0001
1000
0000
0100
0000
,  // measure 69
0001
1000
0100
1000
0001
0000
0100
0000
,  // measure 70
0001
0100
0000
0010
1000
0000
0001
0100
,  // measure 71
0010
0100
0001
0000
1000
0001
1000
0000
,  // measure 72
0100
0010
0000
1000
0001
0000
1000
0001
,  // measure 73
0100
0001
1000
0000
2002
0000
3003
0000
,  // measure 74
1000
0010
1000
0010
0100
0001
0100
0001
,  // measure 75
1000
0001
1000
0001
0100
0010
0100
0010
,  // measure 76
1000
0100
1000
0100
0010
0001
0010
0001
,  // measure 77
1000
0001
1000
0001
0100
0010
0100
0010
,  // measure 78
0100
0001
0100
0010
0100
0001
1000
0100
,  // measure 79
1000
0010
1000
0100
0010
0001
0100
0010
,  // measure 80
1000
0001
0100
0001
1000
0100
0010
0100
,  // measure 81
1000
0010
0100
0001
1000
0100
0010
0000
,  // measure 82
1010
1010
0101
0101
0110
0110
1001
1001
,  // measure 83
1000
0001
1000
0001
1000
0001
1000
0001
2002
0000
0000
0000
0000
0000
0000
0000
,  // measure 84
0000
0000
3003
0000
;
