#TITLE:You Can Walk on Water;
#SUBTITLE:;
#ARTIST:DJ Encore;
#TITLETRANSLIT:;
#SUBTITLETRANSLIT:;
#ARTISTTRANSLIT:;
#GENRE:;
#CREDIT:;
#BANNER:You Can Walk On Water - DJ Encorebn.PNG;
#BACKGROUND:You Can Walk On Water - DJ Encorebg.PNG;
#LYRICSPATH:You Can Walk on Water - DJ Encore.lrc;
#CDTITLE:encorerebirth.png;
#MUSIC:You Can Walk on Water - DJ Encore.ogg;
#OFFSET:-0.962;
#SAMPLESTART:85.323;
#SAMPLELENGTH:14.182;
#SELECTABLE:YES;
#BPMS:0.000=135.000
,96.000=67.500
,112.000=101.250
,136.000=135.000
;
#STOPS:
;
#BGCHANGES:;
#KEYSOUNDS:;
#ATTACKS:;

//---------------dance-single - Spork!----------------
#NOTES:
     dance-single:
     Spork! - Beginner:
     Beginner:
     1:
     0.061,0.099,0.009,0.136,0.000,33.000,1.000,16.000,0.000,0.000,0.000,0.061,0.099,0.009,0.136,0.000,33.000,1.000,16.000,0.000,0.000,0.000: // measure 0
0000
0000
0000
0000
,  // measure 1
0000
0000
0000
0000
,  // measure 2
0000
0000
0000
0000
,  // measure 3
0000
0000
0000
0000
,  // measure 4
0000
0000
0000
0000
,  // measure 5
0000
0000
0000
0000
,  // measure 6
0000
0000
0000
0000
,  // measure 7
0000
0000
0000
0000
,  // measure 8
1000
0000
0000
0000
,  // measure 9
0000
0000
0000
0000
,  // measure 10
0001
0000
0000
0000
,  // measure 11
0000
0000
0000
0000
,  // measure 12
0100
0000
0000
0000
,  // measure 13
0000
0000
0000
0000
,  // measure 14
0010
0000
0000
0000
,  // measure 15
0000
0000
0000
0000
,  // measure 16
0010
0000
0000
0000
,  // measure 17
0000
0000
0000
0000
,  // measure 18
0100
0000
0000
0000
,  // measure 19
0000
0000
0000
0000
,  // measure 20
0001
0000
0000
0000
,  // measure 21
0000
0000
0000
0000
,  // measure 22
1000
0000
0000
0000
,  // measure 23
0000
0000
0000
0000
,  // measure 24
0002
0000
0003
0000
,  // measure 25
0002
0000
0003
0000
,  // measure 26
2000
0000
3000
0000
,  // measure 27
2000
0000
3000
0000
,  // measure 28
0020
0000
0000
0030
,  // measure 29
0000
0000
0020
0000
,  // measure 30
0000
0030
0000
0000
,  // measure 31
0200
0000
0000
0300
,  // measure 32
0000
0000
0200
0000
,  // measure 33
0000
0300
0000
0000
,  // measure 34
0001
0000
0000
0000
,  // measure 35
0001
0000
0000
0000
,  // measure 36
0010
0000
0000
0000
,  // measure 37
0010
0000
0000
0000
,  // measure 38
0100
0000
0000
0000
,  // measure 39
0100
0000
0000
0000
,  // measure 40
1000
0000
0000
0000
,  // measure 41
1000
0000
0000
0000
,  // measure 42
0020
0000
0000
0000
,  // measure 43
0030
0000
0000
0000
,  // measure 44
2000
0000
0000
0000
,  // measure 45
3000
0000
0000
0000
,  // measure 46
0002
0000
0000
0000
,  // measure 47
0003
0000
0000
0000
,  // measure 48
0020
0000
0000
0000
,  // measure 49
0030
0000
0000
0000
,  // measure 50
0200
0000
0000
0000
,  // measure 51
0300
0000
0000
0000
,  // measure 52
2000
0000
0000
0000
,  // measure 53
3000
0000
0000
0000
,  // measure 54
0002
0000
0000
0000
,  // measure 55
0003
0000
0000
0000
,  // measure 56
0200
0000
0000
0000
,  // measure 57
0300
0000
0000
0000
,  // measure 58
1001
0000
0000
0000
;

//---------------dance-single - Spork!----------------
#NOTES:
     dance-single:
     Spork! - Light:
     Easy:
     2:
     0.150,0.151,0.051,0.145,0.000,100.000,6.000,17.000,0.000,0.000,0.000,0.150,0.151,0.051,0.145,0.000,100.000,6.000,17.000,0.000,0.000,0.000:
0000
0000
0000
0000
,
0000
0000
0000
0000
,
0000
0000
0000
0000
,
0000
0000
0000
0000
,
0020
0000
0000
0000
,
0032
0000
0000
0000
,
2003
0000
0000
0000
,
3020
0000
0000
0000
,
1030
0000
0100
0000
,
1000
0000
0010
0000
,
0100
0000
0001
0000
,
0010
0000
0001
0000
,
0100
0000
0010
0000
,
2000
0000
0000
0000
,
3001
0000
1000
0000
,
0002
0000
0000
0000
,
1003
0000
0010
0000
,
0100
0000
0001
0000
,
0010
0000
0100
0000
,
1000
0000
0010
0000
,
0100
0000
0100
0000
,
0002
0000
0000
0000
,
1003
0000
0001
0000
,
2000
0000
0000
0000
,
3001
0010
0001
0000
,
0100
0010
0100
0000
,
0010
1000
0010
0000
,
1000
0001
1000
0000
,
1000
0000
0000
0100
0000
0000
1000
0000
,
0000
0000
0000
0000
0010
0000
0000
0100
,
0000
0010
0000
0000
,
0100
0000
0000
0001
0000
0000
0100
0000
,
0000
0000
0000
0000
0001
0000
0000
1000
,
0000
0001
0000
0000
,
0020
0000
0031
0000
,
0200
0000
0310
0000
,
0020
0000
1030
0000
,
0200
0000
0310
0000
,
0200
0000
1300
0000
,
0020
0000
0130
0000
,
0200
0000
0301
0000
,
0020
0000
0130
0000
,
1000
0000
0100
0000
,
1100
0000
0000
0000
,
1000
0000
0001
0000
,
1001
0000
0000
0000
,
0001
0000
0100
0000
,
0101
0000
0000
0000
,
0100
0000
0001
0000
,
0010
0000
0100
0000
,
1000
0000
0010
0000
,
1010
0000
0000
0000
,
0010
0000
0100
0000
,
0110
0000
0000
0000
,
0001
0000
0010
0000
,
0011
0000
0000
0000
,
0010
0000
0001
0000
,
1000
0000
0001
0000
,
0200
0000
0000
0000
,
0310
0000
0000
0000
;

//---------------dance-single - Spork!----------------
#NOTES:
     dance-single:
     Spork! - Standard:
     Medium:
     5:
     0.294,0.377,0.299,0.179,0.021,185.000,35.000,21.000,0.000,0.000,0.000,0.294,0.377,0.299,0.179,0.021,185.000,35.000,21.000,0.000,0.000,0.000:
0000
0000
0000
0000
,
0000
0000
0000
0000
,
0000
0000
0000
0000
,
0000
0000
0000
0000
,
0002
0000
0100
0000
,
0023
0000
0001
0000
,
0230
0000
0010
0000
,
2300
0000
0010
0000
,
3001
0100
0000
0100
,
0000
0100
0010
1000
,
0100
0010
0001
0000
,
0001
0000
0001
1000
,
0100
1000
0010
0100
,
0001
0000
0001
0000
,
0001
0100
1000
0100
,
0002
0000
0000
0000
0003
0000
1000
0001
,
1000
0010
0000
0010
,
0000
0010
0100
0001
,
0010
0100
1000
0000
,
1000
0000
1000
0001
,
0010
0001
0100
0010
,
1000
0000
1000
0000
,
1000
0100
0001
0100
,
2000
0000
3001
0100
,
0210
0000
0010
0000
0301
0000
1000
0100
,
0210
0000
0010
0000
1300
0000
0001
0010
,
0120
0000
0100
0000
0031
0000
1000
0010
,
1010
0000
0110
0000
0101
0000
0001
1000
,
2100
0000
0000
0100
0000
0000
3010
0000
,
0000
0000
1000
0000
0000
0001
0000
0000
0012
0000
0000
0000
0000
0000
0100
0000
,
0000
0000
0000
0000
0000
0010
0000
0000
0003
0000
0000
0010
0000
0000
0000
0000
0000
0000
0000
0000
0010
0000
0000
0000
0000
0000
0001
0000
0000
0000
0000
0000
,
0201
0000
0000
0010
0000
0000
0001
0000
,
0000
0000
0310
0000
0000
1000
0000
0000
1100
0000
0000
0000
0000
0000
0110
0000
,
0000
1001
0000
0000
,
0011
0001
0100
0001
,
1001
1000
0010
0100
,
0110
0010
1000
0100
,
0110
0010
0001
1000
,
1100
0100
1000
0010
,
1010
1000
0001
0100
,
0110
0010
1000
0001
,
0011
0010
0001
0100
,
0201
0000
0000
0000
0310
0000
0000
0010
,
0000
1000
0000
0000
1000
0000
0100
0000
,
1200
0000
0000
0000
0310
0000
0010
0001
,
0000
1000
0000
0000
0001
0000
0010
0000
,
0021
0000
0000
0000
0130
0000
0000
1100
,
0000
1001
0000
0000
1000
0000
0010
0000
,
1010
0000
0010
0000
1000
0001
0000
2002
,
0000
0000
3003
0000
0001
1000
0001
0000
,
0012
0000
0000
0000
1003
0000
1000
0100
,
0000
0010
0000
0000
0001
0000
1000
0000
,
2100
0000
0000
0000
3001
0000
0000
1001
,
0000
0110
0000
0000
1000
0000
0001
0000
,
0201
0000
0000
0000
0301
0010
0000
0100
,
0000
0100
1000
0001
,
0011
0000
0110
0000
,
1001
0000
0000
0000
1000
0001
1000
0000
,
0020
0000
0100
0000
,
1030
0000
0000
0000
;

//---------------dance-single - Spork!----------------
#NOTES:
     dance-single:
     Spork! - Expert:
     Challenge:
     9:
     0.545,0.608,0.188,0.239,0.499,397.000,22.000,28.000,12.000,0.000,0.000,0.545,0.608,0.188,0.239,0.499,397.000,22.000,28.000,12.000,0.000,0.000:
0000
0000
0000
0000
,
0000
0000
0000
0000
,
0000
0000
0000
0000
,
0000
0000
0000
0000
,
0M00
0000
0010
0000
0000
1000
0000
0000
0100
0000
0000
1000
0000
0000
0010
0000
,
000M
0000
0100
0000
0000
0001
0000
0000
0010
0000
0000
0001
0000
0000
0100
0000
,
M000
0000
0001
0000
0000
1000
0000
0000
0010
0000
0000
1000
0000
0000
0100
0000
,
00M0
0000
1000
0000
0000
0001
0000
0000
0010
0000
0000
0001
0000
0000
0100
0000
,
0010
0000
0110
0000
0010
1000
0100
0001
,
0100
1000
0010
0100
0001
0010
0000
0110
,
0000
1100
0000
1020
0000
0000
1030
0001
,
0010
1000
0010
0001
0100
0010
0000
1001
,
0000
1000
0001
0020
0000
0031
1000
0020
,
0100
0000
1030
0001
0100
1000
0100
0001
,
0010
0100
1000
0010
0100
0000
0100
0001
,
2000
0000
0010
0000
3001
0100
0001
1000
,
1001
0000
0001
0000
1000
0000
0000
0100
0000
0000
0001
0000
0100
0000
0000
0010
,
0000
0000
0100
0000
1000
0000
0000
0100
0000
0000
0010
0000
0001
0000
0000
0100
,
0001
0000
1000
0000
0001
0000
0000
0100
0000
0000
1000
0000
0100
0000
0000
0010
,
0000
0000
0100
0000
0001
0000
0000
0100
0000
0000
0010
0000
1000
0000
0000
1000
,
0001
0000
1000
0000
0010
0000
0000
0001
0000
0000
0010
0000
0100
0000
0000
0100
,
0001
0000
1000
0000
0100
0000
0000
0001
0000
0000
0100
0000
0010
0000
0000
0001
,
1000
0010
0100
0010
1000
0100
0000
1000
,
0002
0000
0000
0000
1003
0010
0100
0001
,
1000
0000
0100
0000
0000
0010
0000
0000
0100
0000
0000
1000
0000
0000
1000
0000
0001
0000
0100
0000
0000
0010
0000
0000
0100
0000
0000
0001
0000
0000
0001
0000
,
1000
0000
0010
0000
0000
0100
0000
0000
0010
0000
0000
1000
0000
0000
1000
0000
0001
0000
0010
0000
0000
0100
0000
0000
0010
0000
0000
0001
0000
0000
0001
0000
,
0100
0000
1000
0000
0000
0100
0000
0000
0001
0000
0000
1000
0000
0000
1000
0000
0100
0000
0001
0000
0000
0100
0000
0000
1000
0000
0000
0001
0000
0000
1000
0000
,
0010
0000
0110
0000
0100
0001
0000
0001
2000
0000
0000
0000
3001
0010
0100
1000
,
0020
0000
0000
0000
0000
0000
0100
0000
0000
0000
0030
0000
0110
0000
0000
0000
0000
0000
0100
0000
0000
0001
0000
0000
0000
0000
0000
0010
0000
0000
0000
0000
,
0000
0010
0000
0000
0100
0000
0000
1000
0000
0000
0010
0000
0000
1000
0000
0000
0002
0000
0000
0000
0000
0000
1000
0000
0000
0000
0000
0000
0103
0000
0000
0000
,
0000
0000
0000
0000
0000
0101
0000
0000
0000
0000
0000
1100
0000
0000
0000
0000
0000
0010
0000
0000
0100
0000
0000
0000
0000
0000
1000
0000
0000
0000
0000
0000
,
0002
0000
0000
0000
0000
0000
1000
0000
0003
0000
0000
0000
1000
0000
0000
0001
0000
0000
0000
0000
0000
0200
0000
0000
0000
0000
0000
0000
0000
0000
0001
0000
,
0000
0000
0310
0000
0000
0110
0000
0000
2020
0000
0000
0000
3030
0000
2002
0000
,
0000
3003
0022
0000
0033
0000
0000
0000
,
M000
0000
0010
0000
0001
0100
0000
0001
1000
0000
0010
1000
0000
0100
1000
0000
,
000M
0000
0010
0000
1000
0100
0000
1000
0001
0000
0010
0001
0000
0100
0001
0000
,
M000
0000
0001
0000
0010
0001
0000
0001
0100
0000
0010
1000
0000
1000
0100
0000
,
000M
0000
1000
0000
0010
1000
0000
1000
0100
0000
0010
0001
0000
0001
0100
0000
,
00M0
0000
0001
0000
1000
0010
0000
0001
0010
0000
1000
0010
0000
1000
0001
0000
,
0M00
0000
1000
0000
0001
0100
0000
1000
0100
0000
0001
0100
0000
0001
1000
0000
,
00M0
0000
0001
0000
0100
0001
0000
0001
0010
0000
0100
1000
0000
1000
0001
0000
,
0M00
0000
1000
0000
0010
1000
0000
1000
0100
0000
1000
0000
0010
0000
0100
0000
,
0001
0000
0010
0001
0010
0000
0100
0000
0001
0000
0100
1000
0100
0000
0010
0000
,
0000
1001
0000
0100
1000
0010
1000
0001
,
0100
0000
0001
0010
0001
0000
1000
0000
0010
0000
0100
0010
0100
0000
1000
0000
,
0000
0110
0000
0100
0001
1000
0100
0010
,
0001
0000
1000
0010
1000
0010
1000
0010
1000
0000
0100
0000
0010
0000
0001
0000
,
0000
0101
0000
0100
0020
0000
0230
0000
,
0301
0000
1000
0100
0010
0000
0001
0000
0100
0000
0010
0100
0001
0000
1000
0000
,
0200
0000
1000
0000
0310
0001
0100
0010
,
1000
0000
0000
0010
0001
0000
0010
0000
0100
0000
0000
1000
0100
0000
0010
0000
,
0000
1001
0000
0100
0001
0010
0100
0001
,
0100
0000
1000
0100
0010
0000
0001
0000
0100
0000
0001
0010
0100
0000
1000
0000
,
0000
0110
0100
1000
0020
0000
0230
0000
,
0301
0000
0010
0000
0001
0100
0000
0001
1000
0000
0010
1000
0000
1000
0100
0000
,
1000
0000
0010
0000
1000
0100
0000
1000
0001
0000
0010
0001
0000
0001
0100
0000
,
0102
0000
0013
0100
2100
0000
3010
1000
,
1002
0000
1003
0000
0001
0010
0100
1000
,
0020
0000
0000
0000
0230
0000
0000
0302
,
0000
2003
0000
3000
0000
0000
0000
0000
;

//---------------dance-single - Spork!----------------
#NOTES:
     dance-single:
     Spork! - Heavy:
     Hard:
     7:
     0.392,0.405,0.196,0.333,0.068,260.000,23.000,39.000,0.000,0.000,0.000,0.392,0.405,0.196,0.333,0.068,260.000,23.000,39.000,0.000,0.000,0.000:
0000
0000
0000
0000
,
0000
0000
0000
0000
,
0000
0000
0000
0000
,
0000
0000
0000
0000
,
2010
0000
0001
3000
,
0012
0000
1000
0003
,
2100
0000
0010
3000
,
0102
0000
0010
0003
,
0001
0000
0100
0000
0001
0000
1000
0010
,
0100
0000
0100
0010
0100
0001
0000
1000
,
0000
0100
0000
0010
0001
0000
0100
0000
,
0010
0000
0010
0100
0001
1000
0000
0010
,
0000
1000
0100
0001
0000
0001
0100
1000
,
0000
0001
1000
0000
0010
0000
0100
0000
,
0001
0010
0100
1000
0010
0000
0010
1000
,
0001
0000
0100
0000
0010
0000
0010
0100
,
0001
0000
0000
0000
1000
0000
0000
0010
0000
0000
1000
0000
0100
0000
0000
0010
,
0000
0100
1000
0000
0001
0100
0000
0001
,
0000
0000
0010
0000
0000
0000
0110
0000
0000
0000
0010
0000
0001
0000
0000
0100
,
0000
0001
0010
0000
0100
1000
0000
0010
,
0000
0100
0000
0001
0000
0001
0010
0001
,
1000
0010
0100
0001
,
1000
0100
0010
0001
0100
0010
0000
0010
,
2000
0000
0100
0000
3001
0010
0001
0010
,
0200
0000
2300
0000
3020
0000
0130
0001
,
0020
0000
0032
0000
2003
0000
3100
0010
,
0002
0000
0023
0000
0230
0000
0310
0100
,
1000
1000
0010
0010
0200
0000
0301
1000
,
2001
0000
0000
0100
0000
0000
3001
0000
,
0000
0000
0100
0000
0000
0010
0000
0000
0120
0000
0000
0000
0000
0000
0100
0000
,
0000
0000
0000
0000
0030
1000
0000
0000
0000
0000
0000
0001
0000
0000
0000
0000
0000
0000
0000
0000
1000
0000
0000
0000
0000
0000
0100
0000
0000
0000
0000
0000
,
1200
0000
0000
1000
0000
0000
0310
0000
,
0000
0000
0010
0000
0000
0001
0000
0000
0201
0000
0000
0000
0000
0000
0010
0000
,
0000
0302
0000
0003
,
2000
0000
0000
0000
3100
0000
0000
0000
1000
0000
0000
0010
0000
0000
1000
0000
,
0002
0000
0000
0000
0103
0000
0000
0000
0001
0000
0000
0010
0000
0000
0100
0000
,
0020
0000
0000
0000
0031
0000
0000
0000
0100
0000
0000
0010
0000
0000
1000
0000
,
0200
0000
0000
0000
1300
0000
0000
0000
0010
0000
0000
0100
0000
0000
0001
0000
,
0020
0000
0031
0000
0010
0100
1000
0001
,
0200
0000
0310
0000
0100
0010
0100
0001
,
2000
0000
3010
0000
0010
1000
0100
0010
,
0002
0000
0103
0000
0100
0001
0010
0100
,
1000
0000
0001
0000
1100
0000
0100
0010
,
0000
1001
0000
0100
0010
1000
0100
0010
,
0001
0000
1000
0000
0011
0000
0001
0100
,
0000
0110
0000
0100
0010
0000
1000
0000
,
0200
0000
1000
0000
0320
0000
0000
0001
,
0030
1001
0000
0010
0001
0000
0100
0000
,
1010
0100
0011
0100
,
2002
0000
0000
0000
0000
3003
0000
0000
1000
0000
0100
0000
0010
0000
0001
0000
,
1000
0000
0000
1000
0010
0000
0000
0010
0100
0000
0000
0000
0001
0000
1000
0000
,
0000
0100
0000
0010
0001
0100
0010
1000
,
0001
0000
0000
0001
0100
0000
0000
0100
0010
0000
0000
0000
1000
0000
0001
0000
,
0000
1001
0000
1000
0100
0000
1000
0000
,
1010
0000
0010
0000
1000
0001
0000
1001
,
0000
0001
1000
0000
0100
0000
0010
0000
,
0021
0000
0000
0030
1002
0000
0000
0003
,
2010
0000
0000
3000
0001
0100
0010
1000
,
0200
0000
0000
0000
0320
0000
0000
0032
,
0000
2003
0000
3000
0000
0000
0000
0000
;
