#TITLE:Super Game;
#SUBTITLE:;
#ARTIST:Rabbit Killer & Farleon;
#MUSIC:Rabbit Killer & Farleon - Super Game.ogg;
#OFFSET:0.009000;
#SAMPLESTART:83.626999;
#SAMPLELENGTH:15.000000;
#SELECTABLE:YES;
#DISPLAYBPM:132.000000;
#BPMS:0.000000=132.000000
,31.000000=198.000000
,31.750000=66.000000
,32.000000=132.000000
,111.000000=198.000000
,111.750000=66.000000
,112.000000=132.000000
;
#STOPS:
;
#BGCHANGES:;
#KEYSOUNDS:;
#ATTACKS:;

//---------------dance-single - ----------------
#NOTES:
     dance-single:
     :
     Challenge:
     10:
     0.675223,0.847656,0.242188,0.539063,0.710938,505.000000,31.000000,69.000000,25.000000,0.000000,2.000000,0.675223,0.847656,0.242188,0.539063,0.710938,505.000000,31.000000,69.000000,25.000000,0.000000,2.000000:
// measure 0
0000
0000
0000
0000
,  // measure 1
0000
0000
0000
0000
,  // measure 2
0000
0000
0000
0000
,  // measure 3
0000
0000
0000
0000
,  // measure 4
0001
0000
1000
0001
0100
0000
0010
0000
1000
0000
0001
0000
0010
0000
0001
0000
,  // measure 5
1000
0000
0010
0000
0100
0000
0001
1000
0100
0000
0010
0001
1000
0001
0100
0000
,  // measure 6
0010
0000
0100
0001
1000
0000
0100
0000
0010
0000
0001
0000
1000
0000
0001
0000
,  // measure 7
0200
0000
0000
0000
0000
0000
0320
0000
1030
0000
0001
0000
0020
0000
0000
0030
,  // measure 8
1100
0000
0000
0000
,  // measure 9
0000
0000
0000
0000
,  // measure 10
0000
0000
0000
0000
,  // measure 11
0000
0000
0000
0000
,  // measure 12
1000
0000
1000
0001
0000
0001
0000
0001
0100
0000
0000
0010
0000
0000
0010
0000
,  // measure 13
1000
0000
0000
0000
0001
0000
0000
0000
0001
0000
0000
0010
0000
0010
0100
0000
,  // measure 14
1000
0001
0000
0001
0000
0000
0001
0000
1000
0010
0000
0100
0000
0000
0001
0000
,  // measure 15
1000
0000
0000
0000
0100
0000
0000
0000
0000
0000
0010
0001
1000
0010
0100
0001
,  // measure 16
2001
0000
0000
0000
0000
0000
0000
0000
3001
0000
1000
0100
00M0
0100
0001
0000
,  // measure 17
1020
0000
0000
0000
0000
0000
0100
0000
1030
0000
0004
0000
0000
0000
0000
0003
,  // measure 18
0021
0000
0000
0000
0000
0000
0000
0000
0000
0000
0000
0000
0000
0000
0000
0000
0000
0000
0000
0000
0000
0000
0000
0000
0130
0000
0000
0000
0000
0000
1000
0000
0000
0010
0000
0000
0000
0000
0000
0000
0100
0000
0000
0000
0100
0000
0000
0000
,  // measure 19
0102
0000
0000
0000
0000
0000
0100
0000
1003
0100
0010
0001
1000
0010
1000
0010
,  // measure 20
0210
0000
0000
0000
0000
0000
0000
0000
0301
0000
0001
0010
0M00
0010
1000
0000
,  // measure 21
0102
0000
0000
0000
0000
0000
1000
0000
0013
0000
0400
0000
0000
0000
0000
0300
,  // measure 22
2100
0000
0000
0000
0000
0000
0000
0000
0000
0000
0000
0000
0000
0000
0000
0000
0000
0000
0000
0000
0000
0000
0000
0000
3001
0000
0000
0000
0000
0000
1000
0000
0000
0010
0000
0000
0000
0000
0000
0000
0100
0000
0000
0000
0100
0000
0000
0000
,  // measure 23
0102
0000
0000
0000
0000
0000
0000
0013
0100
0010
0000
0000
0000
0000
0000
0000
,  // measure 24
0001
0000
1000
0001
0100
0000
0000
0000
0010
0000
0000
1000
0001
0000
0000
0000
,  // measure 25
0010
0000
0000
0000
0100
0000
0000
1000
0001
0000
0100
0010
0100
0001
0000
0000
,  // measure 26
1000
0000
0001
1000
0100
0000
0010
0001
1000
0000
0000
0001
0100
0000
0000
0000
,  // measure 27
0010
0000
00M0
0000
0000
0000
00M0
0000
0000
0000
00M0
0000
M002
0000
0000
0003
,  // measure 28
1000
0000
0001
0020
0000
0000
0130
0010
0001
0200
0010
0310
,  // measure 29
2000
0000
0000
3000
0000
0000
0002
0000
0000
0003
0000
0000
0020
0000
0000
0030
0000
0000
0200
0000
0000
0300
1000
0000
,  // measure 30
0020
0000
0000
0030
0000
0000
0200
0000
0000
0300
0000
0000
0002
0000
0000
0003
0000
0000
1000
0000
1000
0000
1000
0000
,  // measure 31
0100
0010
0100
0001
0100
0010
0001
1000
0010
0100
0001
1000
,  // measure 32
0200
0000
0000
0010
0000
0301
0100
0010
0001
1000
0010
0100
,  // measure 33
0002
0000
0000
1003
0001
1000
0200
0000
0000
0310
0100
1000
,  // measure 34
0001
0000
0001
0200
0000
0000
0010
0300
0000
0100
0001
0010
,  // measure 35
0200
0000
0000
2300
0000
3000
0001
0100
0010
1000
0001
0010
,  // measure 36
1100
0100
1000
0002
0000
0103
0020
0000
0130
0002
1000
1003
,  // measure 37
2002
0000
0000
3003
0000
0000
2020
0000
0000
3030
0000
0000
0220
0000
0000
0330
0000
0000
0202
0000
0000
0303
1000
0000
,  // measure 38
2200
0000
0000
3300
0000
0000
0220
0000
0000
0330
0000
0000
0022
0000
0000
0033
0000
0000
1001
0000
0001
0000
0001
0000
,  // measure 39
0001
0100
0010
0001
0010
0100
0001
1000
0100
0010
0001
1000
,  // measure 40
0020
0000
0000
0100
0000
0031
0010
0100
0001
1000
0100
0010
,  // measure 41
0002
0000
0000
1003
0001
0100
0020
0000
0000
1030
0001
0010
,  // measure 42
0100
0000
0000
0000
0100
0000
2000
0000
0000
0000
0000
0000
0001
0000
0000
3000
0000
0000
1000
0000
0010
0000
0100
0000
,  // measure 43
0002
0000
0000
0023
0000
0000
0130
0010
0001
1000
0001
0100
,  // measure 44
0001
0010
0100
1000
0001
0100
0001
0010
0100
1000
0001
0100
,  // measure 45
0010
00M1
0100
0010
00M1
0100
0010
00M1
1000
0100
0000
0000
,  // measure 46
1020
0000
0000
0000
0130
0010
000M
0010
0001
0000
1000
0000
0010
0000
0001
0000
,  // measure 47
0010
0100
0001
0000
1000
0000
0100
0000
0010
0000
0001
0000
1000
0010
1000
0010
,  // measure 48
0200
0000
0000
0000
0000
0000
0000
0000
0000
0301
0000
0000
1000
0000
0000
0000
0000
0000
0100
0000
0000
0000
0000
0000
10M0
0000
0000
0000
00M0
0000
0001
0000
00M0
0000
0000
0000
02M0
0000
0000
0000
00M0
0000
0000
0000
00M0
0000
0000
0000
,  // measure 49
03M1
0000
0000
1000
0000
0000
0001
0000
0000
0100
0000
0000
0020
0000
0000
0000
0000
0000
0130
0000
0001
0000
1000
0000
,  // measure 50
1200
0000
0000
0000
0310
0000
0001
0000
1000
0010
0100
0010
1000
0000
0001
1000
,  // measure 51
0100
0010
0100
1000
0001
0000
0100
0000
1000
0000
0100
0000
0001
0000
1000
0000
,  // measure 52
1200
0000
0010
0000
2300
0000
0001
0000
3010
1000
0001
0010
0200
0000
1300
0001
,  // measure 53
0100
0000
0000
0000
0010
0000
0200
0300
0001
0010
0100
1000
0001
0100
0001
0100
,  // measure 54
0120
0000
0000
0000
0130
0010
000M
0010
0001
0000
1000
0000
0010
0000
0001
0000
,  // measure 55
0010
0100
0001
0000
1000
0000
0100
0000
0010
0000
0100
0000
1000
0001
1000
0001
,  // measure 56
0200
0000
0000
0000
0000
0000
0000
0000
0000
0310
0000
0000
1000
0000
0000
0000
0000
0000
0001
0000
0000
0000
0000
0000
0M10
0000
0000
0000
0M00
0000
0001
0000
0M00
0000
0000
0000
2M00
0000
0000
0000
0M00
0000
0000
0000
0M00
0000
0000
0000
,  // measure 57
3M01
0000
0000
1000
0000
0000
0010
0000
0000
0100
0000
0000
0002
0000
0000
0000
0000
0000
1003
0000
0001
0000
0010
0000
,  // measure 58
0210
0000
0000
0000
1300
0000
0001
0000
0200
0000
0000
0310
1000
0000
1000
0000
,  // measure 59
0001
0000
0010
0000
0100
0000
1000
0001
0100
0000
0010
0000
1000
0000
0001
0000
,  // measure 60
0010
0000
0100
0010
0001
0000
1000
0000
0010
0000
0100
0000
0001
0010
0100
1000
,  // measure 61
0001
0100
0010
0100
0001
1000
0100
0010
,  // measure 62
0011
0000
1000
0001
0100
0000
0010
0000
0100
0000
0000
0001
0100
0000
0000
0000
,  // measure 63
1010
0000
1000
0000
0001
0000
0010
0100
1000
0000
0001
0100
0010
0200
0000
0300
,  // measure 64
0101
0000
1000
0001
0010
0000
0100
0000
1000
0000
0000
0001
0100
0000
0000
0000
,  // measure 65
1001
0000
1000
0000
0100
0000
0001
0100
0010
0000
0001
1000
0010
0200
0000
0300
,  // measure 66
0101
0000
1000
0001
0010
0000
0100
0000
0010
0000
0000
0001
1000
0000
0000
0000
,  // measure 67
0101
0000
0100
0000
0010
0000
0001
0010
0100
0000
0001
1000
0100
0020
0000
0030
,  // measure 68
0011
0000
1000
0001
0100
0000
0010
0000
1000
0000
0000
0001
0010
0000
0000
0000
,  // measure 69
0101
0000
0100
0000
0010
0000
0001
0010
0100
0000
0001
1000
0100
0020
0000
0000
,  // measure 70
0030
0000
0000
0000
;
