#TITLE:Glitch Nerds;
#SUBTITLE:;
#ARTIST:かめりあ;
#TITLETRANSLIT:;
#SUBTITLETRANSLIT:;
#ARTISTTRANSLIT:Camellia;
#CREDIT:;
#BANNER:;
#BACKGROUND:;
#LYRICSPATH:;
#CDTITLE:;
#MUSIC:Glitch Nerds.mp3;
#OFFSET:-3.900;
#SAMPLESTART:17.620;
#SAMPLELENGTH:13.710;
#SELECTABLE:YES;
#BPMS:0.000=140.000;
#STOPS:133.000=3.429
;
#BGCHANGES:;

//---------------dance-single - ----------------
#NOTES:
     dance-single:
     :
     Hard:
     9:
     0.681,0.670,0.600,0.146,0.450: // measure 1
0001
0000
0100
0000
0010
1000
0001
0000
,  // measure 2
1000
0000
0100
0000
0010
0100
0010
0001
,  // measure 3
1000
0000
0001
0000
0100
0010
1000
0100
,  // measure 4
0100
0000
0100
0000
1000
0000
0100
0010
0001
0000
0000
0100
0000
0000
0010
0000
,  // measure 5
1010
0000
0000
0000
0001
1000
0000
0001
1000
0000
0000
0000
0110
0000
0000
0000
,  // measure 6
0011
0000
0000
0000
1000
0010
0000
0100
0001
0000
0000
0000
1100
0000
0000
0001
,  // measure 7
1000
0100
0001
0100
0010
0001
0100
0010
,  // measure 8
1000
0001
1000
0001
0100
0001
0100
0010
0200
0000
0000
0000
0300
0000
0000
0000
,  // measure 9
1001
0000
0000
0000
1000
0000
0100
0000
0010
0001
0000
1000
0010
0000
0100
0000
,  // measure 10
0001
1000
0001
1000
0001
0000
1000
0000
0100
0000
0010
0000
0011
0000
0000
0000
,  // measure 11
1001
0000
0000
0000
0000
0000
0001
0000
0000
0100
0000
0000
0001
0000
1000
0000
0100
0000
2000
0000
0000
0000
0000
0000
,  // measure 12
3200
0000
0000
0000
0302
0000
0000
0000
0203
0000
0000
2300
0000
0000
3001
0000
,  // measure 13
0101
0000
0000
0000
0010
0000
1000
0000
0100
0010
0000
0010
0001
0000
1000
0000
,  // measure 14
0001
0100
0001
1000
0010
0000
1000
0000
1000
0000
0100
0000
0110
0000
0000
0000
,  // measure 15
1001
0000
0000
0101
0000
0000
0001
1000
0010
0100
0000
0000
,  // measure 16
2002
0000
0000
3003
,  // measure 17
1001
0000
0000
0000
1100
0000
0000
0000
0101
0000
0000
0001
0100
0000
0010
0000
,  // measure 18
1000
0000
0100
0000
1100
0000
0000
0000
1001
0000
0000
0001
0010
0000
0001
0000
,  // measure 19
0101
0000
0000
0000
1001
0000
0000
0000
1100
0000
0000
0010
0001
0000
0001
0000
,  // measure 20
0100
0000
0010
0000
1010
0000
0000
0000
1001
0000
0000
0001
0100
0000
0001
0000
,  // measure 21
0011
0000
0000
0000
1100
0000
0000
0000
1001
0000
0000
0001
0100
0000
0010
0000
,  // measure 22
1000
0000
0100
0000
1100
0000
0000
0000
1001
0000
0000
1000
0100
0000
0010
0000
,  // measure 23
0001
0100
0001
1000
0100
1000
0010
0100
,  // measure 24
0001
0100
0001
0100
0010
1000
0010
1000
0200
0000
0000
0000
0300
0000
0000
0000
,  // measure 25
1001
0000
0010
0100
1002
0000
0103
0000
,  // measure 26
0001
0100
0001
0100
0001
0000
1000
0100
1000
0000
0001
0100
0001
0000
1000
0000
,  // measure 27
1100
0000
0000
0000
1001
0000
0000
0000
0101
0000
0000
0001
0100
0000
0010
0000
,  // measure 28
1010
0000
1000
0000
1001
0000
0000
0000
0011
0000
0000
1000
0100
0000
0010
0000
,  // measure 29
1001
0000
0000
0000
0001
0000
0100
0000
1010
0000
0000
2000
3001
0000
0000
0000
,  // measure 30
1000
0100
1000
0001
0100
0000
0010
0100
0001
0000
0001
1000
0000
0000
0110
0000
,  // measure 31
1001
0000
0000
0000
1100
0000
0000
0000
1001
0000
0000
0001
0100
0000
0001
0000
,  // measure 32
0101
0000
0100
0000
1010
0000
0000
0000
1100
0000
0000
1001
0000
0000
0011
0000
,  // measure 33
2001
0000
0001
0000
0000
0000
0010
0000
3020
0000
0000
1000
0000
0000
0100
0000
,  // measure 34
0200
0000
0000
0000
0000
0000
0000
0000
0000
0330
0000
0000
0000
0000
0000
0000
0010
0000
0000
0000
1000
0000
0001
0000
0000
0000
1000
0000
0001
0000
0000
0000
,  // measure 35
1000
0100
0010
0100
0001
0100
1000
0000
,  // measure 36
0001
0100
1000
0100
0010
0100
0001
1000
,  // measure 37
0100
0010
0100
0010
0001
1000
0001
0100
,  // measure 38
0100
0000
0100
0000
0010
0000
1000
0100
0010
0000
0000
1001
0000
0000
0100
0000
,  // measure 39
1100
0000
0000
0000
1000
0001
0000
0001
0100
0000
0000
0000
0110
0000
0000
0000
,  // measure 40
1001
0000
0000
0000
1000
0100
0000
0100
1000
0000
0000
0000
0011
0000
0000
0001
,  // measure 41
0100
0000
0010
0000
1000
0000
0100
0000
0010
0000
0100
0000
1000
0001
1000
0001
,  // measure 42
0200
0000
0300
0110
,  // measure 43
1001
0000
0001
0000
0100
0000
0001
1000
0000
0000
1000
0000
0100
0000
0010
0001
,  // measure 44
0000
0000
0001
0000
0100
0000
0010
1000
0000
0001
0100
0000
0001
1000
0000
1000
,  // measure 45
0100
0000
0010
0000
0001
0000
1000
0001
0000
1000
0001
0000
0100
0000
0010
1000
,  // measure 46
0000
0010
1000
0000
0001
0000
1000
0100
0000
0010
0001
0000
1000
0010
0000
0100
,  // measure 47
0001
1000
0001
0000
1000
0000
0001
0100
0000
0010
0100
0000
0001
0000
1000
0100
,  // measure 48
0000
0010
0100
0000
0010
0000
0001
1000
0000
0001
0100
0000
0010
1000
0000
0001
,  // measure 49
1000
0000
0000
0100
0000
0000
0010
0000
0000
0000
0000
0000
0001
0000
0000
0100
0000
0000
0010
0000
0000
0000
0000
0000
1000
0000
0000
0001
0000
0000
0100
0000
0000
0000
0000
0000
0010
0000
0000
0000
0100
0000
0000
0000
0010
0000
0000
0000
,  // measure 50
0100
0000
0010
0000
1000
0000
0001
1000
0000
0001
1000
0000
0001
0100
0010
1000
,  // measure 51
0100
1000
0010
0100
0001
0100
1000
0001
,  // measure 52
0010
0100
0001
0010
0100
0010
0001
1000
,  // measure 53
0100
0010
0100
1000
0001
0100
0010
0100
,  // measure 54
0001
0100
0001
0000
1000
0100
1000
0000
0001
0100
0010
0000
1000
0100
0010
0001
,  // measure 55
0100
0010
0100
0001
0010
0100
0001
0100
,  // measure 56
1000
0010
0100
1000
0001
0010
0100
0001
,  // measure 57
0010
0100
0001
0100
1000
0100
0010
0100
,  // measure 58
2000
0000
0000
0000
0000
0000
0001
3001
,  // measure 59
1001
0000
0000
0000
1100
0000
0010
0000
0001
0100
0000
0010
1000
0000
0001
0000
,  // measure 60
1000
0100
1000
0001
0100
0000
0001
1000
0000
0010
0100
0000
1010
0000
0101
0000
,  // measure 61
1001
0000
0000
0000
0000
0000
1100
0000
0000
0100
0000
0000
0010
0000
0001
0000
0100
0000
0001
0000
0000
1100
0000
0000
,  // measure 62
1000
0000
0100
0000
0001
0000
0100
0000
1100
0000
0000
1010
0000
0000
0101
0000
,  // measure 63
0011
0000
0000
0000
1100
0000
0010
0000
0001
0100
0000
0010
1000
0000
0001
0000
,  // measure 64
0010
0001
0010
0100
0010
0000
0001
0100
0010
0000
1000
0000
0101
0000
0110
0000
,  // measure 65
1001
0000
0000
0000
0110
0000
0000
0000
0101
0000
0000
0110
0000
0000
1001
0000
,  // measure 66
2002
0000
0000
0000
,  // measure 67
0000
3003
0000
0000
0000
0000
0000
0000
;

//---------------dance-single - ----------------
#NOTES:
     dance-single:
     :
     Medium:
     7:
     0.495,0.482,0.454,0.162,0.085: // measure 1
1000
0000
0100
0000
1000
0001
0100
0000
,  // measure 2
0001
0000
1000
0000
0001
0010
0100
0000
,  // measure 3
0010
0000
0001
0000
0100
0010
1000
0001
,  // measure 4
0100
0000
0000
0000
0001
0000
0000
0000
0100
0000
0000
0010
0000
0000
0100
0000
,  // measure 5
0110
1010
1100
1001
,  // measure 6
0011
0101
0110
1001
,  // measure 7
0001
0100
0010
1000
0100
0010
0001
1000
,  // measure 8
0001
1000
0001
1000
2002
0000
3003
0000
,  // measure 9
1001
0000
0001
0100
0010
0000
1010
0000
,  // measure 10
1000
0100
0010
0001
0100
0000
0101
0000
,  // measure 11
0001
0000
1000
0100
0010
0000
0100
0000
,  // measure 12
0020
0000
0000
0000
0032
0000
0000
0000
2003
0000
0000
0001
0000
0000
3001
0000
,  // measure 13
1001
0000
0001
0100
0010
0000
0101
0000
,  // measure 14
0010
1000
0001
1000
0100
0000
0011
0000
,  // measure 15
1001
0000
0000
0110
0000
0000
1000
0001
1000
0001
0000
0000
,  // measure 16
2002
0000
0000
3003
,  // measure 17
1001
0000
0000
0000
0101
0000
0000
0000
0010
0000
0000
1000
0100
0000
0010
0000
,  // measure 18
0001
0000
1000
0000
0001
0000
0000
0000
0100
0000
0000
0001
0100
0000
0010
0000
,  // measure 19
1000
0000
0000
0000
0001
0000
0000
0000
1000
0000
0000
0100
1000
0000
0001
0000
,  // measure 20
0100
0000
0001
0000
0010
0000
0000
0000
0001
0000
0000
1000
0100
0000
1000
0000
,  // measure 21
1001
0000
0000
0000
0101
0000
0000
0000
0010
0000
0000
0010
1000
0000
0001
0000
,  // measure 22
1000
0000
0100
0000
0010
0000
0000
0000
0100
0000
0000
0001
1000
0000
0010
0000
,  // measure 23
0100
0000
0010
1000
0001
0000
1000
0100
,  // measure 24
1000
0001
1000
0001
0220
0000
0330
0000
,  // measure 25
1001
0000
0001
0100
0110
0000
0010
0000
,  // measure 26
1000
0100
1000
0100
1100
0000
1000
0000
,  // measure 27
0101
0000
0000
0000
0101
0000
0000
0000
0001
0000
0000
0100
0000
0000
0001
0000
,  // measure 28
1000
0100
1000
0000
1100
0000
1001
0000
,  // measure 29
0101
0000
0010
1000
1010
0000
1000
0000
,  // measure 30
0001
0010
0001
0010
0011
0000
0001
0000
,  // measure 31
1100
0000
0000
0000
1100
0000
0000
0000
1000
0000
0000
0100
0000
0000
1000
0000
,  // measure 32
0001
0000
0100
0000
0001
0000
0000
0000
1000
0000
0000
0100
0000
0000
1000
0000
,  // measure 33
0002
0000
2003
0000
,  // measure 34
0002
0000
0000
0000
0000
0000
0000
0000
0000
3003
0000
0000
0000
0000
0000
0000
0000
0000
0000
0000
0000
0000
0000
0000
0000
0000
0000
0000
0000
0000
0000
0000
,  // measure 35
1000
0010
0100
0001
,  // measure 36
0010
0000
0100
0000
0010
0001
1000
0001
,  // measure 37
0100
0000
0010
0000
1000
0000
0001
1000
,  // measure 38
0010
0000
0100
0000
0010
0000
0000
0000
0100
0000
0000
0001
0000
0000
1000
0000
,  // measure 39
1001
0000
0001
0100
0001
0000
1001
0000
,  // measure 40
1100
0000
1000
0001
1000
0000
0101
0000
,  // measure 41
0001
0010
0100
0010
0001
1000
0100
0010
,  // measure 42
0200
0000
0300
0110
,  // measure 43
1000
0001
0100
0000
0010
1000
0001
0000
,  // measure 44
1000
0100
0010
0001
0100
0010
1000
0100
,  // measure 45
1000
0001
0100
0000
0001
0010
0100
0000
,  // measure 46
0010
0000
0001
0000
1000
0000
0100
0000
0010
0000
0000
0011
0000
0000
0001
0000
,  // measure 47
1000
0010
0100
0000
0001
1000
0100
0000
,  // measure 48
0010
0001
0100
0001
1000
0010
0100
0001
,  // measure 49
1000
0000
0000
0100
0000
0000
0100
0000
0000
0010
0000
0000
0010
0000
0000
0100
0000
0000
0010
0000
0100
0000
0010
0000
,  // measure 50
0200
0000
0000
0310
,  // measure 51
1002
0000
0100
0000
0010
0000
0103
0001
,  // measure 52
0100
0010
1000
0000
0100
0010
0001
1000
,  // measure 53
0010
0000
1000
0010
0100
0000
0001
0000
,  // measure 54
1000
0000
0100
0000
0010
0000
0100
0000
1000
0000
0000
1000
0000
0000
0010
0000
,  // measure 55
0200
1000
0010
0301
,  // measure 56
0100
0001
0100
0000
0010
1000
0001
0010
,  // measure 57
0100
0000
0010
0001
0100
0000
0011
0000
,  // measure 58
2002
0000
0000
3003
,  // measure 59
1001
0000
1000
0100
0010
0000
1001
0000
,  // measure 60
0001
0000
0100
0000
0010
0000
0000
1000
0000
0000
0010
0000
0100
0000
0001
0000
,  // measure 61
0010
0000
0001
1000
0100
0000
0011
0000
,  // measure 62
0101
0000
0000
0000
1010
0000
0000
0000
1100
0000
0000
0110
0000
0000
0011
0000
,  // measure 63
1001
0000
1000
0010
0100
0000
0101
0000
,  // measure 64
0001
0100
0010
1000
0200
0010
0310
0000
,  // measure 65
0011
0000
0000
0000
1100
0000
0000
0000
1000
0000
0000
0001
0000
0000
1000
0000
,  // measure 66
0200
0000
0000
0000
,  // measure 67
0000
0300
0000
0000
0000
0000
0000
0000
;

//---------------dance-single - ----------------
#NOTES:
     dance-single:
     :
     Easy:
     4:
     0.334,0.429,0.268,0.178,0.000: // measure 1
1001
0000
0001
0000
,  // measure 2
0100
0010
1000
0100
,  // measure 3
0010
0000
0100
0010
,  // measure 4
0001
0000
1000
0001
,  // measure 5
1001
1001
0001
0100
,  // measure 6
0110
0110
0010
1000
,  // measure 7
1001
1001
0110
0110
,  // measure 8
1000
0001
1000
0001
2000
0000
3000
0000
,  // measure 9
1001
0001
0100
0010
,  // measure 10
1000
0001
1000
0000
0001
0000
0010
0000
,  // measure 11
0100
0010
0001
0100
,  // measure 12
0020
2030
0002
3003
,  // measure 13
1001
0001
0100
0010
,  // measure 14
0100
0010
0100
0000
0010
0000
1000
0000
,  // measure 15
1001
1001
0001
0010
,  // measure 16
0220
0000
0000
0330
,  // measure 17
0001
0100
0001
2000
,  // measure 18
3000
0001
0010
0100
,  // measure 19
0010
0001
0100
0020
,  // measure 20
0030
0100
0010
1000
,  // measure 21
1001
0001
0010
0200
,  // measure 22
0300
0010
0001
1000
,  // measure 23
0120
0000
0032
0000
,  // measure 24
2000
0000
0000
3003
,  // measure 25
1001
0000
0110
0000
,  // measure 26
0010
1000
0001
0000
,  // measure 27
1000
1000
0001
0001
,  // measure 28
0100
0010
1000
0001
,  // measure 29
1001
0000
0110
0000
,  // measure 30
0001
1000
0001
0000
,  // measure 31
0010
0001
1000
0100
,  // measure 32
0010
0100
1000
0001
,  // measure 33
0100
0000
0010
0000
,  // measure 34
2002
0000
0000
0000
0000
0000
0000
0000
0000
3003
0000
0000
0000
0000
0000
0000
0000
0000
0000
0000
0000
0000
0000
0000
0000
0000
0000
0000
0000
0000
0000
0000
,  // measure 35
1000
0000
0001
0000
,  // measure 36
0100
0010
0100
0001
,  // measure 37
1000
0000
0001
1000
,  // measure 38
0100
0100
0010
0001
,  // measure 39
1001
1001
0001
0100
,  // measure 40
0110
0110
0010
1000
,  // measure 41
1001
0000
0110
0000
1000
0001
1000
0001
,  // measure 42
2000
0000
0000
3000
,  // measure 43
0001
0100
0001
1000
,  // measure 44
0100
0010
0100
0010
,  // measure 45
0001
1000
0001
0100
,  // measure 46
0010
0000
1000
0000
0100
0000
0010
0100
,  // measure 47
0010
0100
0010
0001
,  // measure 48
1000
0001
0100
0010
,  // measure 49
1000
0001
0100
0010
,  // measure 50
2002
0000
0000
3003
,  // measure 51
1000
0000
0100
0000
1000
0000
0001
0100
,  // measure 52
0001
0100
0010
1000
,  // measure 53
0100
1000
0001
0010
,  // measure 54
0100
0000
0010
0000
0001
0000
1000
0100
,  // measure 55
1000
0000
0001
0000
0100
0000
0010
0100
,  // measure 56
0010
0100
0001
1000
,  // measure 57
0100
0010
0001
1000
,  // measure 58
2002
0000
0000
3003
,  // measure 59
0110
1000
0001
1000
,  // measure 60
0001
1000
0001
0000
1000
0000
0100
0000
,  // measure 61
0010
0000
0100
0000
0010
0100
0010
0000
,  // measure 62
0100
0010
0001
1000
,  // measure 63
0001
0000
0100
0000
0010
0100
0010
0000
,  // measure 64
0100
0010
1000
0001
,  // measure 65
1001
0110
2002
3003
,  // measure 66
0200
0000
0000
0000
,  // measure 67
0000
0300
0000
0000
0000
0000
0000
0000
;

//---------------dance-single - ----------------
#NOTES:
     dance-single:
     :
     Beginner:
     2:
     0.164,0.211,0.105,0.016,0.000: // measure 1
1001
0000
0000
0000
,  // measure 2
0001
0000
0000
0000
,  // measure 3
0100
0000
0000
0000
,  // measure 4
0001
0000
0000
0000
,  // measure 5
1000
0000
0000
0000
,  // measure 6
0001
0000
0000
0000
,  // measure 7
1000
0000
0001
0000
,  // measure 8
0100
0100
0100
0000
,  // measure 9
1001
0000
0001
0000
,  // measure 10
0100
0000
0010
0010
,  // measure 11
0010
0000
0100
0000
,  // measure 12
0010
0000
1000
1000
,  // measure 13
1000
0000
0001
0000
,  // measure 14
1000
0000
0100
0100
,  // measure 15
0100
0000
0010
0000
,  // measure 16
2002
0000
3003
0000
,  // measure 17
1001
0000
0000
0000
,  // measure 18
0001
0000
0100
0000
,  // measure 19
0010
0000
1000
0000
,  // measure 20
0001
0000
1000
0000
,  // measure 21
1001
0000
0000
0000
,  // measure 22
0001
0000
0010
0000
,  // measure 23
0100
0000
0010
0000
,  // measure 24
0001
0000
0000
0000
,  // measure 25
1001
0000
0110
0000
,  // measure 26
0010
0000
0001
0000
,  // measure 27
1000
0000
0001
0000
,  // measure 28
0100
0000
0010
0000
,  // measure 29
0110
0000
1001
0000
,  // measure 30
1000
0000
0001
0000
,  // measure 31
1000
0000
0100
0000
,  // measure 32
0010
0000
0001
0000
,  // measure 33
0100
0000
0010
0000
,  // measure 34
1001
0000
0000
0000
,  // measure 35
1000
0000
0000
0000
,  // measure 36
0100
0000
0000
0000
,  // measure 37
0010
0000
0000
0000
,  // measure 38
0001
0000
0000
0000
,  // measure 39
1000
0000
1000
0000
,  // measure 40
0001
0000
0001
0000
,  // measure 41
0100
0000
0010
0000
,  // measure 42
0110
0000
0000
0000
,  // measure 43
0001
0000
1000
0000
,  // measure 44
0100
0000
0010
0010
,  // measure 45
0010
0000
0100
0000
,  // measure 46
0010
0000
1000
1000
,  // measure 47
1000
0000
0001
0000
,  // measure 48
0100
0000
0010
0010
,  // measure 49
0010
0000
1000
0000
,  // measure 50
1001
0000
0000
0000
,  // measure 51
0001
0000
0010
0000
,  // measure 52
0100
0000
0010
0000
,  // measure 53
0001
0000
1000
0000
,  // measure 54
0010
0000
0100
0000
,  // measure 55
0001
0000
1000
0000
,  // measure 56
0100
0000
1000
0000
,  // measure 57
0001
0001
0001
0001
,  // measure 58
0001
0000
0000
0000
,  // measure 59
1001
0000
1000
0000
,  // measure 60
0001
0000
0100
0100
,  // measure 61
0100
0000
0010
0000
,  // measure 62
1000
0000
0001
0001
,  // measure 63
0001
0000
1000
0000
,  // measure 64
0001
0000
0100
0100
,  // measure 65
0100
0100
0010
0010
,  // measure 66
0100
0000
0000
0000
;

//---------------dance-double - ----------------
#NOTES:
     dance-double:
     :
     Hard:
     1:
     0.000,0.000,0.000,0.000,0.000:
00000000
00000000
00000000
00000000
;

//---------------dance-double - ----------------
#NOTES:
     dance-double:
     :
     Medium:
     1:
     0.000,0.000,0.000,0.000,0.000:
00000000
00000000
00000000
00000000
;

//---------------dance-double - ----------------
#NOTES:
     dance-double:
     :
     Easy:
     1:
     0.000,0.000,0.000,0.000,0.000:
00000000
00000000
00000000
00000000
;
