#VERSION:0.83;
#TITLE:Try 2 Luv. U;
#SUBTITLE:-SF Electro House Mix-;
#ARTIST:Sota Fujimori;
#TITLETRANSLIT:;
#SUBTITLETRANSLIT:;
#ARTISTTRANSLIT:;
#GENRE:ELECTRO HOUSE;
#ORIGIN:;
#CREDIT:;
#BANNER:;
#BACKGROUND:;
#PREVIEWVID:;
#JACKET:;
#CDIMAGE:;
#DISCIMAGE:;
#LYRICSPATH:;
#CDTITLE:;
#MUSIC:[Round 3] - Try 2 Luv U -SF Electro House Mix-.ogg;
#OFFSET:0.000000;
#SAMPLESTART:50.695000;
#SAMPLELENGTH:14.800000;
#SELECTABLE:YES;
#BPMS:0.000=132.000;
#STOPS:;
#DELAYS:;
#WARPS:;
#TIMESIGNATURES:0.000=4=4;
#TICKCOUNTS:0.000=4;
#COMBOS:0.000=1;
#SPEEDS:0.000=1.000=0.000=0;
#SCROLLS:0.000=1.000;
#FAKES:;
#LABELS:0.000=Song Start;
#BGCHANGES:;
#KEYSOUNDS:;
#ATTACKS:
;

//---------------dance-single - ----------------
#NOTEDATA:;
#CHARTNAME:;
#STEPSTYPE:dance-single;
#DESCRIPTION:;
#CHARTSTYLE:;
#DIFFICULTY:Hard;
#METER:7;
#RADARVALUES:0.416075,0.458784,0.182551,0.356805,0.153509,351.000000,329.000000,22.000000,43.000000,0.000000,0.000000,0.000000,0.000000,0.000000,0.416075,0.458784,0.182551,0.356805,0.153509,351.000000,329.000000,22.000000,43.000000,0.000000,0.000000,0.000000,0.000000,0.000000;
#CREDIT:DDRDAIKENKAI;
#NOTES:
// measure 0
0000
0000
0000
0000
,  // measure 1
0000
0000
0000
0000
,  // measure 2
0000
0000
0000
0000
,  // measure 3
0000
0000
0000
0000
0001
1000
0010
0200
,  // measure 4
0301
0001
1000
0001
0000
0001
1000
0200
,  // measure 5
0000
0000
0010
0000
1300
1000
2000
0000
,  // measure 6
3010
0100
0010
1000
,  // measure 7
0100
0000
0000
0010
0000
0000
0002
0000
0000
0000
0000
0000
0003
0000
1000
0100
,  // measure 8
1000
1000
0001
0010
0000
0010
0001
0200
,  // measure 9
0000
0000
0320
0000
1030
1000
0010
0100
,  // measure 10
0001
0000
2000
0000
3200
0300
0020
0030
,  // measure 11
0001
0000
1000
0001
0100
0000
0110
0000
,  // measure 12
1001
1000
0100
1000
,  // measure 13
0001
0100
0001
1000
,  // measure 14
0010
0100
0010
0000
1000
0100
1000
0000
,  // measure 15
0002
0000
2003
0000
3001
1000
1001
0000
,  // measure 16
0001
0100
1000
0000
0001
0010
1000
0000
,  // measure 17
0001
0010
0100
1000
1010
0000
0011
0000
,  // measure 18
0100
0001
0100
0000
0010
1000
0010
0000
,  // measure 19
0100
0001
0010
0100
1000
0000
0011
0000
,  // measure 20
1000
0001
1100
0101
,  // measure 21
1000
0001
1010
0011
,  // measure 22
1000
0100
1000
0000
0010
0100
0010
0000
,  // measure 23
1000
0000
0000
0001
0000
0000
0100
0000
0000
0010
0000
0000
1000
0000
0001
0000
1000
0000
0001
0000
0000
0000
0000
0000
,  // measure 24
1002
0100
0000
1000
,  // measure 25
0000
0010
0000
1000
,  // measure 26
0103
0001
0010
0100
1000
0010
0001
0000
,  // measure 27
0001
0010
1000
0100
0010
0001
0200
0000
,  // measure 28
0310
1000
0001
0100
0010
1000
0100
0000
,  // measure 29
0020
0000
0031
1000
0200
0000
1300
0000
,  // measure 30
0001
0010
0001
0000
1000
0100
1000
0000
,  // measure 31
0001
0100
0001
1000
0010
0000
0110
0000
,  // measure 32
1000
0010
0101
1100
,  // measure 33
0002
0000
0013
0100
2000
0000
3010
0000
,  // measure 34
0001
0010
1000
0000
0001
0100
1000
0000
,  // measure 35
0100
0001
0100
0001
1000
0100
0110
0000
,  // measure 36
1001
0000
0000
0000
0000
1000
0000
0100
0000
0000
0000
0000
0000
1000
0000
0002
,  // measure 37
0000
0000
0103
0000
0000
0010
0000
1000
0000
0000
0000
0000
0000
0010
0000
0000
,  // measure 38
0100
0000
0000
0000
0000
0010
0000
1000
0000
0000
0000
0000
0000
0001
0000
0020
,  // measure 39
0000
0000
0031
0000
0000
1000
0000
0100
0000
0000
0001
0000
0000
0100
0000
0000
,  // measure 40
1000
0000
0000
0000
0000
0001
0000
0010
0000
0000
0000
0000
0000
0001
0000
2000
,  // measure 41
0000
0000
3010
0000
0000
0001
0000
0010
0000
0000
0010
0000
0100
0000
0001
0000
,  // measure 42
1000
0000
0000
0000
0000
0100
0000
0010
0000
0000
0000
0000
0000
0100
0000
2000
,  // measure 43
0000
0000
3001
0000
0000
0010
0000
0010
0100
0000
1000
0000
0010
0000
1000
0000
,  // measure 44
0200
0010
1000
0001
,  // measure 45
1000
0000
0000
0000
0000
0000
1300
0020
0000
0000
0000
0000
0130
0000
0000
0000
,  // measure 46
0010
0002
0023
2030
,  // measure 47
3200
0000
1300
0002
0000
0013
1000
0010
,  // measure 48
0002
1000
0010
0100
,  // measure 49
1000
0000
0000
0000
1003
0000
0100
2000
0000
0000
0000
0000
3010
0000
0000
0000
,  // measure 50
0200
0320
0032
0203
,  // measure 51
2300
0000
3010
1000
0200
0000
0310
0000
,  // measure 52
2002
0000
0000
0000
0000
0000
3003
2000
,  // measure 53
0000
3001
0100
0010
1000
0100
0010
0000
,  // measure 54
0002
0000
1003
0100
2000
0000
3001
0000
,  // measure 55
0100
0010
0100
0000
0010
1000
0010
0000
,  // measure 56
0100
0001
1000
0100
1000
0000
1100
0000
,  // measure 57
0010
0001
1100
0101
,  // measure 58
0020
0000
1030
0001
0200
0000
0301
0000
,  // measure 59
1000
0100
0001
0000
1000
0010
0001
0000
,  // measure 60
1000
0001
0100
0010
1000
0001
0011
0000
,  // measure 61
1001
0001
0100
0001
1000
0010
0000
0100
,  // measure 62
0000
0000
0010
0000
0000
0000
0100
0000
0000
0000
1000
0000
0000
0000
0100
0001
,  // measure 63
0000
0000
0010
0000
0001
0000
1000
0000
0100
0000
0100
0010
0000
0000
0100
0000
,  // measure 64
0010
0000
0001
0000
0010
0000
0001
0000
0000
0100
0000
0000
0010
0000
0000
1000
0000
0000
0100
0000
0000
0000
0000
0000
,  // measure 65
1000
0000
0000
0001
0000
0000
0000
0000
0000
0000
0000
0000
0000
0000
0000
0000
0000
0000
0000
0000
0000
0000
0000
0000
0000
0000
0000
0000
0000
0000
0000
0000
0000
0000
0000
0000
0000
0000
0000
0000
0000
0000
0000
0000
0000
0000
0000
0000
0000
0000
0000
0000
0000
0000
0000
0000
0000
0000
0000
0000
0000
0000
0000
0000
;

//---------------dance-single - ----------------
#NOTEDATA:;
#CHARTNAME:;
#STEPSTYPE:dance-single;
#DESCRIPTION:;
#CHARTSTYLE:;
#DIFFICULTY:Medium;
#METER:5;
#RADARVALUES:0.325985,0.377549,0.091276,0.340209,0.000000,275.000000,264.000000,11.000000,41.000000,0.000000,0.000000,0.000000,0.000000,0.000000,0.325985,0.377549,0.091276,0.340209,0.000000,275.000000,264.000000,11.000000,41.000000,0.000000,0.000000,0.000000,0.000000,0.000000;
#CREDIT:DDRDAIKENKAI;
#NOTES:
// measure 0
0000
0000
0000
0000
,  // measure 1
0000
0000
0000
0000
,  // measure 2
0000
0000
0000
0000
,  // measure 3
0000
0000
0000
0000
,  // measure 4
0001
0010
0100
0000
1000
0000
0001
0000
,  // measure 5
0100
0000
0010
0000
1000
0100
1000
0000
,  // measure 6
0010
0001
0010
1000
,  // measure 7
0001
0000
0001
0020
0000
0000
0130
0000
,  // measure 8
0010
0010
0001
0000
1000
1000
0010
0000
,  // measure 9
0200
0000
0310
0000
1000
1000
0002
0000
,  // measure 10
0013
0100
0010
0001
,  // measure 11
2000
0000
3010
0100
0010
0000
0110
0000
,  // measure 12
1002
1000
0100
0100
,  // measure 13
0010
0000
0010
0000
0100
0000
0100
0003
,  // measure 14
2000
0001
0010
0010
,  // measure 15
0100
0100
0001
3001
,  // measure 16
1000
0001
0100
0000
0001
1000
0100
0000
,  // measure 17
0010
0001
0100
0100
,  // measure 18
1000
0100
0001
0000
1000
0010
0001
0000
,  // measure 19
0010
1000
0100
0110
,  // measure 20
0010
0001
0101
1100
,  // measure 21
1000
0010
1010
0011
,  // measure 22
0001
1000
0001
0000
0100
0010
0100
0000
,  // measure 23
0010
1000
0100
0000
0010
0010
0010
0000
,  // measure 24
0120
0100
0000
1000
,  // measure 25
0000
0100
0000
1030
,  // measure 26
1000
0000
0100
0000
1000
0001
0100
0000
,  // measure 27
0010
0000
0100
0000
0001
1000
0200
0000
,  // measure 28
0310
0000
0010
0000
0001
0100
0001
0000
,  // measure 29
0010
0000
0100
1000
0200
0000
1300
0000
,  // measure 30
0010
0100
0010
0000
1000
0100
1000
0000
,  // measure 31
0001
0010
0100
2000
0000
0001
3001
0000
,  // measure 32
0001
1000
0100
0100
,  // measure 33
0010
0000
0001
1000
0020
0000
0130
0000
,  // measure 34
0010
1000
0010
0000
0100
0001
0100
0000
,  // measure 35
0001
0000
1000
0000
0100
0100
0100
0000
,  // measure 36
0210
0000
2300
0000
,  // measure 37
3001
0000
0010
0000
0100
0000
1000
0001
,  // measure 38
2000
0000
3002
0000
,  // measure 39
0103
0000
0010
0000
1000
0000
0010
0100
,  // measure 40
0020
0000
2030
0000
,  // measure 41
3100
0000
0010
0000
0100
0000
1000
0001
,  // measure 42
2000
0000
3020
0000
,  // measure 43
0130
0000
0010
0000
1000
0100
0010
0000
,  // measure 44
0002
1000
0010
0100
,  // measure 45
2003
0001
0200
3300
,  // measure 46
0010
0002
0203
0320
,  // measure 47
2030
0000
3001
0010
0000
0010
0001
0000
,  // measure 48
2000
0001
0010
0100
,  // measure 49
3002
1000
0200
0303
,  // measure 50
0020
1030
0200
0310
,  // measure 51
0100
0000
1000
0001
2000
0000
3001
0000
,  // measure 52
2002
0000
0000
3003
,  // measure 53
0001
1000
0100
0000
0010
0000
0100
0000
,  // measure 54
1000
0000
0001
1000
0020
0000
0130
0000
,  // measure 55
0001
0010
0001
0000
1000
0100
1000
0000
,  // measure 56
0010
0100
0001
0002
,  // measure 57
1003
0100
1000
0000
0001
0000
0010
0000
,  // measure 58
0200
0000
1300
0001
0200
0000
0310
0000
,  // measure 59
1000
0010
1000
0000
0001
0100
0001
0000
,  // measure 60
1000
0100
0010
0000
0002
0000
1003
0000
,  // measure 61
1002
0000
1000
0000
,  // measure 62
0100
0000
0013
0000
,  // measure 63
0200
0000
0001
0000
,  // measure 64
0310
0001
0100
1000
,  // measure 65
0100
0000
0000
0000
;

//---------------dance-single - ----------------
#NOTEDATA:;
#CHARTNAME:;
#STEPSTYPE:dance-single;
#DESCRIPTION:;
#CHARTSTYLE:;
#DIFFICULTY:Easy;
#METER:3;
#RADARVALUES:0.202703,0.269678,0.082978,0.174254,0.000000,171.000000,161.000000,10.000000,21.000000,0.000000,0.000000,0.000000,0.000000,0.000000,0.202703,0.269678,0.082978,0.174254,0.000000,171.000000,161.000000,10.000000,21.000000,0.000000,0.000000,0.000000,0.000000,0.000000;
#CREDIT:DDRDAIKENKAI;
#NOTES:
// measure 0
0000
0000
0000
0000
,  // measure 1
0000
0000
0000
0000
,  // measure 2
0000
0000
0000
0000
,  // measure 3
0000
0000
0000
0000
,  // measure 4
1000
1000
0000
0000
,  // measure 5
0001
0001
0000
0000
,  // measure 6
1000
0000
0001
0000
,  // measure 7
0100
0010
0100
0000
,  // measure 8
0001
0001
0000
0000
,  // measure 9
0010
0010
0000
0000
,  // measure 10
0100
0000
1000
0000
,  // measure 11
0010
0100
0001
0000
,  // measure 12
1000
1000
1000
0000
,  // measure 13
0001
0001
0001
0000
,  // measure 14
0100
0000
0010
0000
,  // measure 15
0100
0100
0010
0000
,  // measure 16
0100
0001
0001
1000
,  // measure 17
1000
0100
0100
0010
,  // measure 18
0001
0001
1000
1000
,  // measure 19
0010
1000
0001
1001
,  // measure 20
0000
1001
0000
0110
,  // measure 21
0000
0110
0000
1001
,  // measure 22
1000
1000
0001
0001
,  // measure 23
0100
0100
0010
0010
,  // measure 24
0220
0000
0000
0000
,  // measure 25
0000
0000
0330
0000
,  // measure 26
2000
0000
0000
3000
,  // measure 27
0002
0000
0000
0003
,  // measure 28
1000
1000
1000
0000
,  // measure 29
0001
0010
0200
0300
,  // measure 30
0010
0010
0010
0000
,  // measure 31
0001
1000
0010
0000
,  // measure 32
0100
0100
0100
0000
,  // measure 33
0010
1000
0100
0000
,  // measure 34
0001
0001
0001
0000
,  // measure 35
0100
1000
0001
0000
,  // measure 36
1002
0000
0000
0000
,  // measure 37
0203
0000
0000
0000
,  // measure 38
0320
0000
0000
0000
,  // measure 39
2030
0000
0000
0000
,  // measure 40
3200
0000
0000
0000
,  // measure 41
0320
0000
0000
0000
,  // measure 42
0032
0000
0000
0000
,  // measure 43
2000
0000
0000
3003
,  // measure 44
1002
1003
0100
1000
,  // measure 45
0010
0100
0001
1000
,  // measure 46
0001
0010
0001
0100
,  // measure 47
0010
1000
0001
0001
,  // measure 48
1000
0100
1000
0100
,  // measure 49
1000
0010
1000
0010
,  // measure 50
0100
0010
0100
0010
,  // measure 51
0100
0001
2000
3001
,  // measure 52
2002
0000
0000
3003
,  // measure 53
0001
0010
0010
0100
,  // measure 54
0010
0100
0100
1000
,  // measure 55
0010
1000
1000
0100
,  // measure 56
1000
0001
0001
0000
,  // measure 57
0100
0010
0100
0010
,  // measure 58
1000
0001
1000
0001
,  // measure 59
0010
0100
0010
0100
,  // measure 60
1000
0001
1000
1000
,  // measure 61
1002
0000
0000
0000
,  // measure 62
2003
0000
0000
0000
,  // measure 63
3020
0000
0000
0000
,  // measure 64
0230
0000
0000
0000
,  // measure 65
0310
0000
0000
0000
;
