#VERSION:0.81;
#TITLE:Stereo;
#SUBTITLE:(Digital Dog Club Mix);
#ARTIST:Unklejam;
#TITLETRANSLIT:;
#SUBTITLETRANSLIT:;
#ARTISTTRANSLIT:;
#GENRE:;
#ORIGIN:;
#CREDIT:;
#BANNER:Stereo (Digital Dog Club Mix) - Unklejambn.PNG;
#BACKGROUND:Stereo (Digital Dog Club Mix) - Unklejambg.PNG;
#PREVIEWVID:;
#JACKET:Stereo (Digital Dog Club Mix) - Unklejamjacket.PNG;
#CDIMAGE:;
#DISCIMAGE:;
#LYRICSPATH:Stereo (Digital Dog Club Mix) - Unklejam.lrc;
#CDTITLE:encorerebirth.png;
#MUSIC:Stereo (Digital Dog Club Mix) - Unklejam.ogg;
#OFFSET:0.010;
#SAMPLESTART:43.500;
#SAMPLELENGTH:16.267;
#SELECTABLE:YES;
#BPMS:0.000=128.000;
#STOPS:92.000=0.938,
138.000=0.469,
169.000=0.938,
199.000=1.406;
#DELAYS:;
#WARPS:;
#TIMESIGNATURES:0.000=4=4;
#TICKCOUNTS:0.000=4;
#COMBOS:0.000=1;
#SPEEDS:0.000=1.000=0.000=0;
#SCROLLS:0.000=1.000;
#FAKES:;
#LABELS:0.000=Song Start;
#BGCHANGES:;
#KEYSOUNDS:;
#ATTACKS:
;

//---------------dance-single - Spork!----------------
#NOTEDATA:;
#CHARTNAME:Spork! - Heavy;
#STEPSTYPE:dance-single;
#DESCRIPTION:Spork!;
#CHARTSTYLE:;
#DIFFICULTY:Hard;
#METER:8;
#RADARVALUES:0.474,0.456,0.429,0.201,0.144,307.000,49.000,23.000,0.000,0.000,0.000,0.000,0.000,0.474,0.456,0.429,0.201,0.144,307.000,49.000,23.000,0.000,0.000,0.000,0.000,0.000;
#CREDIT:Spork!;
#NOTES:
0000
0000
0000
0000
,
0000
0000
0000
0000
,
0000
0000
0000
0000
,
0000
0000
0000
0000
,
0001
0000
0000
0000
0010
0000
0000
0000
0001
0100
0001
0000
0000
0000
1000
0000
,
0000
0000
0000
0100
0010
0000
0001
0000
0000
0000
2001
0000
0000
0000
3000
0010
,
0100
0000
0000
0000
0001
0000
0000
0000
1000
0100
1000
0000
0000
0000
0001
0000
,
0000
0000
0000
0000
0000
0000
0000
0000
0000
0000
0000
0000
0101
0000
0000
0000
0000
0000
0100
0000
0010
0000
0100
0000
0010
0000
0000
1000
0000
0000
0000
0000
0000
0001
0000
0000
0000
0000
0000
0010
0000
0000
0001
0000
0000
0000
0000
0000
,
2000
0000
0010
0000
0020
3000
0001
0000
,
0200
0030
1000
0000
0002
0300
0010
0010
,
0013
0000
0000
0000
0100
0000
0000
0000
1000
0100
1000
0000
0000
0000
0010
0000
,
0000
0000
0000
0100
0001
0000
1000
0000
0000
0000
0110
0000
0110
0000
0000
0000
,
0002
0000
0100
0000
0200
0003
1000
0000
,
0020
0300
0001
0000
2000
0030
0100
0100
,
3100
0000
0000
0000
0010
0000
0000
0000
0001
0100
0001
0000
0000
0000
0010
0000
,
0000
0100
0000
1000
0000
0110
0110
0002
,
0000
0000
0000
0000
1000
0000
0003
0000
0010
0001
0010
0000
0100
0000
2000
0000
,
0000
0000
0001
0000
3100
0100
1000
0001
,
0100
0000
0010
0001
0010
1000
0000
0010
,
0000
0000
0000
0100
0001
0000
0010
0000
0000
0000
0110
0000
0110
0000
2000
0000
,
0000
0000
0000
0000
0001
0000
0000
0000
3010
1000
0010
0000
0100
0000
0002
0000
,
0000
0000
1000
0000
0103
0100
0001
1000
,
0010
0000
0100
1000
0100
0001
0000
0010
,
0100
0000
1001
0000
1000
0100
0110
0000
,
0100
0010
0001
0100
1000
0000
0100
0010
,
1000
1000
0001
0001
1000
0010
0110
0000
,
0010
0100
0001
0010
0000
0011
0000
0110
,
0000
1001
1001
0000
0001
0100
0110
0000
,
0100
0010
1000
0100
0001
0000
0100
0010
,
0001
0001
1000
1000
0001
0100
0110
0000
,
0000
1010
0000
0101
0000
0011
0000
1100
,
0000
1001
1001
0000
0010
0010
0020
0000
,
0100
0100
0230
0000
0001
0001
0302
0000
,
1000
1000
2003
0000
0010
0000
3001
0010
,
0100
0000
0000
1000
0000
0000
0010
0000
0000
0000
0000
0000
0110
0000
0000
0000
0000
0000
1000
0000
0100
0000
0010
0000
,
0001
0010
0100
1000
0000
0000
0010
0000
0000
0100
0000
0000
,
0001
0000
0010
0000
0001
1100
0000
0011
,
0000
0000
0001
0000
0100
0000
0001
0020
,
0000
0032
0000
0203
0000
0320
0000
1030
,
0001
0101
0000
0000
0001
0000
0010
0100
,
0010
0011
0000
0000
0100
1000
0000
0110
,
0000
0110
0001
0000
1000
0000
0001
0100
,
0000
0010
1001
0000
0110
0000
0001
0010
,
1001
0000
0010
0100
1000
0010
0001
0000
,
0010
0100
0001
0001
1000
1000
0001
0101
,
0000
0110
0100
0010
1000
1100
0000
0110
,
0000
0011
0000
1001
1001
0000
1000
0010
,
1001
0000
0010
0100
0001
0010
1000
0000
,
0010
0000
0100
0000
1000
0000
0001
1000
0001
0000
0100
0000
0001
0000
0010
0000
,
0110
0000
0000
0110
0000
1001
0000
0000
,
1000
0000
0000
0000
0001
0000
0000
0000
1000
0100
1000
0000
0000
0000
0010
0000
,
0000
0000
0000
0100
0001
0000
0010
0000
0000
0000
0210
0000
0000
0000
0300
1000
,
0001
0000
0000
0000
0100
0000
0000
0000
0001
0010
0001
0000
0000
0000
1000
0000
,
0000
0000
0000
0010
0100
0000
0001
0000
0000
0000
0110
0000
0110
0000
0000
0000
,
1000
0000
0000
0000
0010
0000
0000
0000
0100
0001
0100
0000
0000
0000
0010
0000
,
0000
0000
0000
1000
0100
0000
0010
0000
0000
0000
1002
0000
0000
0000
0003
0100
,
0010
0000
0000
0000
1000
0000
0000
0000
0100
1000
0100
0000
0000
0000
0010
0000
,
0100
0000
0000
1001
0000
0000
1000
0100
0010
0001
0100
0010
;

//---------------dance-single - Spork!----------------
#NOTEDATA:;
#CHARTNAME:Spork! - Beginner;
#STEPSTYPE:dance-single;
#DESCRIPTION:Spork!;
#CHARTSTYLE:;
#DIFFICULTY:Beginner;
#METER:1;
#RADARVALUES:0.077,0.125,0.044,0.070,0.000,49.000,5.000,8.000,0.000,0.000,0.000,0.000,0.000,0.077,0.125,0.044,0.070,0.000,49.000,5.000,8.000,0.000,0.000,0.000,0.000,0.000;
#CREDIT:Spork!;
#NOTES:
// measure 0
0000
0000
0000
0000
,  // measure 1
0000
0000
0000
0000
,  // measure 2
0000
0000
0000
0000
,  // measure 3
0000
0000
0000
0000
,  // measure 4
0000
0000
0000
0000
,  // measure 5
0000
0000
0000
0000
,  // measure 6
0000
0000
0000
0000
,  // measure 7
0000
0000
0000
0000
,  // measure 8
0010
0000
0010
0000
,  // measure 9
0010
0000
0010
0000
,  // measure 10
0000
0000
0000
0000
,  // measure 11
0000
0000
0000
0000
,  // measure 12
0100
0000
0100
0000
,  // measure 13
0100
0000
0100
0000
,  // measure 14
0000
0000
0000
0000
,  // measure 15
0000
0000
0000
1001
,  // measure 16
0000
0000
0000
1001
,  // measure 17
0000
0000
0000
0000
,  // measure 18
0100
0000
0001
0000
,  // measure 19
1000
0000
0000
0110
,  // measure 20
0000
0000
0000
0110
,  // measure 21
0000
0000
0000
0000
,  // measure 22
0001
0000
1000
0000
,  // measure 23
0010
0000
0020
0000
,  // measure 24
0000
0000
0030
0000
,  // measure 25
0000
0000
0200
0000
,  // measure 26
0000
0000
0300
0000
,  // measure 27
0000
0000
0002
0000
,  // measure 28
0000
0000
0003
0000
,  // measure 29
0000
0000
2000
0000
,  // measure 30
0000
0000
3000
0000
,  // measure 31
0000
0000
0001
0000
,  // measure 32
0001
0000
0010
0000
,  // measure 33
0010
0000
0100
0000
,  // measure 34
1000
0000
0001
0000
,  // measure 35
0000
1000
0000
0000
,  // measure 36
0000
0100
0000
0000
,  // measure 37
0000
0010
0000
0000
,  // measure 38
0000
0001
0000
0000
,  // measure 39
0000
0001
0000
0000
,  // measure 40
0000
0100
0000
0000
,  // measure 41
0000
0010
0000
0000
,  // measure 42
0000
1001
0000
0200
,  // measure 43
0000
0000
0000
0300
,  // measure 44
0000
0000
0000
0020
,  // measure 45
0000
0000
0000
0030
,  // measure 46
0000
0000
0000
2000
,  // measure 47
0000
0000
0000
3000
,  // measure 48
0000
0000
0000
0002
,  // measure 49
0000
0000
0000
0003
,  // measure 50
1000
0000
0000
0000
,  // measure 51
0100
0000
0000
0000
,  // measure 52
1000
0000
0000
0000
,  // measure 53
0001
0000
0000
0000
,  // measure 54
0001
0000
0000
0000
,  // measure 55
0010
0000
0000
0000
,  // measure 56
0001
0000
0000
0000
,  // measure 57
1000
0000
0000
0000
;

//---------------dance-single - Spork!----------------
#NOTEDATA:;
#CHARTNAME:Spork! - Light;
#STEPSTYPE:dance-single;
#DESCRIPTION:Spork!;
#CHARTSTYLE:;
#DIFFICULTY:Easy;
#METER:4;
#RADARVALUES:0.231,0.278,0.140,0.140,0.000,153.000,16.000,16.000,0.000,0.000,0.000,0.000,0.000,0.231,0.278,0.140,0.140,0.000,153.000,16.000,16.000,0.000,0.000,0.000,0.000,0.000;
#CREDIT:Spork!;
#NOTES:
0000
0000
0000
0000
,
0000
0000
0000
0000
,
0000
0000
0000
0000
,
0000
0000
0000
0000
,
0000
0000
0010
0000
0000
0010
0000
0000
,
0000
0000
0210
0000
0000
0001
0300
0000
,
0000
0000
0001
0000
0000
0001
0000
1000
,
0000
2002
0000
3003
,
1100
0000
0110
0000
,
0011
0000
1001
0001
,
0100
0010
1000
0010
,
0100
0001
1000
0000
,
0101
0000
0110
0000
,
1010
0000
1001
1000
,
0100
0010
0001
0010
,
0100
0000
1000
0000
0001
0000
0100
0200
,
0000
0000
0000
0000
0000
0000
0310
0020
,
0000
0000
0000
1030
,
0001
0010
1000
0010
,
0001
0000
0100
0000
0010
0000
1000
2000
,
0000
0000
0000
0000
0000
0000
3001
0002
,
0000
0000
0000
0013
,
0001
0100
1000
0100
,
0101
0000
1000
0100
,
0000
0100
0000
0010
0000
0000
0000
0010
,
0000
0100
0010
0001
,
0000
0001
0000
0100
0000
0000
0100
0000
,
0010
1000
0001
0010
,
0000
0010
0000
0100
0000
0000
0000
0100
,
0000
0010
0100
1000
,
0000
1000
0000
0010
0000
1000
0000
0001
,
0000
0000
0200
0010
,
0002
0300
0000
0000
0010
0000
0000
0000
2000
0003
0000
0000
0100
0000
0000
0000
,
0020
3000
0000
0000
0100
0000
0000
0000
1000
0030
0000
0000
0100
0000
0000
0000
,
0010
0001
1000
1001
,
1001
0001
0000
0010
,
0000
0000
0001
0000
0000
0001
0000
1000
,
0000
1000
0000
0010
,
0000
0000
1000
0000
0000
0000
0000
1000
,
0000
0002
0000
0000
0000
0003
0000
0100
,
0000
0020
0000
0000
0000
0030
0000
0100
,
0000
0010
0000
1000
0000
0002
0000
0000
,
0000
1003
0000
0001
,
0010
0000
0000
0010
0000
0100
0000
0000
,
0000
0100
0000
0000
0010
0000
0100
0000
,
1000
0000
0000
1000
0000
0001
0000
0000
,
0001
0010
0001
1000
,
0010
0000
0000
0010
0000
0100
0000
0000
,
0000
0100
0000
0000
0010
0000
0100
0000
,
0001
0000
0000
0001
0000
1000
0000
0000
,
0000
0000
0010
0000
0000
0010
0000
0000
,
0000
0000
0120
0000
0000
1000
0030
0000
,
0000
0000
1000
0000
0000
1000
0000
0001
,
0000
0000
0010
0000
0000
0001
0001
0000
,
0000
0000
0100
0000
0000
0100
0000
0000
,
0000
0000
0210
0000
0000
0001
0300
0000
,
0000
0000
0001
0000
0000
0001
0000
1000
,
0000
0010
0000
1001
;

//---------------dance-single - Spork!----------------
#NOTEDATA:;
#CHARTNAME:Spork! - Standard;
#STEPSTYPE:dance-single;
#DESCRIPTION:Spork!;
#CHARTSTYLE:;
#DIFFICULTY:Medium;
#METER:6;
#RADARVALUES:0.405,0.354,0.472,0.341,0.000,231.000,54.000,39.000,0.000,0.000,0.000,0.000,0.000,0.405,0.354,0.472,0.341,0.000,231.000,54.000,39.000,0.000,0.000,0.000,0.000,0.000;
#CREDIT:Spork!;
#NOTES:
0000
0000
0000
0000
,
0000
0000
0000
0000
,
0000
0000
0000
0000
,
0000
0000
0000
0000
,
1000
0000
0020
0000
0000
0200
0030
0000
,
0301
0000
2001
0000
0000
3200
0000
0000
,
0310
0000
0002
0000
0000
2003
0000
0001
,
3000
1100
0000
0101
,
0002
0000
0000
0000
0010
0000
0000
0000
2000
0003
0000
0000
0100
0000
0000
0000
,
0020
3000
0000
0000
1000
0000
0000
0000
0200
0030
0000
0000
0301
0000
0010
0000
,
0100
0000
0010
0000
0001
0010
0100
1000
,
0000
0010
0000
0100
0000
1001
1001
0000
,
2000
0000
0000
0000
0010
0000
0000
0000
0002
3000
0000
0000
0100
0000
0000
0000
,
0020
0003
0000
0000
0001
0000
0000
0000
0200
0030
0000
0000
1300
0000
0010
0000
,
0100
0000
0010
0000
1000
0100
0010
0001
,
0000
0100
0000
0010
0000
1001
1001
0000
,
0002
0000
0100
0000
0013
0001
1000
0000
,
2000
0000
0010
0000
3100
0010
0010
0000
,
0011
0100
1010
0100
,
1001
0000
0100
0000
0010
1001
1001
0000
,
2000
0000
0010
0000
3100
0010
0001
0000
,
0002
0000
0010
0000
0103
0010
0010
0000
,
1010
0100
1001
0010
,
2002
0000
3003
0000
1000
0100
1100
0000
,
0000
1000
0001
1001
0000
0000
0000
0001
,
0000
0001
0100
0100
0001
0010
0011
0000
,
0000
0010
0100
0110
0000
0000
0010
0001
,
1000
1000
0010
1000
0001
0100
0101
0000
,
0000
0001
1000
1001
0000
0000
0000
1000
,
0000
1000
0100
0100
1000
0010
1010
0000
,
0000
0110
0000
1010
0000
1001
0000
0011
,
0000
0000
0000
0000
0010
0001
0100
0000
,
0010
1000
0100
0000
0100
1000
0010
0000
,
0100
0001
0010
0000
0001
0100
1000
0000
,
1000
0100
0001
0000
1000
0000
0011
0000
,
1100
0000
0110
0000
0010
0000
0000
0100
,
0000
1000
0000
0000
0000
1010
0000
0101
,
0000
0000
0010
0000
0100
0000
0000
0010
,
0000
0001
0000
1000
0000
0010
0000
1010
,
0000
0022
0000
0000
0033
0000
0000
0101
,
0000
2200
0000
0000
3300
0000
0000
1100
,
0000
0011
0000
0101
0000
1010
0000
0010
,
0000
2002
0000
0000
3003
0000
1000
0001
,
0101
0000
0000
0001
1000
1100
0000
0000
,
0000
1000
0000
1000
0001
0001
1000
0010
,
0110
0000
0000
0001
0010
0110
0000
1001
,
1000
0001
1000
1000
0100
0010
0001
1000
,
1010
0000
0000
1000
0001
0011
0000
0000
,
0000
0001
0000
0001
0100
0100
0001
0010
,
0110
0000
0000
1100
0000
1001
0000
0000
,
0001
0000
0020
0000
0000
0200
0030
0000
,
1300
0000
1002
0000
0000
0203
0000
0000
,
0310
0000
2000
0000
0000
3020
0000
0200
,
0030
0000
0300
0001
1000
0000
0001
0000
,
1000
0000
0200
0000
0000
0320
0000
0000
,
0031
0000
2001
0000
0000
3020
0000
0000
,
0130
0000
0002
0000
0000
0023
0000
0100
,
0030
0000
1100
0000
1000
0001
1001
0000
;

//---------------dance-single - Spork!----------------
#NOTEDATA:;
#CHARTNAME:Spork! - Expert;
#STEPSTYPE:dance-single;
#DESCRIPTION:Spork!;
#CHARTSTYLE:;
#DIFFICULTY:Challenge;
#METER:9;
#RADARVALUES:0.581,0.532,0.472,0.332,0.232,373.000,54.000,38.000,25.000,0.000,8.000,0.000,0.000,0.581,0.532,0.472,0.332,0.232,373.000,54.000,38.000,25.000,0.000,8.000,0.000,0.000;
#CREDIT:Spork!;
#NOTES:
0000
0000
0000
0000
,
0000
0000
0000
0000
,
0000
0000
0000
0000
,
0000
0000
0000
0000
,
1100
0000
0000
0000
0101
0000
0000
0000
1000
0100
0010
0000
0001
0000
1000
0000
,
0100
0000
0000
0010
0100
0000
1000
0000
0000
0000
1020
0000
0000
0000
0030
1000
,
0001
0000
0000
0000
1100
0000
0000
0000
0001
0100
0010
0000
1000
0000
0001
0000
,
0010
0000
0000
0000
0000
0000
0000
0000
0000
0000
0000
0000
1001
0000
0000
0000
0000
0000
0001
0000
0010
0000
0100
0000
1000
0000
0000
0100
0000
0000
0000
0000
0000
1000
0000
0000
0000
0000
0000
0010
0000
0000
0100
0000
0000
0010
0000
0000
,
1000
0100
1000
0100
0010
0001
0010
0001
,
0100
0010
0100
0010
1000
0001
0100
0001
,
0020
0000
1000
0000
0031
1000
0010
0200
,
0000
1000
0000
0001
0300
0110
1001
0000
,
0001
0100
0001
0100
0010
1000
0010
1000
,
0100
0010
0100
0010
0001
1000
0100
1000
,
0020
0000
0001
0000
0130
0001
0010
0200
,
0000
0001
0000
1000
0300
1100
0110
0001
,
0100
0000
0000
0000
1100
0000
0000
0000
0100
0010
0100
0000
0001
0000
0100
0000
,
0010
0000
0000
0100
0001
0000
0200
0000
0000
0000
1300
0000
0100
0000
0001
0000
,
0010
0000
1000
0000
0010
0000
0001
0000
0100
0001
1000
0000
0001
0000
0010
0000
,
0100
0000
0000
0010
0001
0000
1000
0000
0000
0000
0011
0000
0110
0000
1000
0000
,
0010
0000
0000
0000
0011
0000
0000
0000
0010
0100
0010
0000
1000
0000
0010
0000
,
0100
0000
0000
0010
1000
0000
0020
0000
0000
0000
0031
0000
0010
0000
1000
0000
,
0100
0000
0001
0000
0100
0000
1000
0000
0010
1000
0001
0000
0010
0000
0100
0000
,
0110
0000
0000
0000
1001
0000
0000
0000
2000
0000
3100
00M0
0100
0000
0001
0000
,
2000
0000
3001
0000
0100
00M0
0100
0000
2000
0000
3010
0000
0100
0000
0210
0000
,
0310
0000
1000
0000
0001
0000
0100
0000
0001
0000
0010
0M00
0010
0000
1000
0000
,
0001
0000
1000
0000
0010
0M00
0010
0000
0001
0000
0400
0000
0301
0000
0040
0000
,
0130
0000
0000
0000
1400
0000
0000
0300
1001
0000
0000
0000
4000
0000
0000
0000
3002
0000
0000
0000
0013
0000
0M00
0000
0010
0000
0000
0000
1000
0000
0000
0000
,
0002
0000
1003
0000
0100
00M0
0100
0000
0002
0000
0013
0000
0100
0000
0120
0000
,
0130
0000
1000
0000
0001
0000
1000
0000
0010
0000
0100
000M
0100
0000
1000
0000
,
0010
0110
0000
1010
0000
0101
0000
0011
,
0000
0110
1001
0000
1000
0000
0100
0000
,
0010
0001
0100
0000
0000
0000
0010
0000
1000
0000
0000
0010
0100
0000
0001
0000
,
0000
0000
1000
0000
0110
0000
0000
1000
0001
0000
0000
0000
0100
0000
0000
0000
,
0010
0000
0000
1000
0000
0000
0100
0000
0000
0000
0000
0000
0000
0000
0000
0000
0000
0000
1000
0000
0000
0000
0000
0000
0001
0000
0000
0000
0000
0000
0000
0000
0000
0000
0000
0000
1000
0000
0000
0000
0010
0000
0000
0000
0100
0000
0000
0000
,
0001
0000
0100
0000
0010
0000
2000
0000
0000
0000
0000
0000
0200
0000
0000
3000
0000
0000
0001
0000
0000
0002
0000
0000
,
0300
0000
2000
0000
0003
0000
0010
3000
0001
0000
0101
0000
0000
0000
1100
0000
,
0000
1000
0002
0000
0200
0003
1000
2000
,
0300
0000
0002
0000
3000
0000
0020
0000
0003
0000
2000
0000
0030
0000
0001
3000
,
0010
0100
1100
0000
0102
0000
0000
1003
,
0100
0010
0011
0000
1010
0100
0000
0101
,
0000
1100
0000
0110
0000
1001
0000
1000
,
0000
0000
0001
0000
0110
0000
0000
0000
1001
0000
0000
0000
0002
0000
0013
0M00
,
0010
0000
1000
0000
0002
0000
0103
0000
0010
M000
0010
0000
0002
0000
0103
0000
,
0010
0000
2010
0000
3010
0000
0100
0000
0001
0000
1000
0000
0100
0000
001M
0M00
,
0010
0000
M100
0000
0001
0000
0010
0000
0100
M000
01M0
0000
0001
0000
4M00
0000
,
3010
0000
0000
0000
0400
0000
0000
0000
0301
0000
0000
0000
0041
0000
0000
0030
1001
0000
0000
0000
0004
0000
0000
0000
2003
0000
0000
0000
3010
0000
0M00
0000
,
0010
0000
0001
0000
2000
0000
3010
0000
0100
000M
01M0
0000
2000
0000
30M1
0000
,
0100
0000
M102
0000
0103
0000
001M
0000
1000
0000
0100
0000
0010
0000
0100
M000
,
0100
00M1
1000
101M
0000
0M11
1001
0000
,
0101
0000
0000
0000
1100
0000
0000
0000
0001
0100
0010
0000
1000
0000
0001
0000
,
0100
0000
0000
0010
0100
0000
0001
0000
0000
0000
0021
0000
0000
0000
0030
0001
,
1000
0000
0000
0000
0101
0000
0000
0000
1000
0100
0010
0000
0001
0000
1000
0000
,
0010
0000
0000
0010
0100
0000
0001
0000
0020
0000
0100
0000
0031
1000
0000
0000
,
1010
0000
0000
0000
0011
0000
0000
0000
1000
0100
0010
0000
0001
0000
1000
0000
,
0010
0000
0000
0010
0200
0000
0010
0000
0300
0000
1020
0000
0000
0000
0030
1000
,
0001
0000
0000
0000
1010
0000
0000
0000
0001
1000
0010
0000
1000
0000
0100
0000
,
0010
0000
0000
0000
0000
0000
1001
0000
0000
1000
0000
0000
0001
0000
0100
0000
0010
0000
1000
0000
0100
0000
0010
0000
;
